#TITLE:IN MY HEAD;
#SUBTITLE:Full Song;
#ARTIST:Jason DerĂ¼lo;
#TITLETRANSLIT:;
#SUBTITLETRANSLIT:;
#ARTISTTRANSLIT:;
#CREDIT:;
#BANNER:IN MY HEAD (Full Song).png;
#BACKGROUND:IN MY HEAD (Full Song)-bg.png;
#LYRICSPATH:;
#CDTITLE:./CDTITLES/DanceDanceRevolution II.png;
#MUSIC:IN MY HEAD (Full Song).ogg;
#OFFSET:0.000;
#SAMPLESTART:45.040;
#SAMPLELENGTH:15.000;
#SELECTABLE:YES;
#DISPLAYBPM:110.000;
#BPMS:0.000=110.000;
#STOPS:;
#BGCHANGES:;

//---------------dance-single - ----------------
#NOTES:
     dance-single:
     :
     Beginner:
     1:
     0.093,0.133,0.015,0.080,0.000:
0000
0000
0000
0000
,
0000
0000
0000
0000
,
0000
0000
0000
0000
,
0000
0000
0000
0000
,
0000
0000
0000
0000
,
1000
0000
0000
0000
,
0010
0000
0000
0000
,
1000
0000
0000
0000
,
0010
0000
0000
0000
,
1000
0000
0000
0000
,
1000
0000
0000
0000
,
0010
0000
0000
0000
,
2000
3000
0000
0000
,
0020
0030
0000
0000
,
1000
0000
1000
0000
,
0010
0000
0000
0000
,
1000
0000
1000
0000
,
0020
0030
0000
0000
,
0001
0000
0001
0000
,
0010
0000
0000
0000
,
0001
0001
0001
0000
,
2000
3000
0000
0000
,
1000
1000
1000
0000
,
0002
0003
0000
0000
,
0001
0001
0001
0000
,
0020
0030
0000
0000
,
1000
0000
0001
0000
,
1000
0000
0000
0000
,
0001
0000
0000
0000
,
1001
0000
0000
0000
,
0000
0000
0000
0000
,
0000
0000
0000
0000
,
0000
0000
0000
0000
,
0001
0000
0000
0000
,
0010
0000
0000
0000
,
0001
0000
0000
0000
,
0010
0000
0000
0000
,
0001
0000
0000
0000
,
0001
0000
0000
0000
,
0010
0000
0000
0000
,
0001
0001
0001
0000
,
2000
0000
0000
3000
,
0001
0000
0001
0000
,
1000
0000
0000
0000
,
0001
0000
0001
0000
,
0002
0000
0000
0003
,
1000
0000
1000
0000
,
0001
0000
0000
0000
,
1000
1000
1000
0000
,
0002
0003
0000
0000
,
0001
0001
0001
0000
,
2000
3000
0000
0000
,
1000
1000
1000
0000
,
0020
0030
0000
0000
,
0001
0000
1000
0000
,
0001
0000
0000
0000
,
1000
0000
0000
0000
,
1001
0000
0000
0000
,
0000
0000
0000
0000
,
0000
0000
0000
0000
,
1000
1000
1000
0000
,
0000
0000
0000
0000
,
0000
0000
0000
0000
,
0000
0000
0000
0000
,
0001
0001
0001
0000
,
2000
0000
0000
0000
,
0000
0000
3000
0000
,
0002
0000
0000
0000
,
0000
0000
0003
0000
,
1000
0000
0000
0000
,
0001
0000
0000
0000
,
0001
0000
0001
0000
,
1000
0000
0000
0000
,
0001
0000
0000
0000
,
0000
0000
0000
0000
,
1000
0000
0000
0000
,
0000
0000
0000
0000
,
1000
0000
1000
0000
,
0001
0000
0001
0000
,
1000
1000
1000
0000
,
0001
0001
0001
0000
,
2000
3000
0000
0000
,
1000
1000
1000
0000
,
0002
0003
0000
0000
,
0001
0001
0001
0000
,
0020
0030
0000
0000
,
0001
0000
1000
0000
,
0001
0000
0000
0000
,
1000
0000
0000
0000
,
1001
0000
0000
0000
,
;

//---------------dance-single - ----------------
#NOTES:
     dance-single:
     :
     Easy:
     4:
     0.143,0.177,0.045,0.115,0.000: // measure 1
0000
0000
0000
0000
,  // measure 2
0000
0000
0000
0000
,  // measure 3
0000
0000
0000
0000
,  // measure 4
0000
0000
0000
0000
,  // measure 5
0000
0000
0000
0000
,  // measure 6
1000
0000
1000
0010
,  // measure 7
0100
0000
0000
0000
,  // measure 8
0001
0000
0001
0100
,  // measure 9
0010
0000
0000
0000
,  // measure 10
0010
0000
0010
0100
,  // measure 11
1000
0000
0001
0000
,  // measure 12
1000
0000
0100
0010
,  // measure 13
2000
3000
0002
0003
,  // measure 14
0020
0030
1000
0000
,  // measure 15
0100
0000
0000
0000
,  // measure 16
0010
0000
1000
0000
,  // measure 17
0010
0100
0010
0000
,  // measure 18
0200
0300
0010
0000
,  // measure 19
0100
0000
0010
0000
,  // measure 20
0001
1000
0001
0000
,  // measure 21
0001
1000
0100
0000
,  // measure 22
2000
3000
0100
0000
,  // measure 23
0200
0300
1001
0000
,  // measure 24
0002
0003
0100
0000
,  // measure 25
0200
0300
1001
0000
,  // measure 26
2000
3000
0001
0000
,  // measure 27
0100
0000
0001
0000
,  // measure 28
0100
0001
0000
0000
,  // measure 29
1000
0100
0000
0000
,  // measure 30
1001
0000
0000
0000
,  // measure 31
0000
0000
0000
0000
,  // measure 32
0000
0000
0000
0000
,  // measure 33
0000
0000
0000
0000
,  // measure 34
0001
0000
0001
0010
,  // measure 35
0100
0000
0000
0000
,  // measure 36
1000
0000
1000
0100
,  // measure 37
0010
0000
0000
0000
,  // measure 38
0010
0000
0010
0100
,  // measure 39
0001
0000
1000
0000
,  // measure 40
0001
0000
0000
0000
,  // measure 41
1000
0001
1000
0001
,  // measure 42
2000
0000
0001
3000
,  // measure 43
0001
1000
0100
0000
,  // measure 44
1000
0000
0010
0000
,  // measure 45
1000
0010
1000
0000
,  // measure 46
0002
0000
0010
0003
,  // measure 47
1000
0100
0010
0000
,  // measure 48
0001
0000
1000
0000
,  // measure 49
0001
0010
0100
1000
,  // measure 50
0002
0003
0100
0000
,  // measure 51
0200
0300
1001
0000
,  // measure 52
2000
3000
0010
0000
,  // measure 53
0200
0300
1001
0000
,  // measure 54
0002
0003
1000
0000
,  // measure 55
0010
0000
1000
0000
,  // measure 56
0100
1000
0000
0000
,  // measure 57
0001
0100
0000
0000
,  // measure 58
1001
0000
0001
0000
,  // measure 59
0000
0000
0010
0000
,  // measure 60
0000
0000
0001
0000
,  // measure 61
1000
1000
0001
0001
,  // measure 62
0000
0000
1000
0000
,  // measure 63
0000
0000
0100
0000
,  // measure 64
0000
0000
1000
0000
,  // measure 65
0001
0001
1000
1000
,  // measure 66
2000
0000
0000
0000
,  // measure 67
0000
0000
3000
0000
,  // measure 68
0002
0000
0000
0000
,  // measure 69
0000
0000
0003
0000
,  // measure 70
1000
0000
0100
0000
,  // measure 71
0001
0000
0100
0000
,  // measure 72
0001
0001
1000
1000
,  // measure 73
0100
0000
0000
0000
,  // measure 74
0001
0000
0000
0000
,  // measure 75
0100
0000
0001
0000
,  // measure 76
1000
0000
0000
0000
,  // measure 77
0100
0000
1000
0000
,  // measure 78
1000
0000
0010
0000
,  // measure 79
0100
0000
0001
0000
,  // measure 80
1000
1000
0001
0001
,  // measure 81
1000
0100
0001
0100
,  // measure 82
2000
3000
0010
0000
,  // measure 83
0200
0300
1001
0000
,  // measure 84
0002
0003
0100
0000
,  // measure 85
0200
0300
1001
0000
,  // measure 86
2000
3000
0001
0000
,  // measure 87
0100
0000
0001
0000
,  // measure 88
0100
0001
0000
0000
,  // measure 89
1000
0100
0000
0000
,  // measure 90
1001
0000
0000
0000
;

//---------------dance-single - ----------------
#NOTES:
     dance-single:
     :
     Medium:
     6:
     0.238,0.268,0.070,0.149,0.000:
0000
0000
0000
0000
,
0000
0000
0000
0000
,
0000
0000
0000
0000
,
0000
0000
0000
0000
,
0000
0000
0000
0000
,
0001
0001
1000
0100
,
0010
0010
0100
0000
,
1000
1000
0010
0100
,
0001
1000
0001
0000
0100
0000
0000
0000
,
0010
0010
1000
0100
,
0100
0010
0001
0000
,
0001
0000
0001
0000
1000
0100
0010
0000
,
0002
2003
3002
0003
,
0020
0030
0001
0001
,
0100
0000
0010
1000
0100
0000
0000
0000
,
0010
0000
0001
0100
,
0010
1000
0100
0000
0010
0000
0000
0000
,
0200
0300
0010
1000
,
0100
1000
0001
0000
0010
0000
0000
0000
,
1000
0000
0001
0000
0100
0001
0010
0000
,
1000
0001
0100
0000
0100
0001
1000
0000
,
0002
0003
0110
1000
,
0200
0310
1001
0000
,
2000
3000
0110
0001
,
0200
0310
1001
0000
,
0002
1003
1000
0020
,
0130
0000
0100
0001
1000
0000
0000
0000
,
0100
1000
0100
0010
,
0001
0100
0010
0100
,
1001
0000
0000
0000
,
0000
0000
0000
0000
,
0000
0000
0000
0000
,
0000
0000
0000
0000
,
1000
1000
0001
0100
,
0010
0010
0100
0000
,
0001
0001
0010
0100
,
1000
0001
1000
0000
0100
0000
0000
0000
,
0010
0010
0001
0100
,
0100
0010
1000
0000
,
1000
0000
0001
0000
,
0001
0000
1000
0000
0001
0001
0100
0000
,
0002
0000
0100
0000
0100
1000
1003
0000
,
1000
0001
0100
0000
,
0001
0010
0100
1000
,
0001
0010
0100
0000
0001
0000
0000
0000
,
2000
0000
0010
0000
0010
0001
3001
0000
,
0001
0010
0100
0000
0010
0000
0000
0000
,
1000
0100
0001
0100
,
1000
0100
0010
0000
0100
0010
0001
0000
,
2000
3000
0110
0001
,
0200
0310
1001
0000
,
0002
0003
0110
1000
,
0200
0310
1001
0000
,
2000
3001
0001
0020
,
0130
0000
0100
0001
1000
0000
0000
0000
,
0100
0001
0100
0010
,
1000
0100
0010
0100
,
1001
0000
0000
1000
1000
0000
0000
0000
,
0000
0000
0000
0010
0010
0000
0000
0000
,
0000
0000
0000
1000
1000
0000
0000
0000
,
0001
0001
0100
0000
1000
1000
0100
0000
,
0000
0000
0000
0001
0001
0000
0000
0000
,
0000
0000
0000
0100
0100
0000
0000
0000
,
0000
0000
0000
0001
0001
0000
0000
0000
,
1000
1000
0100
0000
0001
0001
0100
0000
,
0002
0000
1000
0000
,
0010
0000
1003
0000
,
2000
0000
0001
0000
,
0100
0000
3001
0000
,
0100
0100
0001
0001
,
1000
1000
0010
0010
,
1000
1000
0001
0001
,
0100
0000
0010
0000
0100
0010
0100
0000
,
1000
0000
0000
1000
0000
0100
0000
2000
,
0000
3000
0100
0000
,
0001
0000
0000
0001
0000
0100
0000
0002
,
0000
0003
0100
0000
,
0001
0001
0010
0010
,
0100
0100
1000
1000
,
0001
0100
0010
0100
,
1000
1000
0100
0000
0001
0001
0100
0000
,
0002
0003
0110
1000
,
0200
0310
1001
0000
,
2000
3000
0110
0001
,
0200
0310
1001
0000
,
0002
1003
1000
0020
,
0130
0000
0100
0001
1000
0000
0000
0000
,
0100
1000
0100
0010
,
0001
0100
0010
0100
,
1000
0002
0000
0000
0000
0000
0003
0000
,
;

//---------------dance-single - ----------------
#NOTES:
     dance-single:
     :
     Hard:
     8:
     0.377,0.402,0.149,0.244,0.007:
0000
0000
0000
0000
,
0000
0000
0000
0000
,
0000
0000
0000
0000
,
0000
0000
0000
0000
,
0000
0000
0000
0000
,
1000
0000
0100
0001
0001
0010
0100
0000
,
1000
1000
0100
0010
0100
0000
0001
0000
,
0010
0010
0001
0001
0100
0000
1000
0000
,
0010
1000
0010
0000
0100
0001
0010
0000
,
0001
0001
0010
0001
0010
0000
0001
0100
,
0001
0000
0010
0010
1000
0100
1000
0000
,
0001
1000
0100
0000
1000
0100
0010
0001
,
0200
0000
0320
0000
2030
0001
3001
0000
,
2000
0100
3100
0000
0010
0000
1000
0000
,
0100
1000
0001
0010
0100
0100
0100
0000
,
1000
1000
0001
0001
0100
0000
0010
0000
,
1000
0010
0100
0010
0000
0010
1000
0100
,
0002
0100
0103
0000
0010
0000
0001
0000
,
0100
0001
1000
0010
0000
0100
0010
1000
,
0001
0000
1000
0000
0100
1000
0010
0000
,
0001
0000
0001
0000
0010
0000
0100
0000
0100
0000
1000
0100
0001
0000
0000
0000
,
2000
0100
3100
1100
0000
0010
0001
0201
,
0000
0010
0310
0000
1100
0000
0110
0000
,
0002
0100
0103
0101
0000
0010
1000
1200
,
0000
0010
0310
0000
0101
0000
0110
0000
,
2000
0000
3001
0100
0001
0020
0100
0000
,
0130
0000
0100
0010
1000
0100
1000
0000
,
0100
0000
0001
0100
1000
0100
0100
0000
,
0100
0000
1000
0100
0001
0100
0100
0000
,
1001
0000
0000
0000
,
0000
0000
0000
0000
,
0000
0000
0000
0000
,
0000
0000
0000
0000
,
0001
0000
0100
1000
1000
0010
0100
0000
,
0001
0001
0100
0010
0100
0000
1000
0000
,
0010
0010
1000
1000
0100
0000
0001
0000
,
0010
0001
0010
0000
0100
1000
0010
0000
,
1000
1000
0010
1000
0010
0000
1000
0100
,
1000
0000
0010
0010
0001
0100
0001
0000
,
1000
0001
0100
0000
0001
0100
0010
0000
,
1000
1000
0001
0001
0010
0010
0100
0100
,
2000
0000
3100
0200
0000
0010
0310
0000
,
0001
0010
0010
0100
1000
1000
0001
0000
,
1000
1000
0010
0010
0100
0000
0001
0000
,
1000
0010
0100
0010
0000
0010
0001
0100
,
0002
0000
0013
0020
0000
0100
0130
0000
,
1000
0100
0100
0010
0000
0010
0001
1000
,
0001
0000
0100
0000
0010
1000
0100
0000
,
0010
0000
0010
0000
0001
0000
0100
0000
0100
0000
0010
0100
1000
0000
0000
0000
,
0002
0100
0103
0101
0000
0010
1000
1200
,
0000
0010
0310
0000
0101
0000
0110
0000
,
2000
0100
3100
1100
0000
0010
0001
0201
,
0000
0010
0310
0000
1100
0000
0110
0000
,
0002
0000
1003
0100
1000
0020
0100
0000
,
0130
0000
0100
0010
0001
0100
0001
0000
,
0100
0000
1000
0100
0001
0100
0100
0000
,
0100
0000
0001
0100
1000
0100
0100
0000
,
1001
0000
0000
0002
0200
0003
0301
0000
,
0000
0000
0000
2000
0200
3000
1300
0000
,
0000
0000
0000
0002
0200
0003
0301
0000
,
1000
1000
0100
0100
0010
0001
1000
0000
,
0000
0000
0000
2000
0200
3000
1300
0000
,
0000
0000
0000
0002
0200
0003
0301
0000
,
0000
0000
0000
2000
0200
3000
1300
0000
,
0001
0001
0100
0100
0010
1000
0001
0000
,
2000
0000
3002
0000
,
0203
0000
0320
0000
,
2030
0000
3002
0000
,
0023
0000
0030
0000
,
0100
0100
1000
1000
,
0001
0001
0010
0010
,
0001
0100
0001
0000
0010
0100
0010
0000
,
1000
0000
1000
0000
0001
0000
0010
0000
0010
0000
0001
0100
1000
0000
0000
0000
,
0001
0000
0000
0011
0000
0101
0000
0002
,
0000
0100
0103
1000
0100
0010
0010
0000
,
1000
0000
0000
1010
0000
1100
0000
2000
,
0000
0100
3100
0001
0100
0010
0010
0000
,
1000
1000
1000
0000
0010
0010
0010
0000
,
0100
0100
0100
0000
0001
0001
0001
0000
,
1000
1000
0100
0010
0010
0001
0100
0100
,
0001
0001
0100
0010
0010
1000
0100
0000
,
2000
0100
3100
1100
0000
0010
0001
0201
,
0000
0010
0310
0000
1100
0000
0110
0000
,
0002
0100
0103
0101
0000
0010
1000
1200
,
0000
0010
0310
0000
0101
0000
0110
0000
,
2000
0000
3001
0100
0001
0020
0100
0000
,
0130
0000
0100
0010
1000
0100
1000
0000
,
0100
0000
1000
0100
0001
0100
1000
0000
,
0100
0000
1000
0100
0001
0100
1000
0000
,
0001
2000
0000
0000
0000
0000
3000
0000
,
;

//---------------dance-double - ----------------
#NOTES:
     dance-double:
     :
     Easy:
     4:
     0.143,0.177,0.045,0.115,0.000:
00000000
00000000
00000000
00000000
,
00000000
00000000
00000000
00000000
,
00000000
00000000
00000000
00000000
,
00000000
00000000
00000000
00000000
,
00000000
00000000
00000000
00000000
,
10000000
00000000
00010000
01000000
,
00001000
00000000
00000000
00000000
,
00010000
00000000
00001000
00010000
,
00000100
00000000
00000000
00000000
,
00000010
00000000
00000010
00000001
,
00000100
00000000
00000010
00000000
,
00010000
00000000
00001000
00001000
,
02000000
03000000
00200000
00300000
,
20000000
30000000
01000000
00000000
,
01000000
00000000
00000000
00000000
,
00100000
00000000
00010000
00000000
,
00100000
00001000
00010000
00000000
,
00002000
00003000
01000000
00000000
,
00001000
00000000
00010000
00000000
,
00000100
00000010
00000001
00000000
,
00000100
00000010
00010000
00000000
,
00002000
00003000
01000000
00000000
,
00200000
00300000
11000000
00000000
,
00200000
00300000
00001000
00000000
,
00020000
00030000
00001100
00000000
,
00000020
00000030
00000001
00000000
,
00000100
00000000
00000010
00000000
,
00010000
00001000
00000000
00000000
,
01000000
00010000
00000000
00000000
,
00011000
00000000
00000000
00000000
,
00000000
00000000
00000000
00000000
,
00000000
00000000
00000000
00000000
,
00000000
00000000
00000000
00000000
,
00000001
00000000
00001000
00000100
,
00010000
00000000
00000000
00000000
,
00001000
00000000
00010000
00001000
,
01000000
00000000
00000000
00000000
,
00100000
00000000
00100000
10000000
,
01000000
00000000
00100000
00000000
,
00001000
00000000
00000000
00000000
,
00010000
00001000
00010000
00001000
,
00020000
00000000
00000100
00030000
,
00000100
00000010
00000001
00000000
,
00000100
00000000
00000010
00000000
,
00010000
00001000
00010000
00000000
,
00002000
00000000
01000000
00003000
,
00100000
10000000
01000000
00000000
,
00100000
00000000
00001000
00000000
,
00010000
00000100
00010000
00001000
,
00020000
00030000
00000100
00000000
,
00000020
00000030
00000101
00000000
,
00000020
00000030
00010000
00000000
,
00002000
00003000
01010000
00000000
,
00200000
00300000
10000000
00000000
,
01000000
00000000
00100000
00000000
,
00001000
00010000
00000000
00000000
,
00000100
00001000
00000000
00000000
,
00011000
00000000
00010000
00000000
,
00000000
00000000
00001000
00000000
,
00000000
00000000
00010000
00000000
,
00001000
00001000
01000000
01000000
,
00000000
00000000
00001000
00000000
,
00000000
00000000
00010000
00000000
,
00000000
00000000
00001000
00000000
,
00010000
00010000
00000100
00000100
,
00002000
00000000
00000000
00000000
,
00000000
00000000
00003000
00000000
,
00000002
00000000
00000000
00000000
,
00000000
00000000
00000003
00000000
,
00000100
00000000
00000010
00000000
,
00010000
00000000
00001000
00000000
,
00010000
00001000
01000000
00001000
,
00010000
00000000
00000000
00000000
,
00000100
00000000
00000000
00000000
,
00000010
00000000
00000001
00000000
,
00000100
00000000
00000000
00000000
,
00000010
00000000
00010000
00000000
,
00001000
00000000
00100000
00000000
,
01000000
00000000
10000000
00000000
,
00010000
00010000
01000000
01000000
,
00001000
00100000
00001000
00010000
,
00020000
00030000
00000100
00000000
,
00000020
00000030
00000101
00000000
,
00000020
00000030
00010000
00000000
,
00002000
00003000
01010000
00000000
,
00200000
00300000
10000000
00000000
,
01000000
00000000
00100000
00000000
,
00001000
00010000
00000000
00000000
,
00000100
00001000
00000000
00000000
,
00011000
00000000
00000000
00000000
,
;

//---------------dance-double - ----------------
#NOTES:
     dance-double:
     :
     Medium:
     6:
     0.244,0.291,0.070,0.159,0.000:
00000000
00000000
00000000
00000000
,
00000000
00000000
00000000
00000000
,
00000000
00000000
00000000
00000000
,
00000000
00000000
00000000
00000000
,
00000000
00000000
00000000
00000000
,
10000000
01000000
00010000
00001000
,
00000010
00000001
00000100
00000000
,
00000001
00000100
00001000
00010000
,
00100000
10000000
01000000
00000000
00010000
00000000
00000000
00000000
,
00001000
00001000
00010000
00000100
,
00000010
00000001
00001000
00000000
,
00000010
00000000
00000010
00000000
00010000
00001000
01000000
00000000
,
00020000
20030000
32000000
03000000
,
00200000
00300000
00010000
00010000
,
00001000
00000000
00000100
00000010
00000001
00000000
00000000
00000000
,
00000100
00000000
00000010
00010000
,
00001000
00010000
00100000
00000000
10000000
00000000
00000000
00000000
,
02000000
03000000
10000000
10000000
,
01000000
00010000
00001000
00000000
00100000
00000000
00000000
00000000
,
00001000
00000000
00010000
00000000
00000100
00000010
00000001
00000000
,
00001000
00000001
00000100
00000000
00000010
00010000
00001000
00000000
,
02000000
03100000
11000000
00100000
,
00002000
00013000
00001100
00000000
,
00000200
00000310
00000101
00000010
,
00020000
00031000
01010000
00000000
,
00200000
10300000
10000000
02000000
,
03100000
00000000
00100000
00010000
00001000
00000000
00000000
00000000
,
00000100
00001000
00000100
00000010
,
00000001
00000100
00000010
00010000
,
00011000
00000000
00000000
00000000
,
00000000
00000000
00000000
00000000
,
00000000
00000000
00000000
00000000
,
00000000
00000000
00000000
00000000
,
00000001
00000100
00001000
00010000
,
00100000
10000000
01000000
00000000
,
10000000
01000000
00010000
00001000
,
00000010
00000001
00000100
00000000
00001000
00000000
00000000
00000000
,
00010000
00010000
00001000
01000000
,
00100000
10000000
00010000
00000000
,
00200000
00300000
00002000
00003000
,
00010000
00000000
00000100
00000000
00000010
00000010
00000001
00000000
,
00000200
00000000
00000010
00000000
00000010
00000001
00000301
00000000
,
00001000
00000100
00010000
00000000
,
00001000
01000000
00100000
10000000
,
01000000
00100000
00010000
00000000
00001000
00000000
00000000
00000000
,
00000200
00000000
00000010
00000000
00000010
00001000
00001300
00000000
,
00001000
00000001
00000100
00000000
00000010
00000000
00000000
00000000
,
00010000
00001000
01000000
00100000
,
10000000
01000000
00100000
00000000
00010000
00001000
00000100
00000000
,
00000200
00000310
00000101
00000010
,
00020000
00031000
01010000
00000000
,
02000000
03100000
11000000
00100000
,
00002000
00013000
00001100
00000000
,
00000020
00000031
00000001
00000200
,
00000310
00000000
00000010
00001000
00010000
00000000
00000000
00000000
,
01000000
00010000
01000000
00100000
,
10000000
01000000
00100000
00001000
,
00011000
00000000
00000000
00100000
00100000
00000000
00000000
00000000
,
00000000
00000000
00000000
00001000
00001000
00000000
00000000
00000000
,
00000000
00000000
00000000
00100000
00100000
00000000
00000000
00000000
,
00000010
00010000
00001000
00000000
00100000
00001000
00010000
00000000
,
00000000
00000000
00000000
00000100
00000100
00000000
00000000
00000000
,
00000000
00000000
00000000
00010000
00010000
00000000
00000000
00000000
,
00000000
00000000
00000000
00000100
00000100
00000000
00000000
00000000
,
00010000
00010000
00000010
00000000
00001000
00001000
00100000
00000000
,
00020000
00000000
10000000
00000000
,
01000000
00000000
10030000
00000000
,
02000000
00000000
00010000
00000000
,
00100000
00000000
03010000
00000000
,
00001000
00001000
00000010
00000010
,
00000001
00000001
00000100
00000100
,
00000010
00000010
00010000
00010000
,
00100000
00000000
01000000
00000000
00001000
00100000
00010000
00000000
,
10000000
00000000
00000000
10000000
00000000
01000000
00000000
00020000
,
00000000
00030000
00001000
00000000
,
00000010
00000000
00000000
00000010
00000000
00000001
00000000
00000200
,
00000000
00000300
00001000
00000000
,
00010000
00010000
00100000
00100000
,
10000000
01000000
00010000
00001000
,
00000010
00000001
00000100
00001000
,
00010000
00010000
00001000
00000000
01000000
01000000
00100000
00000000
,
02000000
03100000
11000000
00100000
,
00002000
00013000
00001100
00000000
,
00000200
00000310
00000101
00000010
,
00020000
00031000
01010000
00000000
,
00200000
10300000
10000000
02000000
,
03100000
00000000
00100000
00010000
00001000
00000000
00000000
00000000
,
00000100
00001000
00000100
00000010
,
00000001
00000100
00000010
00010000
,
00001000
02000000
00000000
00000000
00000000
00000000
03000000
00000000
,
;

//---------------dance-double - ----------------
#NOTES:
     dance-double:
     :
     Hard:
     8:
     0.360,0.380,0.045,0.294,0.000:
00000000
00000000
00000000
00000000
,
00000000
00000000
00000000
00000000
,
00000000
00000000
00000000
00000000
,
00000000
00000000
00000000
00000000
,
00000000
00000000
00000000
00000000
,
10000000
00000000
00010000
00000000
01000000
00001000
00010000
00000000
,
00000100
00001000
00000100
00000010
00000001
00000001
00000100
00000000
,
00000010
00000010
00010000
00010000
00001000
00000000
00100000
00000000
,
01000000
10000000
01000000
00000000
00100000
00001000
00010000
00000000
,
00000100
00000100
00001000
00000100
00001000
00000000
00000001
00000010
,
00000001
00000000
00000100
00000000
00000010
00010000
00000010
00000000
,
00010000
00001000
01000000
00000000
00100000
10000000
01000000
00100000
,
00002000
00023000
00030200
00000300
,
00000020
00000000
00000031
00000001
00000100
00000000
00000010
00000000
,
00001000
00000100
00010000
00001000
00100000
00100000
00100000
00000000
,
00010000
00000000
10000000
10000000
01000000
00000000
00100000
00000000
,
00010000
00100000
00001000
00010000
00000000
00000100
00010000
00001000
,
00000020
00000000
00000130
00000100
00001000
00000000
00000100
00000000
,
00001000
00000001
00000100
00000010
00000000
00010000
00000100
00001000
,
00000010
00000000
00010000
00000000
00001000
00010000
00100000
00000000
,
10000000
10000000
01000000
00100000
00100000
00001000
00010000
00000000
,
00000200
00000000
00010300
00001000
00010000
00001000
00001000
00000000
,
02000000
00100000
03100000
00000000
20000000
01000000
31000000
00000000
,
00200000
00000000
00301000
00010000
00001000
00010000
00010000
00000000
,
00000200
00000010
00000310
00000000
00000002
00000100
00000103
00000000
,
00000020
00000000
00010030
00001000
00010000
00001000
00002000
00000000
,
01003000
00000000
01000000
00100000
10100000
00000000
00000000
00000000
,
01000000
00000000
00100000
00001000
00010000
00000100
00000100
00000000
,
00000010
00000000
00000001
00000100
00001000
00010000
00010000
00000000
,
00011000
00000000
00000000
00000000
,
00000000
00000000
00000000
00000000
,
00000000
00000000
00000000
00000000
,
00000000
00000000
00000000
00000000
,
00000001
00000000
00001000
00000000
00000100
00010000
00001000
00000000
,
01000000
00010000
01000000
00100000
10000000
10000000
01000000
00000000
,
00100000
00100000
00001000
00001000
00010000
00000000
00000010
00000000
,
00000100
00000001
00000100
00000000
00000010
00010000
00001000
00000000
,
01000000
01000000
00010000
01000000
00010000
00000000
10000000
00100000
,
10000000
00000000
01000000
00000000
00100000
00001000
00100000
00000000
,
00001000
00010000
00000100
00000000
00000010
00000001
00000100
00000010
,
00001000
00001000
00000010
00000010
00010000
00010000
00100000
00100000
,
20000000
00000000
31000000
00000000
00200000
00001000
00301000
00000000
,
00020000
00000100
00030100
00000010
00000002
00000000
00000003
00000000
,
00001000
00000000
00000100
00000100
00010000
00000000
00001000
00000000
,
01000000
00100000
10000000
01000000
00000000
00100000
00010000
01000000
,
00020000
00000000
01030000
00000000
00200000
00001000
00301000
00000000
,
00020000
00001000
00031000
00000010
00000200
00000000
00000301
00000000
,
00000100
00000000
00001000
00000000
00000001
00001000
00000100
00000000
,
00010000
00010000
00001000
01000000
01000000
00100000
10000000
00000000
,
02000000
00000000
03001000
00010000
00001000
00010000
00010000
00000000
,
00000200
00000010
00000310
00000000
00000002
00000100
00000103
00000000
,
00000020
00000000
00010030
00001000
00010000
00001000
00001000
00000000
,
02000000
00100000
03100000
00000000
20000000
01000000
31000000
00000000
,
00200000
00000000
00301000
00010000
00001000
00010000
00020000
00000000
,
00030100
00000000
00000100
00000010
00000011
00000000
00000000
00000000
,
00000100
00000000
00000010
00010000
00001000
01000000
01000000
00000000
,
00100000
00000000
10000000
01000000
00010000
00001000
00001000
00000000
,
00011000
00000000
00000000
00002000
00020000
00003000
00030100
00000000
,
00000000
00000000
00000000
00002000
00020000
00003000
01030000
00000000
,
00000000
00000000
00000000
00002000
00020000
00003000
00030100
00000000
,
00010000
00100000
00010000
00001000
00000010
00001000
00010000
00000000
,
00000000
00000000
00000000
00020000
00002000
00030000
00103000
00000000
,
00000000
00000000
00000000
00020000
00002000
00030000
00003010
00000000
,
00000000
00000000
00000000
00020000
00002000
00030000
00103000
00000000
,
00001000
00010000
01000000
00010000
00001000
00100000
01000000
00000000
,
20000000
00000000
30020000
00000000
,
02030000
00000000
03002000
00000000
,
00023000
00000000
00030200
00000000
,
00000320
00000000
00000030
00000000
,
00000001
00000001
00000100
00000100
,
00001000
00001000
00010000
00010000
,
00100000
10000000
00100000
00000000
01000000
00000000
01000000
00000000
,
00100000
00100000
00001000
00010000
00010000
00001000
00000010
00000000
,
00000001
00000000
00000000
00000101
00000000
00001010
00000000
00000200
,
00000000
00010000
00010300
00001000
00100000
01000000
01000000
00000000
,
10000000
00000000
00000000
11000000
00000000
00110000
00000000
02000000
,
00000000
00001000
03001000
00010000
00000010
00000100
00000100
00000000
,
00000001
00000001
00000001
00000000
00001000
00001000
00001000
00000000
,
00000100
00000100
00000100
00000000
00010000
00010000
00010000
00000000
,
00001000
00001000
00100000
00010000
00010000
01000000
01000000
00001000
,
00010000
00010000
00000100
00000100
00000010
00000001
00001000
00000000
,
00000200
00000000
00010300
00001000
00010000
00001000
00001000
00000000
,
02000000
00100000
03100000
00000000
20000000
01000000
31000000
00000000
,
00200000
00000000
00301000
00010000
00001000
00010000
00010000
00000000
,
00000200
00000010
00000310
00000000
00000002
00000100
00000103
00000000
,
00000020
00000000
00010030
00001000
00010000
00001000
00002000
00000000
,
01003000
00000000
01000000
00100000
10100000
00000000
00000000
00000000
,
01000000
00000000
00100000
00001000
00010000
00000100
00000100
00000000
,
00000010
00000000
00000001
00000100
00001000
00010000
00010000
00000000
,
00100000
20000000
00000000
00000000
00000000
00000000
30000000
00000000
,
;
