#TITLE:Get Back Up!;
#SUBTITLE:Full Song;
#ARTIST:NMR runners;
#TITLETRANSLIT:;
#SUBTITLETRANSLIT:;
#ARTISTTRANSLIT:;
#CREDIT:;
#BANNER:Get Back Up! (Full Song).png;
#BACKGROUND:Get Back Up! (Full Song)-bg.png;
#LYRICSPATH:;
#CDTITLE:./CDTITLES/DanceDanceRevolution II.png;
#MUSIC:Get Back Up! (Full Song).ogg;
#OFFSET:0.000;
#SAMPLESTART:44.080;
#SAMPLELENGTH:15.000;
#SELECTABLE:YES;
#DISPLAYBPM:155.000;
#BPMS:0.000=154.999;
#STOPS:;
#BGCHANGES:;

//---------------dance-single - ----------------
#NOTES:
     dance-single:
     :
     Beginner:
     2:
     0.134,0.185,0.017,0.009,0.000:
0000
0000
0000
0000
,
0000
0000
0000
0000
,
0000
0000
0000
0000
,
0000
0000
0000
0000
,
0000
0000
0000
0000
,
1000
0000
0000
0000
,
0100
0000
0000
0000
,
0001
0000
0000
0000
,
0010
0000
0000
0000
,
1000
0000
1000
0000
,
0100
0000
0100
0000
,
0001
0000
0001
0000
,
0010
0000
0010
0000
,
1000
0000
0001
0000
,
1000
0000
0001
0000
,
0100
0000
0100
0000
,
0001
0000
0001
0000
,
0010
0000
0010
0000
,
1000
0000
1000
0000
,
0001
0000
0001
0000
,
0100
0000
0100
0000
,
1000
0000
1000
0000
,
0010
0000
0000
0000
,
0001
0000
0000
0000
,
0100
0000
0000
0000
,
1000
0000
0000
0000
,
0010
0000
0000
0000
,
0100
0000
0000
0000
,
1001
0000
0000
0000
,
1000
0000
1000
0000
,
0100
0000
0100
0000
,
0001
0000
0001
0000
,
0010
0000
0010
0000
,
1000
0000
1000
0000
,
0100
0000
0100
0000
,
1000
0000
0001
0000
,
1000
0000
0001
0000
,
0100
0000
0100
0000
,
0001
0000
0001
0000
,
0010
0000
0010
0000
,
1000
0000
1000
0000
,
0010
0000
0000
0000
,
1000
0000
0000
0000
,
0100
0000
0000
0000
,
0001
0000
0000
0000
,
0100
0000
0000
0000
,
1000
0000
0000
0000
,
0010
0000
0000
0000
,
0001
0000
0001
0000
,
0100
0000
0100
0000
,
1000
0000
1000
0000
,
0010
0000
0010
0000
,
0001
0000
1000
0000
,
0001
0000
1000
0000
,
0100
0000
0100
0000
,
1000
0000
1000
0000
,
0010
0000
0010
0000
,
0001
0000
0001
0000
,
1000
0000
1000
0000
,
0100
0000
0100
0000
,
0001
0000
0001
0000
,
0010
0000
0000
0000
,
1000
0000
0000
0000
,
0100
0000
0000
0000
,
0001
0000
0000
0000
,
0010
0000
0000
0000
,
0100
0000
0000
0000
,
1001
0000
0000
0000
,
0001
0000
0001
0000
,
0100
0000
0100
0000
,
1000
0000
1000
0000
,
0010
0000
0010
0000
,
0001
0000
0001
0000
,
0100
0000
0100
0000
,
0001
0000
1000
0000
,
0001
0000
1000
0000
,
0100
0000
0100
0000
,
1000
0000
1000
0000
,
0010
0000
0010
0000
,
0001
0000
0001
0000
,
0010
0000
0000
0000
,
0001
0000
0000
0000
,
0100
0000
0000
0000
,
1000
0000
0000
0000
,
0001
0000
0000
0000
,
1000
0000
1000
0000
,
0100
0000
0100
0000
,
0001
0000
0001
0000
,
0010
0000
0010
0000
,
0001
0000
0000
0000
,
0100
0000
0000
0000
,
1000
0000
0000
0000
,
1000
0000
1000
0000
,
0100
0000
0100
0000
,
0001
0000
0001
0000
,
0010
0000
0010
0000
,
0001
0000
0000
0000
,
0100
0000
0000
0000
,
1000
0000
0001
0000
,
1001
0000
0000
0000
,
0000
0000
0000
0000
,
0001
0000
0000
0000
,
0000
0000
0000
0000
,
1000
0000
0000
0000
,
0000
0000
0000
0000
,
0010
0000
0000
0000
,
0000
0000
0000
0000
,
0100
0000
0000
0000
,
0000
0000
0000
0000
,
1000
0000
1000
0000
,
0100
0000
0100
0000
,
0001
0000
0001
0000
,
0010
0000
0010
0000
,
1000
0000
1000
0000
,
0100
0000
0100
0000
,
1000
0000
0001
0000
,
1000
0000
0001
0000
,
0100
0000
0100
0000
,
0001
0000
0001
0000
,
0010
0000
0010
0000
,
1000
0000
1000
0000
,
0010
0000
0000
0000
,
1000
0000
0000
0000
,
0100
0000
0000
0000
,
0010
0000
0000
0000
,
2000
0000
3000
0000
,
0002
0000
0003
0000
,
1000
0000
0000
0000
,
0010
0000
0000
0000
,
0001
0000
0000
0000
,
0100
0000
0000
0000
,
1000
0000
1000
0000
,
0010
0000
0010
0000
,
0001
0000
0001
0000
,
1001
0000
0000
0000
,
1000
0000
0000
0000
,
0010
0000
0000
0000
,
0001
0000
0000
0000
,
0100
0000
0000
0000
,
1000
0000
1000
0000
,
0010
0000
0010
0000
,
0001
0000
0001
0000
,
0100
0000
0100
0000
,
;

//---------------dance-single - ----------------
#NOTES:
     dance-single:
     :
     Easy:
     7:
     0.314,0.401,0.104,0.350,0.000:
0000
0000
0000
0000
,
0000
0000
0000
0000
,
0000
0000
0000
0000
,
0000
0000
0000
0000
,
0000
0000
0000
0000
,
0001
0000
0100
0000
,
0001
0000
0010
0000
,
0100
0000
1000
0000
,
0100
0000
0001
0000
,
0010
0000
1000
0000
,
0010
0000
0001
0010
,
1000
0000
0100
0000
,
0001
0000
0100
1000
,
0001
0100
1000
0100
,
0001
0010
0001
0100
,
1000
0100
0001
0100
,
0001
0010
0002
0003
,
0010
1000
0100
0001
,
0100
1000
0100
0001
,
0010
1000
0100
0001
,
0100
1000
0200
0300
,
0002
0003
1000
0100
,
0010
0001
1000
0100
,
0020
0031
1000
0100
,
0020
0000
0001
0031
,
2000
3000
0200
0300
,
0002
0003
0020
0030
,
1000
0100
0001
0010
,
2020
3030
0001
0100
,
0020
0000
1030
0100
,
0002
0000
0013
1000
,
0001
0100
1000
0100
,
0202
0303
1000
0100
,
0020
0030
0001
0100
,
0010
1000
0001
0100
,
0101
0000
1010
0000
,
2002
3003
0001
0100
,
0010
0020
1030
2000
,
3100
0200
0301
0002
,
0103
0200
1300
0100
,
2200
3300
0001
0100
,
0020
0000
1030
0100
,
0002
0000
0103
1000
,
1100
0000
0011
0000
,
1000
0000
0100
0000
,
1000
0000
0010
0000
,
0100
0000
0001
0000
,
0100
0000
1000
0000
,
0010
0000
0001
0000
,
0010
0000
1000
0010
,
0001
0000
0100
0000
,
1000
0000
0100
0001
,
1000
0100
0001
0100
,
1000
0010
1000
0100
,
0001
0100
1000
0100
,
1000
0010
2000
3000
,
0010
0001
0100
1000
,
0100
0001
0100
1000
,
0010
0001
0100
1000
,
0100
0001
0200
0300
,
2000
3000
0001
0100
,
0010
1000
0001
0100
,
0020
1030
0001
0100
,
0020
0000
1000
1030
,
0002
0003
0200
0300
,
2000
3000
0020
0030
,
0001
0100
1000
0010
,
0022
0033
1000
0100
,
0020
0000
0031
0100
,
2000
0000
3010
0001
,
1000
0100
0001
0100
,
2200
3300
0001
0100
,
0020
0030
1000
0100
,
0010
0001
1000
0100
,
1100
0000
0011
0000
,
2002
3003
1000
0100
,
0010
0020
0031
0002
,
0103
0200
1300
2000
,
3100
0200
0301
0100
,
0202
0303
1000
0100
,
0020
0000
0031
0100
,
2000
0000
3100
0001
,
0101
0000
1010
0000
,
2002
0000
0000
3003
,
1000
0000
0100
1000
0000
0000
0000
0000
,
0100
0000
0001
0100
0000
0000
0000
0000
,
1000
0000
0100
1000
0000
0000
0000
0000
,
0100
0000
0001
0100
0000
0000
0000
0000
,
0010
0000
0001
0010
0000
0000
0000
0000
,
0001
0000
0100
0001
0000
0000
0000
0000
,
1000
0000
0100
1000
0000
0000
0000
0000
,
0001
0100
1000
0100
,
0002
0103
2000
3100
,
0002
0010
1000
0103
,
0020
1000
1000
1030
,
0002
0013
0002
0103
,
2000
3100
0002
0103
,
2000
0010
0001
3100
,
0010
0001
0010
0001
,
1000
0010
1000
0010
,
0100
0000
0000
0000
,
1000
0000
0000
0000
,
0000
0000
0000
0000
,
0010
0000
0000
0000
,
0000
0000
0000
0000
,
0001
0000
0000
0000
,
0000
0000
0000
0000
,
0010
0000
0000
0000
,
0100
0000
0000
0000
,
0200
0000
0301
1000
,
0020
0000
0130
0001
,
0010
1000
0001
1000
,
2020
3030
0001
1000
,
0200
0300
0010
1000
,
0100
0001
0010
1000
,
1010
0000
0101
0000
,
0022
0033
0010
1000
,
0100
0200
1300
2000
,
3001
0002
0103
0200
,
0310
0020
1030
0001
,
0202
0303
0010
1000
,
0200
0000
0301
1000
,
0020
0000
1030
0001
,
1001
0000
0110
0000
,
1000
0000
0000
0000
,
0001
1000
0001
1000
,
0010
0100
0010
0100
,
0001
0001
0100
0000
,
0001
0000
0010
0000
,
0100
0100
1000
0000
,
0100
0000
0001
0000
,
0010
0010
1000
0000
,
0010
0000
0001
0010
,
1000
0000
0100
0000
,
0001
1000
0100
0000
,
1000
0000
0100
0000
,
1000
0000
0010
0000
,
0100
0000
0001
0000
,
0100
0000
1000
0000
,
0010
0000
0001
0000
,
0010
0000
1000
0010
,
0001
0000
0100
0000
,
1000
0010
0100
0001
,
;

//---------------dance-single - ----------------
#NOTES:
     dance-single:
     :
     Medium:
     9:
     0.424,0.501,0.121,0.251,0.002:
0000
0000
0000
0000
,
0000
0000
0000
0000
,
0000
0000
0000
0000
,
0000
0000
0000
0000
,
0000
0000
0000
0000
,
0010
0001
0100
1000
,
0001
0010
0100
0000
1000
0000
0010
0000
,
1000
0100
0001
0010
,
1000
0100
0010
0000
1000
0000
0010
0000
,
1000
0001
0100
0010
,
1000
0000
0100
0010
1000
0000
0001
0000
,
0100
0001
0100
1000
,
0010
0001
0100
0000
1000
0000
0010
0000
,
1000
0000
0001
0000
0100
0010
1000
0000
,
0100
1000
0001
0100
,
1000
0000
0010
0000
1000
0001
0100
0000
,
1000
0000
0100
0010
2200
0000
3300
0000
,
0010
0000
0100
0000
1000
0001
0100
0000
,
0010
0000
1000
0010
0100
0000
0010
0000
,
1000
0000
0001
0000
1000
0001
0100
0000
,
1000
0001
0100
0000
1000
0000
0001
0000
,
0100
0001
0010
1000
0100
0000
0010
0000
,
2000
3200
0320
0032
,
1003
0010
0100
0001
1000
0000
0010
0000
,
0202
0000
0303
1000
0001
0000
0100
0000
,
0010
1000
0100
0001
0000
1000
0001
0000
,
1000
0010
0100
0001
,
1000
0100
0010
0001
0000
0000
0100
0000
,
2010
0000
0100
3010
,
0100
0001
1000
0010
0100
0000
1000
0000
,
0100
0010
1000
0001
,
0010
0001
0100
1000
,
0202
0003
0010
1300
,
0010
0000
0100
0000
1000
0001
0100
0010
,
1000
0100
0010
0100
,
2020
0000
3030
0001
0000
0100
1000
0000
,
0220
0030
1000
0301
,
1000
0001
0100
0001
1000
0000
0100
0000
,
0010
0001
0100
1000
,
0010
1000
0100
0001
,
2200
0300
0010
3001
,
0100
0000
0010
0000
0100
1000
0010
1000
,
0100
0000
1000
0000
0100
0001
1000
0000
,
0101
0000
0010
0001
0000
1000
0100
0000
,
0010
1000
0100
0001
,
1000
0010
0100
0000
0001
0000
0010
0000
,
0001
0100
1000
0010
,
0001
0100
0010
0000
0001
0000
0010
0000
,
0001
1000
0100
0010
,
0001
0000
0100
0010
0001
0000
1000
0000
,
0100
1000
0100
0001
,
0010
1000
0100
0000
0001
0000
0010
0000
,
0001
0000
1000
0000
0100
0010
0001
0000
,
0100
0001
1000
0100
,
0001
0000
0010
0000
0001
1000
0100
0000
,
0001
0000
0100
0010
0202
0000
0303
0000
,
0010
0000
0100
0000
0001
1000
0100
0000
,
0010
0000
0001
0010
0100
0000
0010
0000
,
0001
0000
1000
0000
0001
1000
0100
0000
,
0001
1000
0100
0000
0001
0000
1000
0000
,
0100
1000
0010
0001
0100
0000
0010
0000
,
0002
0203
0320
2030
,
3001
0010
0100
1000
0001
0000
0010
0000
,
2200
0000
3300
0001
1000
0000
0100
0000
,
0010
0001
0100
1000
0000
0001
1000
0000
,
0001
0010
0100
1000
,
0001
0100
0010
1000
0000
0000
0100
0000
,
0012
0000
0100
0013
,
0100
1000
0001
0010
0100
0000
0001
0000
,
0100
0010
0001
1000
,
0010
1000
0100
0001
,
2200
3000
0010
0301
,
0010
0000
0100
0000
0001
1000
0100
0010
,
0001
0100
0010
0100
,
0022
0000
0033
1000
0000
0100
0001
0000
,
0220
0030
0001
1300
,
0001
1000
0100
1000
0001
0000
0100
0000
,
0010
1000
0100
0001
,
0010
0001
0100
1000
,
0202
0300
0010
1003
,
0100
0000
0010
0000
0100
0001
0010
0001
,
0100
0000
0001
0000
0100
1000
0001
0000
,
1100
0000
0010
1000
0000
0001
0100
0000
,
0022
0000
0000
0033
,
0100
0001
1000
0000
0000
0010
0100
0001
,
1000
0100
2020
3030
,
0100
0001
1000
0000
0000
0100
0010
1000
,
0100
1000
0022
0033
,
0100
0001
1000
0000
0000
0100
0001
1000
,
0100
0010
0202
0303
,
0010
1000
0001
0000
0000
1000
0001
0010
,
1000
0000
0000
0010
0000
0000
0001
0000
0100
0000
0000
0000
1000
0000
0000
0000
,
0100
0001
0010
0000
1000
0000
0100
0000
,
1000
0100
0001
0000
0100
0000
1000
0000
,
0100
0001
1000
0000
0001
0000
0100
0000
,
1000
0100
0010
0000
1000
0000
0001
0000
,
0100
1000
0010
0000
0001
0000
0100
0000
,
0001
0100
1000
0000
0100
0000
0001
0000
,
0100
0000
0100
0000
0100
0010
0100
0000
,
0010
0100
0010
0100
0001
1000
0001
0000
,
0100
0000
0000
0000
,
0010
0000
0000
0000
,
1000
0000
1000
0000
,
0100
0000
0000
0000
,
0001
0000
1000
0000
,
1001
0000
0000
0000
,
0110
0000
0000
0000
,
1000
0000
0001
0100
0000
0010
1000
0000
,
0100
0000
0000
0000
,
1000
0010
0001
0100
1000
0000
0001
0000
,
1000
0100
0001
0010
,
0100
0010
1000
0001
,
2020
0030
0001
3100
,
0100
0000
1000
0000
0001
0010
1000
0100
,
0001
1000
0100
1000
,
0202
0000
0303
0010
0000
1000
0001
0000
,
2200
0300
0001
3010
,
0001
0010
1000
0010
0001
0000
1000
0000
,
0100
0010
1000
0001
,
0100
0001
1000
0010
,
2002
3000
0100
0013
,
1000
0000
0100
0000
1000
0001
0100
0001
,
1000
0000
0001
0000
1000
0010
0001
0000
,
1010
0000
0100
0010
0000
0001
1000
0000
,
0100
0000
0000
0000
1000
0100
1000
0100
,
2000
3002
0023
0230
,
2300
3002
0203
0310
,
1000
0000
0001
0000
1000
0000
0010
0100
,
0000
0010
0000
0100
0000
0010
0000
0000
,
0001
0000
1000
0000
0001
0000
0010
0100
,
0000
0010
0000
0100
0000
0010
0000
0000
,
0100
0000
0100
0000
0010
0000
0001
1000
,
0000
0100
0000
0001
0000
0010
0000
0000
,
0100
0000
0010
0000
0010
0000
1000
0001
,
0000
0100
0000
0010
0000
0110
0000
0000
,
0001
0000
0100
0000
1000
0000
0001
0010
,
0000
1000
0000
0010
0000
0100
0000
0000
,
1000
0000
0100
0000
0001
0000
1000
0010
,
0000
0001
0000
0010
0000
0100
0000
0000
,
0010
0000
0010
0000
0100
0000
1000
0001
,
0000
0010
0000
1000
0000
0001
0000
0000
,
0010
0000
0100
0000
0100
0000
0001
1000
,
0000
0010
0000
0100
0010
1000
0001
0200
,
0000
0000
0000
0000
,
0000
0000
0000
0300
,
;

//---------------dance-single - ----------------
#NOTES:
     dance-single:
     :
     Hard:
     12:
     0.526,0.563,0.255,0.121,0.177: // measure 1
0000
0000
0000
0000
,  // measure 2
0000
0000
0000
0000
,  // measure 3
0000
0000
0000
0000
,  // measure 4
0000
0000
0000
0000
,  // measure 5
0000
0000
0000
0000
,  // measure 6
1000
0000
0100
0000
0001
0000
0100
1000
,  // measure 7
0000
0010
0000
0001
0010
1000
0100
1000
,  // measure 8
0001
0000
0010
0000
1000
0000
0010
0001
,  // measure 9
0000
0100
0000
1000
0100
0001
0010
0000
,  // measure 10
0001
0000
0100
0000
1000
0000
0100
0001
,  // measure 11
0000
0010
0000
1000
0010
0001
0100
0001
,  // measure 12
1000
0000
0010
0000
0001
0000
0010
1000
,  // measure 13
0000
0100
0000
0001
0100
1000
0010
0000
,  // measure 14
0100
0000
0001
0000
1000
0010
1000
0100
,  // measure 15
0000
0010
0011
0100
1000
0000
1100
0000
,  // measure 16
0010
0000
1000
0000
0001
0100
0001
0010
,  // measure 17
0000
0100
1000
0001
0011
0000
0000
0000
,  // measure 18
0100
0000
1000
0000
0001
0010
0001
0100
,  // measure 19
0000
0010
1010
0100
0001
0000
0101
0000
,  // measure 20
0010
0000
0001
0000
1000
0100
1000
0010
,  // measure 21
0000
0100
0001
1000
1010
0000
0000
0000
,  // measure 22
0001
0010
1000
0100
0000
0010
1000
0000
,  // measure 23
0010
0000
0001
0000
0100
0000
0010
0001
,  // measure 24
0010
1000
0100
1000
0000
0010
0001
0000
,  // measure 25
0010
0000
0001
0010
1000
0000
0100
0000
,  // measure 26
0001
0100
1000
0010
0000
0100
1000
0000
,  // measure 27
0100
0000
0001
0000
0010
0000
0100
0001
,  // measure 28
0100
1000
0010
1000
0000
0100
0001
0000
,  // measure 29
0100
0000
1000
0010
,  // measure 30
0101
0000
1000
1100
0000
0010
1000
0100
,  // measure 31
0010
0000
0001
0000
0010
0001
0000
0000
0100
0000
0001
0000
0100
0001
0000
0000
,  // measure 32
0010
0000
1000
0000
0010
1000
0000
0000
0100
0000
1000
0000
0100
1000
0000
0000
,  // measure 33
0001
0000
0100
0000
0001
0010
0001
0000
,  // measure 34
1100
0000
0001
0101
0000
0010
0001
0100
,  // measure 35
0010
0000
1000
0000
0010
1000
0000
0000
0100
0000
1000
0000
0100
1000
0000
0000
,  // measure 36
0011
0000
0000
0101
0000
0010
1000
0100
,  // measure 37
2200
3300
0001
0010
,  // measure 38
0001
0100
0000
0000
0001
1000
0000
0000
0001
0010
0000
0000
1000
0010
0000
0000
,  // measure 39
0001
0100
0000
0000
1000
0100
0000
0000
0001
0010
0000
0000
0001
1000
0000
0000
,  // measure 40
1000
0010
0000
0000
1000
0001
0000
0000
1000
0100
0000
0000
0001
0100
0000
0000
,  // measure 41
1000
0010
0000
0000
0001
0010
0000
0000
1000
0100
0000
0000
1000
0001
0000
0000
,  // measure 42
0001
0100
0001
0100
0001
1000
0001
0010
,  // measure 43
0100
1000
0001
1000
0010
1000
0010
1000
,  // measure 44
0101
0000
0000
0011
0000
0100
1000
0010
,  // measure 45
0001
0000
0100
0000
1000
0000
0100
0001
,  // measure 46
0000
0010
0000
1000
0010
0001
0100
0001
,  // measure 47
1000
0000
0010
0000
0001
0000
0010
1000
,  // measure 48
0000
0100
0000
0001
0100
1000
0010
0000
,  // measure 49
1000
0000
0100
0000
0001
0000
0100
1000
,  // measure 50
0000
0010
0000
0001
0010
1000
0100
1000
,  // measure 51
0001
0000
0010
0000
1000
0000
0010
0001
,  // measure 52
0000
0100
0000
1000
0100
0001
0010
0000
,  // measure 53
0100
0000
1000
0000
0001
0010
0001
0100
,  // measure 54
0000
0010
1010
0100
0001
0000
0101
0000
,  // measure 55
0010
0000
0001
0000
1000
0100
1000
0010
,  // measure 56
0000
0100
0001
1000
1010
0000
0000
0000
,  // measure 57
0100
0000
0001
0000
1000
0010
1000
0100
,  // measure 58
0000
0010
0011
0100
1000
0000
1100
0000
,  // measure 59
0010
0000
1000
0000
0001
0100
0001
0010
,  // measure 60
0000
0100
1000
0001
0011
0000
0000
0000
,  // measure 61
1000
0010
0001
0100
0000
0010
0001
0000
,  // measure 62
0010
0000
1000
0000
0100
0000
0010
1000
,  // measure 63
0010
0001
0100
0001
0000
0010
1000
0000
,  // measure 64
0010
0000
1000
0010
0001
0000
0100
0000
,  // measure 65
1000
0100
0001
0010
0000
0100
0001
0000
,  // measure 66
0100
0000
1000
0000
0010
0000
0100
1000
,  // measure 67
0100
0001
0010
0001
0000
0100
1000
0000
,  // measure 68
0100
0000
0001
0010
,  // measure 69
1100
0000
0001
0101
0000
0010
0001
0100
,  // measure 70
0010
0000
1000
0000
0010
1000
0000
0000
0100
0000
1000
0000
0100
1000
0000
0000
,  // measure 71
0010
0000
0001
0000
0010
0001
0000
0000
0100
0000
0001
0000
0100
0001
0000
0000
,  // measure 72
1000
0000
0100
0000
1000
0010
1000
0000
,  // measure 73
0101
0000
1000
1100
0000
0010
1000
0100
,  // measure 74
0010
0000
0001
0000
0010
0001
0000
0000
0100
0000
0001
0000
0100
0001
0000
0000
,  // measure 75
1010
0000
0000
1100
0000
0010
0001
0100
,  // measure 76
0202
0303
1000
0010
,  // measure 77
1000
0100
0000
0000
1000
0001
0000
0000
1000
0010
0000
0000
0001
0010
0000
0000
,  // measure 78
1000
0100
0000
0000
0001
0100
0000
0000
1000
0010
0000
0000
1000
0001
0000
0000
,  // measure 79
0001
0010
0000
0000
0001
1000
0000
0000
0001
0100
0000
0000
1000
0100
0000
0000
,  // measure 80
0001
0010
0000
0000
1000
0010
0000
0000
0001
0100
0000
0000
0001
1000
0000
0000
,  // measure 81
1000
0100
1000
0100
1000
0001
1000
0010
,  // measure 82
0100
0001
1000
0001
0010
0001
0010
0001
,  // measure 83
1100
0000
0000
1010
0000
0100
0001
0010
,  // measure 84
1000
0000
0010
0000
1000
0010
0000
0000
0001
0000
0010
0000
0001
0010
0000
0000
,  // measure 85
2100
0000
0000
3010
0000
0000
0101
0000
0000
0000
0001
0000
0010
0000
1000
0000
,  // measure 86
0020
0000
0000
1000
0000
0000
0031
0000
0100
0000
0000
0000
1010
0000
0000
0000
,  // measure 87
0102
0000
0000
0013
0000
0000
1100
0000
0000
0000
1000
0000
0010
0000
0001
0000
,  // measure 88
0020
0000
0000
0001
0000
0000
1030
0000
0100
0000
0000
0000
1100
0000
0000
0000
,  // measure 89
2010
0000
0000
3100
0000
0000
0011
0000
0000
0000
0001
0000
0100
0000
1000
0000
,  // measure 90
0200
0000
0000
1000
0000
0000
0301
0000
0010
0000
0000
0000
1100
0000
0000
0000
,  // measure 91
0012
0000
0000
0103
0000
0000
1010
0000
0000
0000
1000
0000
0100
0000
0001
0000
,  // measure 92
0200
0000
0000
0001
0000
0000
1300
0000
0010
0000
0000
0000
1010
0000
0000
0000
,  // measure 93
0202
0000
0000
0000
,  // measure 94
0300
0000
0000
0000
0103
0000
0000
0000
0001
0000
0000
0010
0000
0000
0000
0000
,  // measure 95
2000
0000
0000
3010
,  // measure 96
0002
0000
0000
0000
0000
0000
0000
0000
0103
0000
0000
1000
0000
0000
0000
0000
,  // measure 97
0022
0000
0000
0000
,  // measure 98
0030
0000
0000
0000
1003
0000
0000
0000
0010
0000
0000
0100
0000
0000
0000
0000
,  // measure 99
1000
0001
0100
0010
1000
0100
0001
0100
,  // measure 100
1000
0000
0010
0000
0100
0001
0100
0000
0010
0000
1000
0001
0000
0010
0100
0000
,  // measure 101
0000
0000
0000
0000
,  // measure 102
1000
0000
0000
0100
,  // measure 103
0001
0000
0000
0010
,  // measure 104
1100
0000
0000
0001
,  // measure 105
1000
0000
0000
0000
,  // measure 106
0110
0000
0000
0100
,  // measure 107
0010
0000
0001
1000
,  // measure 108
0110
0000
1000
1010
0000
0001
0011
0000
,  // measure 109
0100
0000
0000
0000
,  // measure 110
1001
0000
0010
1010
0000
0100
0010
1000
,  // measure 111
0100
0000
0001
0000
0100
0001
0000
0000
1000
0000
0001
0000
1000
0001
0000
0000
,  // measure 112
0100
0000
0010
0000
0100
0010
0000
0000
1000
0000
0010
0000
1000
0010
0000
0000
,  // measure 113
0001
0000
1000
0000
0001
0100
0001
0000
,  // measure 114
1010
0000
0001
1001
0000
0100
0001
1000
,  // measure 115
0100
0000
0010
0000
0100
0010
0000
0000
1000
0000
0010
0000
1000
0010
0000
0000
,  // measure 116
0101
0000
0000
1001
0000
0100
0010
1000
,  // measure 117
2020
3030
0001
0100
,  // measure 118
0001
1000
0000
0000
0001
0010
0000
0000
0001
0100
0000
0000
0010
0100
0000
0000
,  // measure 119
0001
1000
0000
0000
0010
1000
0000
0000
0001
0100
0000
0000
0001
0010
0000
0000
,  // measure 120
0010
0100
0000
0000
0010
0001
0000
0000
0010
1000
0000
0000
0001
0100
0000
0000
,  // measure 121
0001
0100
0000
0000
0010
0100
0000
0000
0001
1000
0000
0000
0001
0010
0000
0000
,  // measure 122
0001
1000
0001
1000
0001
0010
0001
0100
,  // measure 123
1000
0010
0001
0010
0100
0010
0100
0010
,  // measure 124
1001
0000
0000
0101
0000
1000
0010
0100
,  // measure 125
0001
0000
0000
0000
0100
0010
0001
1000
,  // measure 126
0002
2003
3200
0320
,  // measure 127
0032
2003
3200
0301
,  // measure 128
0010
0000
0001
0000
0010
0000
0100
1000
,  // measure 129
0000
0010
0000
1000
0010
1000
0001
1000
,  // measure 130
0010
0000
1000
0000
0010
0000
0100
0001
,  // measure 131
0000
0010
0000
0001
0010
0001
1000
0001
,  // measure 132
0100
0000
0001
0000
0010
0000
0001
1000
,  // measure 133
0000
0010
0000
0001
0010
1000
0010
1000
,  // measure 134
0100
0000
1000
0000
0010
0000
1000
0001
,  // measure 135
0000
0010
0000
1000
0010
0001
0011
0000
,  // measure 136
0100
0000
1000
0000
0100
0000
0010
0001
,  // measure 137
0000
0100
0000
0001
0100
0001
1000
0001
,  // measure 138
0100
0000
0001
0000
0100
0000
0010
1000
,  // measure 139
0000
0100
0000
1000
0100
1000
0001
1000
,  // measure 140
0010
0000
1000
0000
0100
0000
1000
0001
,  // measure 141
0000
0100
0000
1000
0100
0001
0100
0001
,  // measure 142
0010
0100
0010
0001
0100
1000
0100
0010
,  // measure 143
1000
0100
0010
0001
1000
0010
0001
0200
,  // measure 144
0000
0000
0000
0000
,  // measure 145
0000
0000
0000
0300
;
