#TITLE:El ritmo te controla;
#SUBTITLE:Full Song;
#ARTIST:Jeanette Herrera;
#TITLETRANSLIT:;
#SUBTITLETRANSLIT:;
#ARTISTTRANSLIT:;
#CREDIT:;
#BANNER:El ritmo te controla (Full Song).png;
#BACKGROUND:El ritmo te controla (Full Song)-bg.png;
#LYRICSPATH:;
#CDTITLE:./CDTITLES/DanceDanceRevolution II.png;
#MUSIC:El ritmo te controla (Full Song).ogg;
#OFFSET:0.000;
#SAMPLESTART:205.141;
#SAMPLELENGTH:15.000;
#SELECTABLE:YES;
#DISPLAYBPM:118.000;
#BPMS:0.000=118.001;
#STOPS:;
#BGCHANGES:;

//---------------dance-single - ----------------
#NOTES:
     dance-single:
     :
     Beginner:
     2:
     0.140,0.189,0.000,0.000,0.000:
0000
0000
0000
0000
,
0000
0000
0000
0000
,
0000
0000
0000
0000
,
0000
0000
0000
0000
,
0000
0000
0000
0000
,
0001
0000
0000
0000
,
0010
0000
0000
0000
,
1000
0000
0001
0000
,
1000
0000
0001
0000
,
0001
0000
0000
0000
,
1000
0000
0000
0000
,
0001
0000
0000
0000
,
1000
1000
1000
0000
,
1000
0000
0000
0000
,
0001
0000
0000
0000
,
1000
0000
0000
0000
,
0001
0001
0001
0000
,
1000
1000
0000
1000
,
1000
0000
0000
0000
,
0001
0001
0000
0001
,
0001
0000
0001
0000
,
0010
0000
0010
0000
,
0001
0000
0001
0000
,
1000
0000
1000
0000
,
0001
0000
1000
1000
,
0001
0000
1000
1000
,
0001
1000
0001
1000
,
0001
0000
1000
0000
,
0010
0000
1000
0000
,
1000
0000
0001
0001
,
1000
0000
0001
0001
,
1000
0001
1000
0001
,
1000
0000
0001
0001
,
0000
0000
0000
0000
,
0010
0000
0000
0000
,
0010
0000
0000
0000
,
0100
0000
0000
0000
,
0000
0000
0000
0000
,
0010
0000
0000
0000
,
0010
0000
0000
0000
,
1000
0000
0001
0000
,
0001
0000
0000
0000
,
1000
0000
0000
0000
,
0001
0000
0000
0000
,
1000
1000
1000
0000
,
1000
0000
0000
0000
,
0001
0000
0000
0000
,
1000
0000
0000
0000
,
0001
0001
0001
0000
,
1000
1000
0000
1000
,
1000
0000
0000
0000
,
0001
0001
0000
0001
,
0001
0000
0001
0000
,
0010
0000
0010
0000
,
0001
0000
0001
0000
,
1000
0000
1000
0000
,
0001
0000
1000
1000
,
0001
0000
1000
1000
,
0001
1000
0001
1000
,
0001
0000
1000
0000
,
0010
0000
1000
0000
,
1000
0000
0001
0001
,
1000
0000
0001
0001
,
1000
0001
1000
0001
,
1000
0000
0001
0001
,
0001
0000
1000
1000
,
0001
1000
0001
1000
,
0001
0000
1000
0000
,
0010
0000
1000
0000
,
1000
0000
0001
0001
,
1000
0000
0001
0001
,
1000
0001
1000
0001
,
1000
0000
0001
0001
,
0000
0000
0000
0000
,
0010
0000
0000
0000
,
0010
0000
0000
0000
,
0100
0000
0000
0000
,
0000
0000
0000
0000
,
0010
0000
0000
0000
,
0010
0000
0000
0000
,
1000
0000
0001
0000
,
0001
0001
0001
0000
,
1000
0000
0010
0010
,
0000
1000
0000
1000
,
1000
0000
0001
0000
,
1000
1000
1000
0000
,
0001
0000
0010
0010
,
0000
0001
0000
0001
,
0001
0000
0100
0000
,
0001
0000
0000
0000
,
0000
0000
0000
0000
,
0001
0000
0000
0000
,
0000
0000
0000
0000
,
0001
0001
0000
0000
,
1000
1000
0000
0000
,
0010
0010
0000
0000
,
0100
0000
0100
0000
,
0001
0000
1000
1000
,
0001
1000
0001
1000
,
0001
0000
1000
0000
,
0010
0000
1000
0000
,
1000
0000
0001
0001
,
1000
0000
0001
0001
,
1000
0001
1000
0001
,
1000
0000
0001
0001
,
0001
0000
1000
1000
,
0001
1000
0001
1000
,
0001
0000
1000
0000
,
0010
0000
1000
0000
,
1000
0000
0001
0001
,
1000
0000
0001
0001
,
1000
0001
1000
0001
,
1000
0000
0001
0001
,
0001
0000
1000
1000
,
0001
1000
0001
1000
,
0001
0000
1000
0000
,
0010
0000
1000
0000
,
1000
0000
0001
0001
,
1000
0000
0001
0001
,
1000
0001
1000
0001
,
1000
0000
0001
0001
,
1000
0000
0000
0000
,
0010
0000
0000
0000
,
0001
0000
1000
0000
,
0001
0000
1000
0000
,
0001
0000
0000
0000
,
0100
0000
0000
0000
,
1000
0000
0001
0000
,
1000
0000
0001
0001
,
;

//---------------dance-single - ----------------
#NOTES:
     dance-single:
     :
     Easy:
     5:
     0.168,0.213,0.106,0.018,0.000:
0000
0000
0000
0000
,
0000
0000
0000
0000
,
0000
0000
0000
0000
,
0000
0000
0000
0000
,
0000
0000
0000
0000
,
1000
0000
0001
0000
,
0010
0000
1001
0000
,
0001
0001
1000
1000
,
0001
0000
1000
0100
,
1000
0000
0001
0000
,
0001
0000
0010
0000
,
1000
0000
0010
0000
,
0001
1000
0001
1000
,
0001
0000
1000
0000
,
1000
0000
0010
0000
,
0001
0000
0001
0000
,
1000
0000
1000
0000
,
1001
0000
1000
0010
,
1000
0000
0000
0000
,
1001
0000
0001
0010
,
0001
0000
0000
0000
,
0110
0000
0001
0000
,
1001
0000
1000
0000
,
0110
0000
0010
1000
,
0001
1000
0001
0001
,
1000
0000
0010
0000
,
1000
0001
0100
0010
,
1000
0000
0001
0000
,
0110
0000
1001
0000
,
0001
0000
0010
0000
,
0001
1000
0100
0010
,
0001
0000
1000
0000
,
1000
0001
1000
0000
,
1000
0000
0000
0000
,
0100
0000
0000
0000
,
0010
0000
0000
0000
,
0001
0000
0000
0000
,
1000
0000
0000
0000
,
0010
0000
0000
0000
,
0100
0000
0000
0000
,
0001
0000
1000
0010
,
1000
0000
0001
0000
,
0001
0000
0010
0000
,
1000
0000
0010
0000
,
0001
1000
0001
1000
,
0001
0000
1000
0000
,
1000
0000
0010
0000
,
0001
0000
0001
0000
,
1000
0000
1000
0000
,
1001
0000
1000
0010
,
1000
0000
0000
0000
,
1001
0000
0001
0010
,
0001
0000
0000
0000
,
0110
0000
0001
0000
,
1001
0000
1000
0000
,
0110
0000
0010
1000
,
0001
1000
0001
0001
,
1000
0000
0010
0000
,
1000
0001
0100
0010
,
1000
0000
0001
0000
,
0110
0000
1001
0000
,
0001
0000
0010
0000
,
0001
1000
0100
0010
,
0001
0000
1000
0000
,
0001
1000
0001
0000
,
1000
0000
0010
0000
,
1000
0001
0100
0010
,
1000
0000
0001
0000
,
0110
0000
1001
0000
,
0001
0000
0010
0000
,
0001
1000
0100
0010
,
0001
0000
1000
0000
,
0001
1000
0001
0000
,
1000
0000
0000
0000
,
0100
0000
0000
0000
,
0010
0000
0000
0000
,
0001
0000
0000
0000
,
1000
0000
0000
0000
,
0010
0000
0000
0000
,
0100
0000
0000
0000
,
0001
0000
1000
0010
,
0010
0100
0010
1000
,
0001
0001
1000
0001
,
1000
0000
0010
0000
,
1001
1001
1001
0000
,
1000
0000
0010
0000
,
0001
0000
1000
0000
,
0010
0000
0100
0000
,
0110
0000
1000
1000
,
0002
0000
0000
0003
,
0001
0000
0000
0000
,
2000
0000
0000
3000
,
1000
0000
0000
0000
,
0020
0000
0000
0030
,
2000
0000
0000
3000
,
0020
0000
0000
0030
,
1000
0000
0001
0001
,
1000
0000
0010
0000
,
1000
0001
0100
0010
,
1000
0000
0001
0000
,
0110
0000
1001
0000
,
0001
0000
0010
0000
,
0001
1000
0100
0010
,
0001
0000
1000
0000
,
0001
1000
0001
0000
,
1000
0000
0010
0000
,
1000
0001
0100
0010
,
1000
0000
0001
0000
,
0110
0000
1001
0000
,
0001
0000
0010
0000
,
0001
1000
0100
0010
,
0001
0000
1000
0000
,
0001
1000
0001
0000
,
1000
0000
0010
0000
,
1000
0001
0100
0010
,
1000
0000
0001
0000
,
0110
0000
1001
0000
,
0001
0000
0010
0000
,
0001
1000
0100
0010
,
0001
0000
1000
0000
,
0001
1000
0001
0000
,
0001
0000
1000
0000
,
0010
0000
1001
0000
,
1000
1000
0001
0001
,
1000
0000
0001
0100
,
1000
0000
0001
0000
,
0100
0000
1001
0000
,
0001
0001
1000
1000
,
0001
0000
0000
0000
1000
0000
0001
1000
,
;

//---------------dance-single - ----------------
#NOTES:
     dance-single:
     :
     Medium:
     9:
     0.312,0.307,0.165,0.018,0.059:
0000
0000
0000
0000
,
0000
0000
0000
0000
,
0000
0000
0000
0000
,
0000
0000
0000
0000
,
0000
0000
0000
0000
,
0001
0001
1000
1000
,
0010
0010
0101
0010
,
1000
0100
1000
0000
0001
0000
0001
0000
,
1000
0001
0001
1000
,
0001
0000
0000
0000
1000
0000
0100
0100
,
1000
0000
0000
0000
0010
0000
0100
0100
,
0001
0000
0000
0000
0010
0000
0100
0100
,
1000
0001
1000
0101
,
1000
0000
0000
0000
0001
0000
0100
0100
,
0001
0000
0000
0000
0010
0000
0100
0100
,
1000
0000
0000
0000
0010
0000
0100
0100
,
0001
0000
0000
0000
0000
0000
0000
0000
0000
0000
0000
0000
0000
0000
0000
0000
0000
0000
0000
0000
0000
0000
0000
0000
0000
0000
0000
0000
0000
0000
0000
0000
0000
0000
0000
0000
0000
0000
0000
0000
0000
0000
0000
0000
0000
0000
0000
0000
0100
0000
0000
0000
0000
0000
0000
0000
0000
0000
0000
0000
0000
0000
0000
0000
0000
0000
0000
0000
0000
0000
0000
0000
0000
0000
0000
0000
0000
0000
0000
0000
0000
0000
0000
0000
0000
0000
0000
0000
0000
0000
0000
0000
0000
0000
0000
0000
0001
0000
0000
0000
0000
0000
0000
0000
0000
0000
0000
0000
0000
0000
0000
0000
1000
0000
0000
0000
0000
0000
0000
0000
0000
0000
0000
0000
0000
0000
0000
0000
0001
0000
0000
0000
0000
0000
0000
0000
0000
0000
0000
0000
0000
0000
0000
0000
1000
0000
0000
0000
0000
0000
0000
0000
0000
0000
0000
0000
0000
0000
0000
0000
0000
0000
0000
0000
0000
0000
0000
0000
0000
0000
0000
0000
0000
0000
0000
0000
0000
0000
0000
0000
0000
0000
0000
0000
0000
0000
0000
0000
0000
0000
0000
0000
,
0000
0000
1100
0000
0001
0100
0001
0100
,
0010
0000
0100
0100
,
0000
0000
0101
0000
1000
0100
1000
0100
,
0010
0000
0001
0001
,
1000
0000
1010
0000
0000
0010
1000
0000
,
0001
0000
0011
0000
0000
0010
0001
0000
,
0100
0000
0110
0000
0000
0010
0100
0000
,
0001
0000
0000
0000
0000
0000
0000
0000
0000
0000
0000
0000
0000
0000
0000
0000
0000
0000
0000
0000
0000
0000
0000
0000
0000
0000
0000
0000
0000
0000
0000
0000
0000
0000
0000
0000
0000
0000
0000
0000
0000
0000
0000
0000
0000
0000
0000
0000
0000
0000
0000
0000
0000
0000
0000
0000
0000
0000
0000
0000
0000
0000
0000
0000
0000
0000
0000
0000
0000
0000
0000
0000
0000
0000
0000
0000
0000
0000
0000
0000
0000
0000
0000
0000
0000
0000
0000
0000
0000
0000
0000
0000
0000
0000
0000
0000
1000
0000
0000
0000
0000
0000
0000
0000
0000
0000
0000
0000
0000
0000
0000
0000
0001
0000
0000
0000
0000
0000
0000
0000
0000
0000
0000
0000
0000
0000
0000
0000
1000
0000
0000
0000
0000
0000
0000
0000
0000
0000
0000
0000
0000
0000
0000
0000
0001
0000
0000
0000
0000
0000
0000
0000
0000
0000
0000
0000
0000
0000
0000
0000
0000
0000
0000
0000
0000
0000
0000
0000
0000
0000
0000
0000
0000
0000
0000
0000
0000
0000
0000
0000
0000
0000
0000
0000
0000
0000
0000
0000
0000
0000
0000
0000
,
0001
0000
1000
0100
0010
0000
0100
1000
,
0001
0000
0001
0000
0010
1000
0100
0010
,
0001
0100
0010
1010
,
0100
0110
1000
0101
,
1000
0000
0001
0100
0010
0000
0100
0001
,
1000
0000
1000
0000
0010
0001
0100
0010
,
1000
0100
0010
0011
,
1000
0000
0000
0000
0000
0000
0000
0000
0000
0000
0000
0000
0000
0000
0000
0000
0000
0000
0000
0000
0000
0000
0000
0000
0000
0000
0000
0000
0000
0000
0000
0000
0000
0000
0000
0000
0000
0000
0000
0000
0000
0000
0000
0000
0000
0000
0000
0000
0001
0000
0000
0000
0000
0000
0000
0000
0000
0000
0000
0000
0000
0000
0000
0000
0000
0000
0000
0000
0000
0000
0000
0000
0000
0000
0000
0000
0000
0000
0000
0000
0000
0000
0000
0000
0000
0000
0000
0000
0000
0000
0000
0000
0000
0000
0000
0000
1000
0000
0000
0000
0000
0000
0000
0000
0000
0000
0000
0000
0000
0000
0000
0000
0001
0000
0000
0000
0000
0000
0000
0000
0000
0000
0000
0000
0000
0000
0000
0000
1000
0000
0000
0000
0000
0000
0000
0000
0000
0000
0000
0000
0000
0000
0000
0000
0001
0000
0000
0000
0000
0000
0000
0000
0000
0000
0000
0000
0000
0000
0000
0000
0000
0000
0000
0000
0000
0000
0000
0000
0000
0000
0000
0000
0000
0000
0000
0000
0000
0000
0000
0000
0000
0000
0000
0000
0000
0000
0000
0000
0000
0000
0000
0000
,
1000
0000
0001
0000
,
0100
0000
1001
0000
,
0010
0000
0100
0000
,
0010
0000
0000
0000
1000
1000
1000
0000
,
0001
0000
1000
0000
,
0100
0000
1001
0000
,
0010
0000
0100
0000
,
1000
0000
0000
0000
0000
0000
0000
0000
0000
0000
0000
0000
0000
0000
0000
0000
0000
0000
0000
0000
0000
0000
0000
0000
0000
0000
0000
0000
0000
0000
0000
0000
0000
0000
0000
0000
0000
0000
0000
0000
0000
0000
0000
0000
0000
0000
0000
0000
0000
0000
0000
0000
0000
0000
0000
0000
0000
0000
0000
0000
0000
0000
0000
0000
0000
0000
0000
0000
0000
0000
0000
0000
0000
0000
0000
0000
0000
0000
0000
0000
0000
0000
0000
0000
0000
0000
0000
0000
0000
0000
0000
0000
0000
0000
0000
0000
0001
0000
0000
0000
0000
0000
0000
0000
0000
0000
0000
0000
0000
0000
0000
0000
1000
0000
0000
0000
0000
0000
0000
0000
0000
0000
0000
0000
0000
0000
0000
0000
0001
0000
0000
0000
0000
0000
0000
0000
0000
0000
0000
0000
0000
0000
0000
0000
1000
0000
0000
0000
0000
0000
0000
0000
0000
0000
0000
0000
0000
0000
0000
0000
0000
0000
0000
0000
0000
0000
0000
0000
0000
0000
0000
0000
0000
0000
0000
0000
0000
0000
0000
0000
0000
0000
0000
0000
0000
0000
0000
0000
0000
0000
0000
0000
,
0001
0000
0000
0000
1000
0000
0100
0100
,
1000
0000
0000
0000
0010
0000
0100
0100
,
0001
0000
0000
0000
0010
0000
0100
0100
,
1000
0001
1000
0101
,
1000
0000
0000
0000
0001
0000
0100
0100
,
0001
0000
0000
0000
0010
0000
0100
0100
,
1000
0000
0000
0000
0010
0000
0100
0100
,
0001
0000
0000
0000
0000
0000
0000
0000
0000
0000
0000
0000
0000
0000
0000
0000
0000
0000
0000
0000
0000
0000
0000
0000
0000
0000
0000
0000
0000
0000
0000
0000
0000
0000
0000
0000
0000
0000
0000
0000
0000
0000
0000
0000
0000
0000
0000
0000
0100
0000
0000
0000
0000
0000
0000
0000
0000
0000
0000
0000
0000
0000
0000
0000
0000
0000
0000
0000
0000
0000
0000
0000
0000
0000
0000
0000
0000
0000
0000
0000
0000
0000
0000
0000
0000
0000
0000
0000
0000
0000
0000
0000
0000
0000
0000
0000
0001
0000
0000
0000
0000
0000
0000
0000
0000
0000
0000
0000
0000
0000
0000
0000
1000
0000
0000
0000
0000
0000
0000
0000
0000
0000
0000
0000
0000
0000
0000
0000
0001
0000
0000
0000
0000
0000
0000
0000
0000
0000
0000
0000
0000
0000
0000
0000
1000
0000
0000
0000
0000
0000
0000
0000
0000
0000
0000
0000
0000
0000
0000
0000
0000
0000
0000
0000
0000
0000
0000
0000
0000
0000
0000
0000
0000
0000
0000
0000
0000
0000
0000
0000
0000
0000
0000
0000
0000
0000
0000
0000
0000
0000
0000
0000
,
0000
0000
1100
0000
0001
0100
0001
0100
,
0010
0000
0100
0100
,
0000
0000
0101
0000
1000
0100
1000
0100
,
0010
0000
0001
0001
,
1000
0000
1010
0000
0000
0010
1000
0000
,
0001
0000
0011
0000
0000
0010
0001
0000
,
0100
0000
0110
0000
0000
0010
0100
0000
,
0001
0000
0000
0000
0000
0000
0000
0000
0000
0000
0000
0000
0000
0000
0000
0000
0000
0000
0000
0000
0000
0000
0000
0000
0000
0000
0000
0000
0000
0000
0000
0000
0000
0000
0000
0000
0000
0000
0000
0000
0000
0000
0000
0000
0000
0000
0000
0000
0000
0000
0000
0000
0000
0000
0000
0000
0000
0000
0000
0000
0000
0000
0000
0000
0000
0000
0000
0000
0000
0000
0000
0000
0000
0000
0000
0000
0000
0000
0000
0000
0000
0000
0000
0000
0000
0000
0000
0000
0000
0000
0000
0000
0000
0000
0000
0000
1000
0000
0000
0000
0000
0000
0000
0000
0000
0000
0000
0000
0000
0000
0000
0000
0001
0000
0000
0000
0000
0000
0000
0000
0000
0000
0000
0000
0000
0000
0000
0000
1000
0000
0000
0000
0000
0000
0000
0000
0000
0000
0000
0000
0000
0000
0000
0000
0001
0000
0000
0000
0000
0000
0000
0000
0000
0000
0000
0000
0000
0000
0000
0000
0000
0000
0000
0000
0000
0000
0000
0000
0000
0000
0000
0000
0000
0000
0000
0000
0000
0000
0000
0000
0000
0000
0000
0000
0000
0000
0000
0000
0000
0000
0000
0000
,
0001
0000
1000
0100
0010
0000
0100
1000
,
0001
0000
0001
0000
0010
1000
0100
0010
,
0001
0100
0010
1010
,
0100
0110
1000
0101
,
1000
0000
0001
0100
0010
0000
0100
0001
,
1000
0000
1000
0000
0010
0001
0100
0010
,
1000
0100
0010
0011
,
1000
0000
0000
0000
0000
0000
0000
0000
0000
0000
0000
0000
0000
0000
0000
0000
0000
0000
0000
0000
0000
0000
0000
0000
0000
0000
0000
0000
0000
0000
0000
0000
0000
0000
0000
0000
0000
0000
0000
0000
0000
0000
0000
0000
0000
0000
0000
0000
0001
0000
0000
0000
0000
0000
0000
0000
0000
0000
0000
0000
0000
0000
0000
0000
0000
0000
0000
0000
0000
0000
0000
0000
0000
0000
0000
0000
0000
0000
0000
0000
0000
0000
0000
0000
0000
0000
0000
0000
0000
0000
0000
0000
0000
0000
0000
0000
1000
0000
0000
0000
0000
0000
0000
0000
0000
0000
0000
0000
0000
0000
0000
0000
0001
0000
0000
0000
0000
0000
0000
0000
0000
0000
0000
0000
0000
0000
0000
0000
1000
0000
0000
0000
0000
0000
0000
0000
0000
0000
0000
0000
0000
0000
0000
0000
0001
0000
0000
0000
0000
0000
0000
0000
0000
0000
0000
0000
0000
0000
0000
0000
0000
0000
0000
0000
0000
0000
0000
0000
0000
0000
0000
0000
0000
0000
0000
0000
0000
0000
0000
0000
0000
0000
0000
0000
0000
0000
0000
0000
0000
0000
0000
0000
,
0001
0000
1000
0100
0010
0000
0100
1000
,
0001
0000
0001
0000
0010
1000
0100
0010
,
0001
0100
0010
1010
,
0100
0110
1000
0101
,
1000
0000
0001
0100
0010
0000
0100
0001
,
1000
0000
1000
0000
0010
0001
0100
0010
,
1000
0100
0010
0011
,
1000
0000
0000
0000
0000
0000
0000
0000
0000
0000
0000
0000
0000
0000
0000
0000
0000
0000
0000
0000
0000
0000
0000
0000
0000
0000
0000
0000
0000
0000
0000
0000
0000
0000
0000
0000
0000
0000
0000
0000
0000
0000
0000
0000
0000
0000
0000
0000
0001
0000
0000
0000
0000
0000
0000
0000
0000
0000
0000
0000
0000
0000
0000
0000
0000
0000
0000
0000
0000
0000
0000
0000
0000
0000
0000
0000
0000
0000
0000
0000
0000
0000
0000
0000
0000
0000
0000
0000
0000
0000
0000
0000
0000
0000
0000
0000
1000
0000
0000
0000
0000
0000
0000
0000
0000
0000
0000
0000
0000
0000
0000
0000
0001
0000
0000
0000
0000
0000
0000
0000
0000
0000
0000
0000
0000
0000
0000
0000
1000
0000
0000
0000
0000
0000
0000
0000
0000
0000
0000
0000
0000
0000
0000
0000
0001
0000
0000
0000
0000
0000
0000
0000
0000
0000
0000
0000
0000
0000
0000
0000
0000
0000
0000
0000
0000
0000
0000
0000
0000
0000
0000
0000
0000
0000
0000
0000
0000
0000
0000
0000
0000
0000
0000
0000
0000
0000
0000
0000
0000
0000
0000
0000
,
1000
0000
0001
0000
,
0100
0000
1001
0000
,
0010
0000
0100
0000
,
0010
0000
0000
0000
1000
1000
1000
0000
,
0001
0000
1000
0000
,
0100
0000
1001
0000
,
0010
0000
0100
0000
,
1000
0000
0000
0000
0000
0000
0000
0000
0000
0000
0000
0000
0000
0000
0000
0000
0000
0000
0000
0000
0000
0000
0000
0000
0000
0000
0000
0000
0000
0000
0000
0000
0000
0000
0000
0000
0000
0000
0000
0000
0000
0000
0000
0000
0000
0000
0000
0000
0000
0000
0000
0000
0000
0000
0000
0000
0000
0000
0000
0000
0000
0000
0000
0000
0000
0000
0000
0000
0000
0000
0000
0000
0000
0000
0000
0000
0000
0000
0000
0000
0000
0000
0000
0000
0000
0000
0000
0000
0000
0000
0000
0000
0000
0000
0000
0000
0001
0000
0000
0000
0000
0000
0000
0000
0000
0000
0000
0000
0000
0000
0000
0000
1000
0000
0000
0000
0000
0000
0000
0000
0000
0000
0000
0000
0000
0000
0000
0000
0001
0000
0000
0000
0000
0000
0000
0000
0000
0000
0000
0000
0000
0000
0000
0000
1000
0000
0000
0000
0000
0000
0000
0000
0000
0000
0000
0000
0000
0000
0000
0000
0000
0000
0000
0000
0000
0000
0000
0000
0000
0000
0000
0000
0000
0000
0000
0000
0000
0000
0000
0000
0000
0000
0000
0000
0000
0000
0000
0000
0000
0000
0000
0000
,
0000
0000
0000
0000
1000
0100
0000
0100
,
1000
0000
0000
0000
0100
0010
0000
0100
,
0010
0000
0000
0000
0010
0001
0000
0010
,
0001
0001
0010
1001
,
0000
0100
0000
0010
0000
0100
0100
0000
,
0000
0010
0000
0100
0000
0010
0010
0000
,
1000
0001
0000
0001
0010
0100
0000
0100
,
1000
0000
0000
0000
0000
0000
0000
0000
0000
0000
0000
0000
0000
0000
0000
0000
0000
0000
0000
0000
0000
0000
0000
0000
0100
0000
0000
0000
0000
0000
0000
0000
0000
0000
0000
0000
0000
0000
0000
0000
0000
0000
0000
0000
0000
0000
0000
0000
0010
0000
0000
0000
0000
0000
0000
0000
0000
0000
0000
0000
0000
0000
0000
0000
0000
0000
0000
0000
0000
0000
0000
0000
0000
0000
0000
0000
0000
0000
0000
0000
0000
0000
0000
0000
0000
0000
0000
0000
0000
0000
0000
0000
0000
0000
0000
0000
1000
0000
0000
0000
0000
0000
0000
0000
0000
0000
0000
0000
0000
0000
0000
0000
0001
0000
0000
0000
0000
0000
0000
0000
0000
0000
0000
0000
0000
0000
0000
0000
1000
0000
0000
0000
0000
0000
0000
0000
0000
0000
0000
0000
0000
0000
0000
0000
0001
0000
0000
0000
0000
0000
0000
0000
0000
0000
0000
0000
0000
0000
0000
0000
0000
0000
0000
0000
0000
0000
0000
0000
0000
0000
0000
0000
0000
0000
0000
0000
0000
0000
0000
0000
0000
0000
0000
0000
0000
0000
0000
0000
0000
0000
0000
0000
,
2000
0000
0000
3000
,
0010
0001
0100
0001
,
0002
0000
0000
0003
,
0100
1000
0010
1000
,
0020
0000
0000
0130
,
0002
0000
0000
0000
0000
0000
1003
0001
,
0020
0000
0000
0130
,
1100
0000
0000
0000
0000
0000
0000
0000
0000
0000
0000
0000
0000
0000
0000
0000
0000
0000
0000
0000
0000
0000
0000
0000
0000
0000
0000
0000
0000
0000
0000
0000
0000
0000
0000
0000
0000
0000
0000
0000
0000
0000
0000
0000
0000
0000
0000
0000
0000
0000
0000
0000
0000
0000
0000
0000
0000
0000
0000
0000
0000
0000
0000
0000
0000
0000
0000
0000
0000
0000
0000
0000
0000
0000
0000
0000
0000
0000
0000
0000
0000
0000
0000
0000
0000
0000
0000
0000
0000
0000
0000
0000
0000
0000
0000
0000
0001
0000
0000
0000
0000
0000
0000
0000
0000
0000
0000
0000
0000
0000
0000
0000
1000
0000
0000
0000
0000
0000
0000
0000
0000
0000
0000
0000
0000
0000
0000
0000
0001
0000
0000
0000
0000
0000
0000
0000
0000
0000
0000
0000
0000
0000
0000
0000
1000
0000
0000
0000
0000
0000
0000
0000
0000
0000
0000
0000
0000
0000
0000
0000
0000
0000
0000
0000
0000
0000
0000
0000
0000
0000
0000
0000
0000
0000
0000
0000
0000
0000
0000
0000
0000
0000
0000
0000
0000
0000
0000
0000
0000
0000
0000
0000
,
0001
0000
1000
0100
0010
0000
0100
1000
,
0001
0000
0001
0100
0010
1000
0100
0010
,
0001
0100
0010
1010
,
0100
0110
1000
0101
,
1000
0000
0001
0100
0010
0000
0100
0001
,
1000
0000
1000
0100
0010
0001
0100
0010
,
1000
0100
0010
0011
,
1000
0000
0000
0000
0000
0000
0000
0000
0000
0000
0000
0000
0000
0000
0000
0000
0000
0000
0000
0000
0000
0000
0000
0000
0000
0000
0000
0000
0000
0000
0000
0000
0000
0000
0000
0000
0000
0000
0000
0000
0000
0000
0000
0000
0000
0000
0000
0000
0001
0000
0000
0000
0000
0000
0000
0000
0000
0000
0000
0000
0000
0000
0000
0000
0000
0000
0000
0000
0000
0000
0000
0000
0000
0000
0000
0000
0000
0000
0000
0000
0000
0000
0000
0000
0000
0000
0000
0000
0000
0000
0000
0000
0000
0000
0000
0000
1000
0000
0000
0000
0000
0000
0000
0000
0000
0000
0000
0000
0000
0000
0000
0000
0001
0000
0000
0000
0000
0000
0000
0000
0000
0000
0000
0000
0000
0000
0000
0000
1000
0000
0000
0000
0000
0000
0000
0000
0000
0000
0000
0000
0000
0000
0000
0000
0001
0000
0000
0000
0000
0000
0000
0000
0000
0000
0000
0000
0000
0000
0000
0000
0000
0000
0000
0000
0000
0000
0000
0000
0000
0000
0000
0000
0000
0000
0000
0000
0000
0000
0000
0000
0000
0000
0000
0000
0000
0000
0000
0000
0000
0000
0000
0000
,
0001
0000
1000
0100
0010
0000
0100
1000
,
0001
0000
0001
0100
0010
1000
0100
0010
,
0001
0100
0010
1010
,
0100
0110
1000
0101
,
1000
0000
0001
0100
0010
0000
0100
0001
,
1000
0000
1000
0100
0010
0001
0100
0010
,
1000
0100
0010
0011
,
1000
0000
0000
0000
0000
0000
0000
0000
0000
0000
0000
0000
0000
0000
0000
0000
0000
0000
0000
0000
0000
0000
0000
0000
0000
0000
0000
0000
0000
0000
0000
0000
0000
0000
0000
0000
0000
0000
0000
0000
0000
0000
0000
0000
0000
0000
0000
0000
0001
0000
0000
0000
0000
0000
0000
0000
0000
0000
0000
0000
0000
0000
0000
0000
0000
0000
0000
0000
0000
0000
0000
0000
0000
0000
0000
0000
0000
0000
0000
0000
0000
0000
0000
0000
0000
0000
0000
0000
0000
0000
0000
0000
0000
0000
0000
0000
1000
0000
0000
0000
0000
0000
0000
0000
0000
0000
0000
0000
0000
0000
0000
0000
0001
0000
0000
0000
0000
0000
0000
0000
0000
0000
0000
0000
0000
0000
0000
0000
1000
0000
0000
0000
0000
0000
0000
0000
0000
0000
0000
0000
0000
0000
0000
0000
0001
0000
0000
0000
0000
0000
0000
0000
0000
0000
0000
0000
0000
0000
0000
0000
0000
0000
0000
0000
0000
0000
0000
0000
0000
0000
0000
0000
0000
0000
0000
0000
0000
0000
0000
0000
0000
0000
0000
0000
0000
0000
0000
0000
0000
0000
0000
0000
,
0001
0000
1000
0100
0010
0000
0100
1000
,
0001
0000
0001
0100
0010
1000
0100
0010
,
0001
0100
0010
1010
,
0100
0110
1000
0101
,
1000
0000
0001
0100
0010
0000
0100
0001
,
1000
0000
1000
0100
0010
0001
0100
0010
,
1000
0100
0010
0011
,
1000
0000
0000
0000
0000
0000
0000
0000
0000
0000
0000
0000
0000
0000
0000
0000
0000
0000
0000
0000
0000
0000
0000
0000
0000
0000
0000
0000
0000
0000
0000
0000
0000
0000
0000
0000
0000
0000
0000
0000
0000
0000
0000
0000
0000
0000
0000
0000
0001
0000
0000
0000
0000
0000
0000
0000
0000
0000
0000
0000
0000
0000
0000
0000
0000
0000
0000
0000
0000
0000
0000
0000
0000
0000
0000
0000
0000
0000
0000
0000
0000
0000
0000
0000
0000
0000
0000
0000
0000
0000
0000
0000
0000
0000
0000
0000
1000
0000
0000
0000
0000
0000
0000
0000
0000
0000
0000
0000
0000
0000
0000
0000
0001
0000
0000
0000
0000
0000
0000
0000
0000
0000
0000
0000
0000
0000
0000
0000
1000
0000
0000
0000
0000
0000
0000
0000
0000
0000
0000
0000
0000
0000
0000
0000
0001
0000
0000
0000
0000
0000
0000
0000
0000
0000
0000
0000
0000
0000
0000
0000
0000
0000
0000
0000
0000
0000
0000
0000
0000
0000
0000
0000
0000
0000
0000
0000
0000
0000
0000
0000
0000
0000
0000
0000
0000
0000
0000
0000
0000
0000
0000
0000
,
1000
1000
0001
0001
,
0010
0010
1100
0010
,
0001
0100
0001
0000
1000
0000
1000
0000
,
0001
0000
0000
0000
0000
0000
0000
0000
0000
0000
0000
0000
0000
0000
0000
0000
0000
0000
0000
0000
0000
0000
0000
0000
0000
0000
0000
0000
0000
0000
0000
0000
0000
0000
0000
0000
0000
0000
0000
0000
0000
0000
0000
0000
0000
0000
0000
0000
0000
0000
0000
0000
0000
0000
0000
0000
0000
0000
0000
0000
0000
0000
0000
0000
0000
0000
0000
0000
0000
0000
0000
0000
0000
0000
0000
0000
0000
0000
0000
0000
0000
0000
0000
0000
0000
0000
0000
0000
0000
0000
0000
0000
0000
0000
0000
0000
1000
0000
0000
0000
0000
0000
0000
0000
0000
0000
0000
0000
0000
0000
0000
0000
0001
0000
0000
0000
0000
0000
0000
0000
0000
0000
0000
0000
0000
0000
0000
0000
1000
0000
0000
0000
0000
0000
0000
0000
0000
0000
0000
0000
0000
0000
0000
0000
0001
0000
0000
0000
0000
0000
0000
0000
0000
0000
0000
0000
0000
0000
0000
0000
0000
0000
0000
0000
0000
0000
0000
0000
0000
0000
0000
0000
0000
0000
0000
0000
0000
0000
0000
0000
0000
0000
0000
0000
0000
0000
0000
0000
0000
0000
0000
0000
,
1000
1000
0001
0001
,
0100
0100
1010
0100
,
0001
0010
0001
0000
1000
0000
1000
0000
,
0001
0000
0000
0000
0000
0000
0000
0000
0000
0000
0000
0000
0000
0000
0000
0000
0000
0000
0000
0000
0000
0000
0000
0000
0000
0000
0000
0000
0000
0000
0000
0000
0000
0000
0000
0000
0000
0000
0000
0000
0000
0000
0000
0000
0000
0000
0000
0000
0000
0000
0000
0000
0000
0000
0000
0000
0000
0000
0000
0000
0000
0000
0000
0000
0000
0000
0000
0000
0000
0000
0000
0000
0000
0000
0000
0000
0000
0000
0000
0000
0000
0000
0000
0000
0000
0000
0000
0000
0000
0000
0000
0000
0000
0000
0000
0000
1000
0000
0000
0000
0000
0000
0000
0000
0000
0000
0000
0000
0000
0000
0000
0000
0001
0000
0000
0000
0000
0000
0000
0000
0000
0000
0000
0000
0000
0000
0000
0000
1000
0000
0000
0000
0000
0000
0000
0000
0000
0000
0000
0000
0000
0000
0000
0000
0001
0000
0000
0000
0000
0000
0000
0000
0000
0000
0000
0000
0000
0000
0000
0000
0000
0000
0000
0000
0000
0000
0000
0000
1000
0000
0000
0000
0000
0000
0000
0000
0000
0000
0000
0000
0000
0000
0000
0000
0000
0000
0000
0000
0000
0000
0000
0000
,
;

//---------------dance-single - ----------------
#NOTES:
     dance-single:
     :
     Hard:
     11:
     0.423,0.402,0.459,0.000,0.139: // measure 1
0000
0000
0000
0000
,  // measure 2
0000
0000
0000
0000
,  // measure 3
0000
0000
0000
0000
,  // measure 4
0000
0000
0000
0000
,  // measure 5
0000
0000
0000
0000
,  // measure 6
1000
0000
0000
0100
1000
0000
0000
0000
0001
0000
0000
0100
0001
0000
0000
0000
,  // measure 7
0001
0000
0000
0010
0001
0000
0000
0000
1000
0000
0000
0010
1000
0000
0000
0000
,  // measure 8
1000
0000
0000
0001
0100
0000
0000
0000
0001
0000
0000
1000
0100
0000
0000
0000
,  // measure 9
0001
0010
0100
1000
,  // measure 10
1000
0000
0000
0100
0000
0000
1000
0000
0101
0000
0000
0000
0010
0000
0001
0000
,  // measure 11
1100
0000
0010
0100
1010
0000
0001
0100
,  // measure 12
0110
0000
1000
0100
1100
0000
0001
0000
,  // measure 13
0010
0100
0010
1000
1100
0000
0101
0000
,  // measure 14
0001
0000
0000
0100
0000
0000
0001
0000
1100
0000
0000
0000
0010
0000
1000
0000
,  // measure 15
0101
0000
0010
0100
0011
0000
1000
0100
,  // measure 16
0110
0000
0001
0100
0101
0000
1000
0000
,  // measure 17
0110
0000
0000
1001
0000
0000
0100
0010
1000
0001
0000
0000
,  // measure 18
1000
0000
0000
1000
0000
0000
0001
0000
0000
0000
0100
0000
0010
0000
0000
0000
,  // measure 19
0100
0000
0000
0100
0000
0000
0010
0000
0000
0000
1000
0000
0100
0000
0010
0000
,  // measure 20
0001
0000
0000
0001
0000
0000
0100
0000
0000
0000
0001
0000
1000
0000
0000
0000
,  // measure 21
0100
0000
0000
0100
0000
0000
1000
0000
0100
0000
1000
0000
0001
0000
0000
0000
,  // measure 22
1001
0000
0000
1000
0000
0000
0100
0000
0000
0000
0010
0000
0001
0000
0000
0000
,  // measure 23
1001
0000
0000
0001
0000
0000
0100
0000
0000
0000
0010
0000
0100
0000
0000
0000
,  // measure 24
1001
0000
0000
1000
0000
0000
0010
0000
0000
0000
1000
0000
0001
0000
0000
0000
,  // measure 25
0100
0000
0000
0000
0000
0000
0000
0000
0000
0010
0000
0000
0000
0000
0000
0000
0000
0000
0100
0000
0000
0000
0000
0000
1000
0000
0000
0000
0001
0000
0000
0000
1000
0000
0000
0000
0001
0000
0000
0000
0000
0000
0000
0000
0000
0000
0000
0000
,  // measure 26
1100
0000
0001
1000
1100
0000
0001
0000
,  // measure 27
1000
0100
1000
0010
1000
0001
1000
0000
,  // measure 28
0110
0000
0100
0010
1001
0000
0100
0000
,  // measure 29
0010
0001
0010
0100
0011
0000
1010
0000
,  // measure 30
0101
0000
1000
0001
0101
0000
1000
0000
,  // measure 31
0001
0100
0001
0010
0001
1000
0001
0000
,  // measure 32
0110
0000
0100
0010
1001
0000
0100
0000
,  // measure 33
0010
0100
1000
0100
1100
0000
0011
0000
,  // measure 34
1100
0100
0001
0100
,  // measure 35
0001
0010
0100
1000
,  // measure 36
0011
0010
1000
0010
,  // measure 37
1000
0010
0110
1010
,  // measure 38
0101
0100
1000
0100
,  // measure 39
1000
0010
0100
0001
,  // measure 40
1010
0010
0001
0010
,  // measure 41
1010
0000
0000
0110
0000
0000
0001
0010
0001
1000
0000
0000
,  // measure 42
1000
0000
0000
0100
0000
0000
1000
0000
0101
0000
0000
0000
0010
0000
0001
0000
,  // measure 43
1100
0000
0010
0100
1010
0000
0001
0100
,  // measure 44
0110
0000
1000
0100
1100
0000
0001
0000
,  // measure 45
0010
0100
0010
1000
1100
0000
0101
0000
,  // measure 46
0001
0000
0000
0100
0000
0000
0001
0000
1100
0000
0000
0000
0010
0000
1000
0000
,  // measure 47
0101
0000
0010
0100
0011
0000
1000
0100
,  // measure 48
0110
0000
0001
0100
0101
0000
1000
0000
,  // measure 49
0110
0000
0000
1001
0000
0000
0100
0010
1000
0001
0000
0000
,  // measure 50
0001
0000
0000
0001
0000
0000
1000
0000
0000
0000
0100
0000
0010
0000
0000
0000
,  // measure 51
0100
0000
0000
0100
0000
0000
0010
0000
0000
0000
0001
0000
0100
0000
0010
0000
,  // measure 52
1000
0000
0000
1000
0000
0000
0100
0000
0000
0000
1000
0000
0001
0000
0000
0000
,  // measure 53
0100
0000
0000
0100
0000
0000
0001
0000
0100
0000
0001
0000
1000
0000
0000
0000
,  // measure 54
1001
0000
0000
0001
0000
0000
0100
0000
0000
0000
0010
0000
1000
0000
0000
0000
,  // measure 55
1001
0000
0000
1000
0000
0000
0100
0000
0000
0000
0010
0000
0100
0000
0000
0000
,  // measure 56
1001
0000
0000
0001
0000
0000
0010
0000
0000
0000
0001
0000
1000
0000
0000
0000
,  // measure 57
0100
0000
0000
0000
0000
0000
0000
0000
0000
0010
0000
0000
0000
0000
0000
0000
0000
0000
0100
0000
0000
0000
0000
0000
0001
0000
0000
0000
1000
0000
0000
0000
0001
0000
0000
0000
1000
0000
0000
0000
0000
0000
0000
0000
0000
0000
0000
0000
,  // measure 58
0101
0000
1000
0001
0101
0000
1000
0000
,  // measure 59
0001
0100
0001
0010
0001
1000
0001
0000
,  // measure 60
0110
0000
0100
0010
1001
0000
0100
0000
,  // measure 61
0010
1000
0010
0100
1010
0000
0011
0000
,  // measure 62
1100
0000
0001
1000
1100
0000
0001
0000
,  // measure 63
1000
0100
1000
0010
1000
0001
1000
0000
,  // measure 64
0110
0000
0100
0010
1001
0000
0100
0000
,  // measure 65
0010
0100
0001
0100
0101
0000
1010
0000
,  // measure 66
0011
0000
1000
0001
0011
0000
1000
0000
,  // measure 67
0001
0010
0001
0100
0001
1000
0001
0000
,  // measure 68
0110
0000
0010
0100
1001
0000
0010
0000
,  // measure 69
0100
1000
0100
0010
1100
0000
0101
0000
,  // measure 70
1010
0000
0001
1000
1010
0000
0001
0000
,  // measure 71
1000
0010
1000
0100
1000
0001
1000
0000
,  // measure 72
0110
0000
0010
0100
1001
0000
0010
0000
,  // measure 73
0100
0010
0001
0010
0011
0000
1100
0000
,  // measure 74
0101
0100
1000
0100
,  // measure 75
1000
0010
0100
0001
,  // measure 76
1010
0010
0001
0010
,  // measure 77
0001
0010
0110
0011
,  // measure 78
1100
0100
0001
0100
,  // measure 79
0001
0010
0100
1000
,  // measure 80
0011
0010
1000
0010
,  // measure 81
0011
0000
0000
0110
0000
0000
1000
0010
1000
0001
0000
0000
,  // measure 82
0000
0000
0000
0000
0000
0000
0000
0000
1000
0000
0000
0010
0100
0000
0001
0000
,  // measure 83
1000
0000
0000
0000
0000
0000
0000
0000
0001
0000
0000
1000
0010
0000
1000
0000
,  // measure 84
0100
0000
0000
0000
0000
0000
0000
0000
1000
0000
0000
0100
0010
0000
0100
0000
,  // measure 85
1000
0000
0000
0001
0000
0000
1000
0001
1000
0001
0000
0000
,  // measure 86
1000
0000
0000
0100
1000
0000
0000
0000
0001
0000
0000
0010
0001
0000
0000
0000
,  // measure 87
0100
0000
0000
1000
0100
0000
0000
0000
0010
0000
0000
0001
0010
0000
0000
0000
,  // measure 88
1000
0000
0000
0010
1000
0000
0000
0000
0001
0000
0000
0010
0001
0000
0000
0000
,  // measure 89
1000
0000
0000
0000
0000
0000
0000
0000
0000
0010
0000
0000
1000
0000
0000
0000
0000
0000
0000
0000
0000
0000
0000
0000
0001
0000
0000
0000
1000
0000
0000
0000
0001
0000
0000
0000
1000
0000
0000
0000
0000
0000
0000
0000
0000
0000
0000
0000
,  // measure 90
1000
0000
0000
1000
0000
0000
0001
0000
0000
0000
0100
0000
0010
0000
0000
0000
,  // measure 91
0100
0000
0000
0100
0000
0000
0010
0000
0000
0000
1000
0000
0100
0000
0010
0000
,  // measure 92
0001
0000
0000
0001
0000
0000
0100
0000
0000
0000
0001
0000
1000
0000
0000
0000
,  // measure 93
0100
0000
0000
0100
0000
0000
1000
0000
0100
0000
1000
0000
0001
0000
0000
0000
,  // measure 94
1001
0000
0000
1000
0000
0000
0100
0000
0000
0000
0010
0000
0001
0000
0000
0000
,  // measure 95
1001
0000
0000
0001
0000
0000
0100
0000
0000
0000
0010
0000
0100
0000
0000
0000
,  // measure 96
1001
0000
0000
1000
0000
0000
0010
0000
0000
0000
1000
0000
0001
0000
0000
0000
,  // measure 97
0100
0000
0000
0000
0000
0000
0000
0000
0000
0010
0000
0000
0000
0000
0000
0000
0000
0000
0100
0000
0000
0000
0000
0000
1000
0000
0000
0000
0001
0000
0000
0000
1000
0000
0000
0000
0001
0000
0000
0000
0000
0000
0000
0000
0000
0000
0000
0000
,  // measure 98
1010
0000
0001
1000
1010
0000
0001
0000
,  // measure 99
1000
0010
1000
0100
1000
0001
1000
0000
,  // measure 100
0110
0000
0010
0100
1001
0000
0010
0000
,  // measure 101
0100
0001
0100
0010
0101
0000
1100
0000
,  // measure 102
0011
0000
1000
0001
0011
0000
1000
0000
,  // measure 103
0001
0010
0001
0100
0001
1000
0001
0000
,  // measure 104
0110
0000
0010
0100
1001
0000
0010
0000
,  // measure 105
0100
0010
1000
0010
1010
0000
0101
0000
,  // measure 106
0011
0000
1000
0001
0011
0000
1000
0000
,  // measure 107
0001
0010
0001
0100
0001
1000
0001
0000
,  // measure 108
0110
0000
0010
0100
1001
0000
0010
0000
,  // measure 109
0100
1000
0100
0010
1100
0000
0101
0000
,  // measure 110
1010
0000
0001
1000
1010
0000
0001
0000
,  // measure 111
1000
0010
1000
0100
1000
0001
1000
0000
,  // measure 112
0110
0000
0010
0100
1001
0000
0010
0000
,  // measure 113
0100
0010
0001
0010
0011
0000
1100
0000
,  // measure 114
0101
0000
1000
0001
0101
0000
1000
0000
,  // measure 115
0001
0100
0001
0010
0001
1000
0001
0000
,  // measure 116
0110
0000
0100
0010
1001
0000
0100
0000
,  // measure 117
0010
1000
0010
0100
1010
0000
0011
0000
,  // measure 118
1100
0000
0001
1000
1100
0000
0001
0000
,  // measure 119
1000
0100
1000
0010
1000
0001
1000
0000
,  // measure 120
0110
0000
0100
0010
1001
0000
0100
0000
,  // measure 121
0010
0100
0001
0100
0101
0000
1010
0000
,  // measure 122
1000
0000
0000
0100
1000
0000
0000
0000
0001
0000
0000
0100
0001
0000
0000
0000
,  // measure 123
0001
0000
0000
0010
0001
0000
0000
0000
1000
0000
0000
0010
1000
0000
0000
0000
,  // measure 124
1000
0000
0000
0001
0100
0000
0000
0000
0001
0000
0000
1000
0100
0000
0000
0000
,  // measure 125
0001
0010
0100
1000
,  // measure 126
0001
0000
0000
0100
0001
0000
0000
0000
1000
0000
0000
0100
1000
0000
0000
0000
,  // measure 127
1000
0000
0000
0010
1000
0000
0000
0000
0001
0000
0000
0010
0001
0000
0000
0000
,  // measure 128
0001
0000
0000
1000
0100
0000
0000
0000
1000
0000
0000
0001
0100
0000
0000
0000
,  // measure 129
1000
0000
0000
0000
0000
0000
0010
0000
0000
0000
0000
0000
0100
0000
0010
0000
1000
0000
0001
0000
0000
1000
0000
0000
;
