#TITLE:Don't You Want Me;
#SUBTITLE:Short Song;
#ARTIST:The Human League;
#TITLETRANSLIT:;
#SUBTITLETRANSLIT:;
#ARTISTTRANSLIT:;
#CREDIT:;
#BANNER:Don't You Want Me.png;
#BACKGROUND:Don't You Want Me-bg.png;
#LYRICSPATH:;
#CDTITLE:./CDTITLES/DanceDanceRevolution II.png;
#MUSIC:../Don't You Want Me (Full Song)/Don't You Want Me (Full Song).ogg;
#OFFSET:0.000;
#SAMPLESTART:79.400;
#SAMPLELENGTH:15.000;
#SELECTABLE:YES;
#DISPLAYBPM:118.000;
#BPMS:0.000=117.819;
#STOPS:;
#BGCHANGES:;

//---------------dance-single - ----------------
#NOTES:
     dance-single:
     :
     Beginner:
     2:
     0.049,0.077,0.000,0.038,0.000:
0000
0000
0000
0000
,
0000
0000
0000
0000
,
0000
0000
0000
0000
,
1000
0000
0001
0000
,
1000
0000
0000
0000
,
1000
0000
0001
0000
,
1000
0000
0000
0000
,
1000
0000
0001
0000
,
1000
0000
0000
0000
,
1000
0000
0001
0000
,
0010
0000
0000
0000
,
1000
0000
1000
0000
,
1000
0000
0000
0000
,
0001
0000
0001
0000
,
0001
0000
0000
0000
,
1000
0000
1000
0000
,
1000
0000
0000
0000
,
0001
0000
0001
0000
,
0001
0000
0000
0000
,
0010
0000
0010
0000
,
0010
0000
0000
0000
,
0100
0000
0000
0000
,
0100
0000
0000
0000
,
0010
0000
0010
0000
,
0010
0000
0000
0000
,
0100
0000
0000
0000
,
0100
0000
0000
0000
,
2000
0000
3000
0000
,
0002
0000
0003
0000
,
1000
0000
1000
0000
,
0001
0000
0000
0000
,
2000
0000
3000
0000
,
0002
0000
0003
0000
,
1000
0000
1000
0000
,
0001
0000
0000
0000
,
1000
1000
1000
0000
,
0001
0001
0001
0000
,
1000
1000
1000
0000
,
0001
0001
0001
0000
,
0010
0000
0000
0000
,
0020
0000
0030
0000
,
0100
0000
0000
0000
,
0200
0000
0300
0000
,
0010
0000
0000
0000
,
0020
0000
0030
0000
,
0100
0000
0000
0000
,
0200
0000
0300
0000
,
;

//---------------dance-single - ----------------
#NOTES:
     dance-single:
     :
     Easy:
     4:
     0.081,0.099,0.009,0.066,0.000: // measure 1
0000
0000
0000
0000
,  // measure 2
0000
0000
0000
0000
,  // measure 3
0000
0000
0000
0000
,  // measure 4
1000
1000
0001
0000
,  // measure 5
0100
0100
0010
0000
,  // measure 6
1000
1000
0001
0000
,  // measure 7
0010
0100
0010
0000
,  // measure 8
1000
1000
0001
0000
,  // measure 9
0100
0100
0010
0000
,  // measure 10
1000
1000
0001
0000
,  // measure 11
1000
0001
1000
0000
,  // measure 12
0001
0000
0100
0000
,  // measure 13
0001
0010
0001
0000
,  // measure 14
0001
0000
0100
0000
,  // measure 15
0010
0000
0000
0000
,  // measure 16
0001
0000
0100
0000
,  // measure 17
0001
0010
0001
0000
,  // measure 18
0001
0000
0100
0000
,  // measure 19
0010
0000
0000
0000
,  // measure 20
1000
1000
1000
0000
,  // measure 21
0010
0000
1000
0000
,  // measure 22
1000
1000
1000
0000
,  // measure 23
0100
0000
0000
0000
,  // measure 24
1000
1000
1000
0000
,  // measure 25
0010
0000
1000
0000
,  // measure 26
1000
1000
1000
0000
,  // measure 27
0100
0000
0000
0000
,  // measure 28
0020
0000
0000
0030
,  // measure 29
2000
0000
0000
3000
,  // measure 30
0001
0001
0001
0000
,  // measure 31
1000
1000
1000
0000
,  // measure 32
0020
0000
0000
0030
,  // measure 33
2000
0000
0000
3000
,  // measure 34
0001
0001
0001
0000
,  // measure 35
1000
1000
1000
0000
,  // measure 36
0001
0001
0001
0001
,  // measure 37
0010
0010
0010
0010
,  // measure 38
0100
0100
0100
0100
,  // measure 39
1000
1000
1000
1000
,  // measure 40
0020
0000
0130
0000
,  // measure 41
2000
0000
3100
0000
,  // measure 42
0020
0000
0031
0000
,  // measure 43
2002
0000
3003
0000
,  // measure 44
0020
0000
0130
0000
,  // measure 45
2000
0000
3100
0000
,  // measure 46
0020
0000
0031
0000
,  // measure 47
2002
0000
3003
0000
;

//---------------dance-single - ----------------
#NOTES:
     dance-single:
     :
     Medium:
     6:
     0.126,0.143,0.000,0.052,0.000:
0000
0000
0000
0000
,
0000
0000
0000
0000
,
0000
0000
0000
0000
,
0001
0001
0100
0010
,
1000
0100
1000
0010
0000
0000
0000
0000
,
1000
1000
0100
0010
,
0001
0100
1000
0100
0000
0000
0000
0000
,
0001
0001
0100
0010
,
1000
0100
1000
0010
0000
0000
0000
0000
,
1000
1000
0100
0010
,
0001
0100
0010
1000
0000
0000
0000
0000
,
0010
0100
1000
0000
0100
0000
0100
0000
,
0010
0001
0001
0010
,
0010
0100
1000
0000
0100
0000
0100
0000
,
0010
0000
0100
0000
,
0010
0100
1000
0000
0100
0000
0100
0000
,
0010
0001
0001
0010
,
0010
0100
1000
0000
0100
0000
0100
0000
,
0010
0000
0000
0000
,
0001
0100
0010
0000
1000
0100
0010
0000
,
0001
1000
0001
1000
,
0001
0100
0010
0000
1000
0100
0010
0000
,
0001
0000
0000
0000
,
0001
0100
0010
0000
1000
0100
0010
0000
,
0001
1000
0001
1000
,
0001
0100
0010
0000
1000
0100
0010
0000
,
0010
0000
0000
0000
,
0200
0000
0000
1300
,
0002
0100
0103
0000
,
1000
1000
0100
0000
0001
0001
0100
0000
,
0010
0010
0100
0000
0020
0000
0130
0000
,
0200
0000
0000
1300
,
0002
0100
0103
0000
,
1000
1000
0100
0000
0001
0001
0100
0000
,
0010
0100
0010
0000
0100
0000
0000
0000
,
0001
0100
0001
0000
0001
0100
0001
0000
,
0010
0100
0010
0000
0010
0100
0010
0000
,
1000
0100
1000
0000
1000
0100
1000
0000
,
0010
0010
0010
0000
0100
0100
0100
0000
,
0002
0010
1000
0103
,
0020
1000
0130
0000
,
0000
1000
0000
0001
1000
0000
0001
0000
,
0020
0000
0000
0030
,
0002
0010
1000
0103
,
0020
1000
0130
0000
,
0000
1000
0000
0001
1000
0000
0001
0000
,
0020
0000
0000
0030
,
;

//---------------dance-single - ----------------
#NOTES:
     dance-single:
     :
     Hard:
     8:
     0.165,0.188,0.009,0.076,0.014:
0000
0000
0000
0000
,
0000
0000
0000
0000
,
0000
0000
0000
0000
,
1000
0000
0000
0000
1000
0000
0000
0010
0100
0000
0001
0000
0010
0000
0000
0000
,
0001
0100
1000
0010
0000
0000
0000
0000
,
0001
0000
0000
0000
0001
0000
0000
0010
0100
0000
1000
0000
0010
0000
0000
0000
,
0100
1000
0001
0010
0000
0000
0000
0000
,
1000
0000
0000
0000
1000
0000
0000
0010
0100
0000
0001
0000
0010
0000
0000
0000
,
0001
0100
1000
0010
0000
0000
0000
0000
,
0001
0000
0000
0000
0001
0000
0000
0010
0100
0000
1000
0000
0010
0000
0000
0000
,
1000
0010
0100
0001
1000
0000
0001
0000
0000
0000
0000
0000
0000
0000
0000
0000
,
1000
0100
1000
0000
0100
0001
1000
0001
,
0100
0010
0100
0100
,
1000
0100
1000
0000
0100
0001
1000
0001
,
0010
0000
0100
0000
,
1000
0100
1000
0000
0100
0001
1000
0001
,
0100
0010
0100
0100
,
1000
0100
1000
0000
0100
0001
1000
0001
,
0100
0000
0000
0000
,
0001
1000
0001
0100
1000
0010
0001
0010
,
1000
0001
1000
1000
,
0001
1000
0001
0100
1000
0010
0001
0010
,
0100
0001
1000
0000
,
0001
1000
0001
0100
1000
0010
0001
0010
,
1000
0001
1000
1000
,
0001
1000
0001
0100
1000
0010
0001
0010
,
1000
0000
0000
0000
,
2000
0000
0000
0000
0100
0000
3010
0100
,
0020
0130
2000
3100
,
0010
0010
0100
0100
1000
1000
0001
0001
,
0010
0001
0100
0010
2000
0000
3001
0000
,
2000
0000
0000
0000
0100
0000
3010
0100
,
0020
0130
2000
3100
,
0010
0010
0100
0100
1000
1000
0001
0001
,
0100
0010
1000
0001
0020
0000
0130
0000
,
0010
0001
0010
0001
0010
0001
0010
0001
,
0100
0010
0100
0010
0100
0010
0100
0010
,
1000
0100
1000
0100
1000
0100
1000
0100
,
0010
0010
0010
0010
0100
0100
0100
0100
,
1200
0001
1000
0301
,
0020
1000
0031
0000
,
0000
0010
0000
1000
0001
0000
0010
0000
,
0002
0000
0200
0303
,
0201
1000
0001
1300
,
0020
0001
1030
0000
,
0000
0010
0000
0001
1000
0000
0010
0000
,
2000
0000
0200
3300
,
;

//---------------dance-double - ----------------
#NOTES:
     dance-double:
     :
     Easy:
     4:
     0.098,0.110,0.009,0.076,0.000:
00000000
00000000
00000000
00000000
,
00000000
00000000
00000000
00000000
,
00000000
00000000
00000000
00000000
,
10000000
10000000
01000000
00000000
,
00010000
00001000
00000100
00000000
,
00000001
00000001
00000100
00000000
,
00001000
00010000
00100000
00000000
,
10000000
10000000
01000000
00000000
,
00010000
00001000
00000100
00000000
,
00000001
00000001
00000100
00000000
,
00000010
00000010
00000010
00000000
,
00001000
00000100
00000010
00000000
,
00010000
00001000
00000100
00000000
,
00001000
00000100
00000010
00000000
,
00010000
00001000
01000000
00000000
,
00010000
01000000
00100000
00000000
,
00001000
00010000
01000000
00000000
,
00010000
01000000
00100000
00000000
,
00001000
00000000
00000000
00000000
,
00010000
00001000
00100000
00010000
,
01000000
00001000
00010000
00000100
,
00010000
00001000
00100000
00010000
,
01000000
00001000
00010000
00000000
,
00001000
00010000
00000010
00001000
,
00000100
00010000
00001000
01000000
,
00001000
00010000
00000010
00001000
,
00000100
00000000
00000000
00000000
,
00000020
00000000
00000000
00000030
,
00002000
00000000
00000000
00003000
,
00010000
00100000
10000000
00000000
,
00100000
01000000
00010000
00100000
,
00200000
00000000
00000000
00300000
,
00020000
00000000
00000000
00030000
,
00001000
00000100
00000001
00000000
,
00001000
00000001
00001001
00000000
,
00000010
00000100
00000010
00000100
,
00001000
00010000
00001000
00010000
,
01000000
00100000
01000000
00100000
,
00010000
10000000
00010000
10010000
,
20000000
00000000
30200000
00000000
,
00320000
00001000
00031000
00000000
,
00000020
00000000
00000230
00000000
,
00002300
00000001
00003001
00000000
,
00000002
00000000
00000023
00000000
,
00002030
00010000
00013000
00000000
,
00200000
00000000
02300000
00000000
,
03020000
10000000
10030000
00000000
,
;

//---------------dance-double - ----------------
#NOTES:
     dance-double:
     :
     Medium:
     6:
     0.135,0.143,0.019,0.038,0.000:
00000000
00000000
00000000
00000000
,
00000000
00000000
00000000
00000000
,
00000000
00000000
00000000
00000000
,
00000010
00000000
00000010
00000000
00000100
00000010
00000000
00000000
,
00001000
00000100
00010000
00001000
00000000
00000000
00000000
00000000
,
00100000
00000000
00100000
00000000
01000000
00100000
00000000
00000000
,
00001000
00100000
00010000
00001000
00000000
00000000
00000000
00000000
,
00000010
00000000
00000010
00000000
00000100
00000010
00000000
00000000
,
00001000
00000100
00010000
00001000
00000000
00000000
00000000
00000000
,
00100000
00000000
00100000
00000000
01000000
00100000
00000000
00000000
,
00001000
00010000
00100000
10000000
00000000
00000000
00000000
00000000
,
00010000
00000000
10000000
00000000
01000000
00100000
00010000
00000000
,
00100000
00001000
00010000
00000010
,
00001000
00000000
00000001
00000000
00000100
00000010
00001000
00000000
,
00000100
00000010
00000100
00000000
,
00001000
00000000
00000001
00000000
00000100
00000010
00001000
00000000
,
00000010
00010000
00001000
00100000
,
00010000
00000000
10000000
00000000
01000000
00100000
00010000
00000000
,
01000000
00000000
00000000
00000000
,
00010000
00100000
00010000
00000000
10000000
01000000
10000000
00000000
,
00100000
00010000
00001000
00000000
00010000
00000000
00000010
00000000
,
00001000
00000010
00001000
00000000
00000001
00000100
00000001
00000000
,
00000010
00000100
00001000
00000000
,
00001000
00000010
00001000
00000000
00000001
00000100
00000001
00000000
,
00000010
00001000
00010000
00000000
00001000
00000000
00100000
00000000
,
00010000
00100000
00010000
00000000
10000000
01000000
10000000
00000000
,
00100000
01000000
01000000
00000000
,
00020000
00000000
00100000
02030000
,
00100000
00001000
03010000
00000000
,
00100000
00000000
00001000
00000000
00010000
00001000
00100000
00000000
,
00001000
00010000
00000010
00000000
00000100
00000000
00001001
00000000
,
00002000
00000000
00000010
00003200
,
00000010
00010000
00001300
00000000
,
00000010
00000000
00010000
00000000
00001000
00010000
00000010
00000000
,
00010000
00001000
00100000
00000000
00010000
00000000
10010000
00000000
,
01000000
00100000
01000000
00000000
01000000
00100000
01000000
00000000
,
00010000
00001000
00010000
00000000
00010000
00001000
00010000
00000000
,
00000010
00000100
00000010
00000000
00000010
00000100
00000010
00000000
,
00001000
00000001
00001001
00001001
,
00000200
00000010
00001000
00000310
,
00020000
00001000
00000100
00031000
,
00000010
00001000
00000100
00010000
,
01000000
00100000
00010000
00000000
,
02000000
00100000
00010000
03100000
,
00002000
00010000
01000000
00013000
,
00100000
00010000
01000000
00001000
,
00000100
00000010
00001000
00000000
,
;

//---------------dance-double - ----------------
#NOTES:
     dance-double:
     :
     Hard:
     8:
     0.165,0.188,0.009,0.047,0.014:
00000000
00000000
00000000
00000000
,
00000000
00000000
00000000
00000000
,
00000000
00000000
00000000
00000000
,
00010000
00000000
00000000
00000000
00010000
00000000
00000000
00001000
00010000
00000000
00000010
00000000
00000000
00000000
00000000
00000000
,
00001000
00000100
00010000
00001000
00000000
00000000
00000000
00000000
,
00001000
00000000
00000000
00000000
00001000
00000000
00000000
00010000
00001000
00000000
00100000
00000000
00000000
00000000
00000000
00000000
,
01000000
00100000
00010000
00001000
00000000
00000000
00000000
00000000
,
00010000
00000000
00000000
00000000
00010000
00000000
00000000
00001000
00010000
00000000
00000010
00000000
00000000
00000000
00000000
00000000
,
00001000
00000100
00010000
00001000
00000000
00000000
00000000
00000000
,
00001000
00000000
00000000
00000000
00001000
00000000
00000000
00010000
00001000
00000000
00100000
00000000
00000000
00000000
00000000
00000000
,
00001000
00010000
00001000
00100000
00010000
00000000
01000000
00000000
00000000
00000000
00000000
00000000
00000000
00000000
00000000
00000000
,
00100000
10000000
00100000
00000000
01000000
00010000
01000000
00000000
,
00100000
00010000
00001000
00000010
00000100
00000000
00000100
00000000
,
00000010
00000001
00000010
00000000
00000100
00001000
00000100
00000000
,
00010000
00001000
00010000
00000010
00000100
00000000
00000000
00000000
,
00000010
00000001
00000010
00000000
00000100
00001000
00000100
00000000
,
00000010
00001000
00010000
00100000
01000000
00000000
01000000
00000000
,
00100000
10000000
00100000
00000000
01000000
00010000
01000000
00000000
,
00100000
10000000
00010000
00000000
,
00100000
00001000
00010000
00001000
00100000
00000000
01000000
00000000
,
10000000
01000000
00100000
00000000
00001000
00010000
00001000
00000000
,
00100000
00001000
00010000
00001000
00100000
00000000
01000000
00000000
,
00010000
00001000
00000010
00000000
,
00000010
00010000
00001000
00010000
00000010
00000000
00000100
00000000
,
00000001
00000100
00000010
00000000
00010000
00001000
00010000
00000000
,
00000010
00010000
00001000
00010000
00000010
00000000
00000100
00000000
,
00001000
00010000
00001000
00000000
,
00020000
00000000
00001000
00030020
,
00001000
00000230
00000301
00000000
,
00000010
00000100
00001000
00000010
00000100
00000000
00000001
00000000
,
00000100
00000010
00010000
00001000
00100000
00000000
00011000
00000000
,
00002000
00000000
00010000
00203000
,
00010000
02300000
13000000
00000000
,
00100000
01000000
00010000
00100000
01000000
00000000
10000000
00000000
,
01000000
00100000
00001000
00010000
00001000
00000000
00011000
00000000
,
00010000
00001000
00010000
00001000
00010000
00001000
00010000
00001000
,
01000000
00001000
01000000
00001000
01000000
00001000
01000000
00001000
,
00100000
00001000
00100000
00001000
00100000
00001000
00100000
00001000
,
00010000
00010000
00010000
00010000
00001000
00001000
00001000
00001000
,
00020000
01000000
00001000
01030000
,
00002000
00000100
00010000
00003100
,
00000001
00000000
00000100
00000000
00000010
00001000
00000100
00000000
,
00010000
00001000
00100000
00010000
01000000
00001000
00010000
00000000
,
00002000
00000100
00010000
00003100
,
00020000
01000000
00001000
01030000
,
10000000
00000000
01000000
00000000
00100000
00010000
01000000
00000000
,
00001000
00010000
00000010
00001000
00000100
00010000
00001000
00000000
,
;
