#TITLE:Don't Go;
#SUBTITLE:Short Song;
#ARTIST:Yaz;
#TITLETRANSLIT:;
#SUBTITLETRANSLIT:;
#ARTISTTRANSLIT:;
#CREDIT:;
#BANNER:Don't Go.png;
#BACKGROUND:Don't Go-bg.png;
#LYRICSPATH:;
#CDTITLE:./CDTITLES/DanceDanceRevolution II.png;
#MUSIC:../Don't Go (Full Song)/Don't Go (Full Song).ogg;
#OFFSET:0.000;
#SAMPLESTART:34.220;
#SAMPLELENGTH:15.000;
#SELECTABLE:YES;
#DISPLAYBPM:126.000;
#BPMS:0.000=125.999;
#STOPS:;
#BGCHANGES:;

//---------------dance-single - ----------------
#NOTES:
     dance-single:
     :
     Beginner:
     2:
     0.043,0.065,0.016,0.031,0.000:
0000
0000
0000
0000
,
0000
0000
0000
0000
,
0000
0000
0000
0000
,
0000
0000
0000
0000
,
0000
0000
0000
0000
,
0000
0000
0000
0000
,
0000
0000
0000
0000
,
0000
0000
0000
0000
,
0000
0000
0000
0000
,
0010
0000
0000
0000
,
1000
0000
0000
0000
,
0001
0000
1000
0000
,
0001
0000
0000
0000
,
0010
0000
0000
0000
,
1000
0000
0000
0000
,
0001
0000
1000
0000
,
0001
0000
0000
0000
,
0000
0000
0000
0000
,
1000
0000
1000
0000
,
0001
0000
0001
0000
,
0100
0000
0000
0000
,
0100
0000
0000
0000
,
0100
0000
0000
0000
,
1001
0000
0000
0000
,
0010
0000
0000
0000
,
0001
0000
0000
0000
,
1000
0000
0001
0000
,
1000
0000
0000
0000
,
0010
0000
0000
0000
,
0001
0000
0000
0000
,
1000
0000
0001
0000
,
1000
0000
0000
0000
,
0000
0000
0000
0000
,
0001
0000
0001
0000
,
1000
0000
1000
0000
,
0100
0000
0000
0000
,
0100
0000
0000
0000
,
0100
0000
0000
0000
,
1001
0000
0000
0000
,
2000
3000
0000
0000
,
0020
0030
0000
0000
,
0002
0003
0000
0000
,
0020
0030
0000
0000
,
2000
3000
0000
0000
,
0020
0030
0000
0000
,
0010
0000
0010
0000
,
0010
0000
0000
0000
,
0100
0000
0000
0000
,
0100
0000
0000
0000
,
0100
0000
0000
0000
,
1001
0000
0000
0000
,
;

//---------------dance-single - ----------------
#NOTES:
     dance-single:
     :
     Easy:
     4:
     0.088,0.118,0.005,0.109,0.000: // measure 1
0000
0000
0000
0000
,  // measure 2
0000
0000
0000
0000
,  // measure 3
0000
0000
0000
0000
,  // measure 4
0000
0000
0000
0000
,  // measure 5
0000
0000
0000
0000
,  // measure 6
0000
0000
0000
0000
,  // measure 7
0000
0000
0000
0000
,  // measure 8
0000
0000
0000
0000
,  // measure 9
0000
0000
0000
0000
,  // measure 10
0001
1000
0001
0000
,  // measure 11
1000
1000
1000
0000
,  // measure 12
0100
0000
0010
0000
,  // measure 13
0100
0010
0100
0000
,  // measure 14
1000
0001
1000
0000
,  // measure 15
0001
0001
0001
0000
,  // measure 16
0100
0000
0010
0000
,  // measure 17
0100
0010
0100
0000
,  // measure 18
0000
0000
0000
0000
,  // measure 19
1000
1000
0001
0001
,  // measure 20
1000
1000
0001
0001
,  // measure 21
2000
3000
0002
0003
,  // measure 22
2000
3000
0002
0003
,  // measure 23
2000
3000
0002
0003
,  // measure 24
0200
0000
0300
0000
,  // measure 25
1000
0001
1000
0000
,  // measure 26
0001
0001
0001
0000
,  // measure 27
0100
0000
0010
0000
,  // measure 28
0100
0010
0100
0000
,  // measure 29
0001
1000
0001
0000
,  // measure 30
1000
1000
1000
0000
,  // measure 31
0100
0000
0010
0000
,  // measure 32
0100
0010
0100
0000
,  // measure 33
0000
0000
0000
0000
,  // measure 34
0001
0001
1000
1000
,  // measure 35
0001
0001
1000
1000
,  // measure 36
0002
0003
2000
3000
,  // measure 37
0002
0003
2000
3000
,  // measure 38
0002
0003
2000
3000
,  // measure 39
0200
0000
0300
0000
,  // measure 40
1000
0000
0100
0000
,  // measure 41
0001
0000
0010
0000
,  // measure 42
1000
0000
0100
0000
,  // measure 43
0001
0000
0010
0000
,  // measure 44
1000
0000
0100
0000
,  // measure 45
0001
0000
0010
0000
,  // measure 46
1000
0000
0001
0000
,  // measure 47
1001
0000
0000
0000
,  // measure 48
2000
3000
0002
0003
,  // measure 49
2000
3000
0002
0003
,  // measure 50
2000
3000
0002
0003
,  // measure 51
0200
0000
0300
0000
;

//---------------dance-single - ----------------
#NOTES:
     dance-single:
     :
     Medium:
     6:
     0.142,0.171,0.213,0.010,0.000:
0000
0000
0000
0000
,
0000
0000
0000
0000
,
0000
0000
0000
0000
,
0000
0000
0000
0000
,
0000
0000
0000
0000
,
0000
0000
0000
0000
,
0000
0000
0000
0000
,
0000
0000
0000
0000
,
0000
0000
0000
0000
,
1000
0100
0010
0001
,
1000
0110
0001
0000
,
0010
1001
0010
1001
,
0010
0110
1001
0000
,
0002
0103
0010
1000
,
0001
0110
1000
0000
,
0010
1001
0010
1001
,
0010
0110
1001
0000
,
0000
0000
0000
0000
,
1000
1100
0010
0011
,
0100
1100
0001
0011
,
1000
1001
0001
0100
,
0001
1001
1000
0100
,
1000
1001
0001
0100
,
1000
0010
0110
0000
,
0001
0100
0010
1000
,
0001
0110
1000
0000
,
0010
1001
0010
1001
,
0010
0110
1001
0000
,
2000
3100
0010
0001
,
1000
0110
0001
0000
,
0010
1001
0010
1001
,
0010
0110
1001
0000
,
0000
0000
0000
0000
,
0001
0101
0010
1010
,
0100
0101
1000
1010
,
0001
1001
1000
0100
,
1000
1001
0001
0100
,
0001
1001
1000
0100
,
0001
0010
0110
0000
,
0001
0001
0100
0100
,
1000
1000
0010
0010
,
0001
0001
0100
0100
,
1000
1000
0010
0010
,
1000
1000
0100
0100
,
0001
0001
0010
0010
,
1000
0100
0001
0010
,
1000
0001
1001
0000
,
0001
1001
1000
0100
,
1000
1001
0001
0100
,
0001
1001
1000
0100
,
0001
0010
0110
0000
,
;

//---------------dance-single - ----------------
#NOTES:
     dance-single:
     :
     Hard:
     7:
     0.183,0.198,0.062,0.010,0.062:
0000
0000
0000
0000
,
0000
0000
0000
0000
,
0000
0000
0000
0000
,
0000
0000
0000
0000
,
0000
0000
0000
0000
,
0000
0000
0000
0000
,
0000
0000
0000
0000
,
0000
0000
0000
0000
,
0000
0000
0000
0000
,
1000
0000
0100
0000
0001
0100
0100
0000
,
1000
0101
1000
0101
,
0010
1000
0100
0000
0010
1000
0100
0000
,
0010
0001
0010
0001
1000
0001
1000
0000
,
0002
0000
0103
0000
1000
0100
0100
0000
,
0001
1100
0001
1100
,
0010
0001
0100
0000
0010
0001
0100
0000
,
0010
1000
0010
1000
0001
1000
0001
0000
,
0000
0000
0000
0000
,
1000
0100
1000
0000
0010
0001
0010
0000
,
0100
1000
0100
0000
0001
0010
0001
0000
,
1000
0000
1000
0000
0001
0000
0001
0000
0010
0100
0000
0100
0000
0000
0000
0000
,
0001
0000
0001
0000
1000
0000
1000
0000
0010
0100
0000
0100
0000
0000
0000
0000
,
1000
0000
1000
0000
0001
0000
0001
0000
0010
0100
0000
0100
0000
0000
0000
0000
,
1000
0000
0001
0000
1000
0000
0001
0000
0100
0010
0000
0010
0000
0000
0000
0000
,
0001
0000
0100
0000
1000
0100
0100
0000
,
0001
1100
0001
1100
,
0010
0001
0100
0000
0010
0001
0100
0000
,
0010
1000
0010
1000
0001
1000
0001
0000
,
2000
0000
3100
0000
0001
0100
0100
0000
,
1000
0101
1000
0101
,
0010
1000
0100
0000
0010
1000
0100
0000
,
0010
0001
0010
0001
1000
0001
1000
0000
,
0000
0000
0000
0000
,
0001
0100
0001
0000
0010
1000
0010
0000
,
0100
0001
0100
0000
1000
0010
1000
0000
,
0001
0000
0001
0000
1000
0000
1000
0000
0010
0100
0000
0100
0000
0000
0000
0000
,
1000
0000
1000
0000
0001
0000
0001
0000
0010
0100
0000
0100
0000
0000
0000
0000
,
0001
0000
0001
0000
1000
0000
1000
0000
0010
0100
0000
0100
0000
0000
0000
0000
,
0001
0000
1000
0000
0001
0000
1000
0000
0100
0010
0000
0010
0000
0000
0000
0000
,
0001
0100
1000
0010
,
0001
0010
1000
0110
,
1000
0100
0001
0010
,
1000
0010
0001
0110
,
0001
0100
1000
0010
,
1000
0010
0100
1001
,
0100
1000
0010
0000
0001
0010
0100
0000
,
1000
0001
0010
1000
0001
0000
1001
0000
,
1000
0000
1000
0000
0001
0000
0001
0000
0010
0100
0000
0100
0000
0000
0000
0000
,
0001
0000
0001
0000
1000
0000
1000
0000
0010
0100
0000
0100
0000
0000
0000
0000
,
1000
0000
1000
0000
0001
0000
0001
0000
0010
0100
0000
0100
0000
0000
0000
0000
,
1000
0000
0001
0000
1000
0000
0001
0000
0100
0010
0000
0010
0000
0000
0000
0000
,
;

//---------------dance-double - ----------------
#NOTES:
     dance-double:
     :
     Easy:
     4:
     0.077,0.106,0.016,0.010,0.000:
00000000
00000000
00000000
00000000
,
00000000
00000000
00000000
00000000
,
00000000
00000000
00000000
00000000
,
00000000
00000000
00000000
00000000
,
00000000
00000000
00000000
00000000
,
00000000
00000000
00000000
00000000
,
00000000
00000000
00000000
00000000
,
00000000
00000000
00000000
00000000
,
00000000
00000000
00000000
00000000
,
10000000
01000000
00100000
00010000
,
00100000
00000000
00001000
00000000
,
00010000
00000010
00010000
00000010
,
00000100
00000000
00000100
00000000
,
00000002
00000103
00000010
00001000
,
00000010
00000000
00010000
00000000
,
00001000
00100000
00001000
00100000
,
01000000
00000000
01000000
00000000
,
00000000
00000000
00000000
00000000
,
10000000
01000000
00010000
00000000
,
00001000
00000100
00000001
00000000
,
00000001
00000000
00001000
00000000
,
00010000
00000000
10000000
00000000
,
10000000
00000000
00010000
00000000
,
00001000
00000000
00000001
00001001
,
00000001
00000100
00000010
00001000
,
00000010
00000000
00010000
00000000
,
00001000
00100000
00001000
00100000
,
01000000
00000000
01000000
00000000
,
20000000
31000000
00100000
00010000
,
00100000
00000000
00001000
00000000
,
00010000
00000010
00010000
00000010
,
00000100
00000000
00000100
00000000
,
00000000
00000000
00000000
00000000
,
00000001
00000100
00001000
00000000
,
00010000
01000000
10000000
00000000
,
10000000
00000000
00010000
00000000
,
00001000
00000000
00000001
00000000
,
00000001
00000000
00001000
00000000
,
00010000
00000000
10000000
10010000
,
00010000
00000000
00000000
00000000
,
00100000
00000000
00000000
00000000
,
00001000
00000000
00000000
00000000
,
00000010
00000000
00000000
00000000
,
00010000
00000000
00000000
00000000
,
00100000
00000000
00000000
00000000
,
00001000
00010000
00001000
00000000
,
00000100
00000010
00000100
00000000
,
00000001
00000000
00001000
00000000
,
00010000
00000000
10000000
00000000
,
10000000
00000000
00010000
00000000
,
00001000
00000000
00000001
00001001
,
;

//---------------dance-double - ----------------
#NOTES:
     dance-double:
     :
     Medium:
     6:
     0.142,0.171,0.208,0.010,0.000:
00000000
00000000
00000000
00000000
,
00000000
00000000
00000000
00000000
,
00000000
00000000
00000000
00000000
,
00000000
00000000
00000000
00000000
,
00000000
00000000
00000000
00000000
,
00000000
00000000
00000000
00000000
,
00000000
00000000
00000000
00000000
,
00000000
00000000
00000000
00000000
,
00000000
00000000
00000000
00000000
,
10000000
01000000
00100000
00010000
,
00100000
00011000
00000010
00000000
,
00000100
00001001
00000100
00001001
,
00001000
00011000
00110000
00000000
,
20000000
31000000
00100000
00010000
,
00100000
00011000
00000010
00000000
,
00000100
00001001
00000100
00001001
,
00001000
00011000
00110000
00000000
,
00000000
00000000
00000000
00000000
,
10000000
11000000
00100000
00110000
,
00001000
01001000
00010000
00010010
,
00000100
00001100
00010000
00001000
,
01000000
01010000
00001000
00010000
,
00000100
00001100
00010000
00001000
,
00010000
10000000
10010000
00000000
,
10000000
01000000
00100000
00010000
,
00100000
00011000
00000010
00000000
,
00000100
00001001
00000100
00001001
,
00001000
00011000
00110000
00000000
,
20000000
31000000
00100000
00010000
,
00100000
00011000
00000010
00000000
,
00000100
00001001
00000100
00001001
,
00001000
00011000
00110000
00000000
,
00000000
00000000
00000000
00000000
,
10000000
11000000
00100000
00110000
,
00001000
01001000
00010000
00010010
,
00000100
00001100
00010000
00001000
,
01000000
01010000
00001000
00010000
,
00000100
00001100
00010000
00001000
,
00010000
10000000
10010000
00000000
,
10000000
10000000
00010000
00010000
,
00001000
00000001
00001000
00000001
,
00000001
00000001
00001000
00001000
,
00010000
10000000
00010000
10000000
,
10000000
10000000
00010000
00010000
,
00001000
00000001
00001000
00000001
,
00000010
00001000
00010000
00100000
,
01000000
00010000
00001000
00000100
,
00000100
00001100
00010000
00001000
,
01000000
01010000
00001000
00010000
,
00000100
00001100
00010000
00001000
,
00010000
10000000
10010000
00000000
,
;

//---------------dance-double - ----------------
#NOTES:
     dance-double:
     :
     Hard:
     8:
     0.183,0.224,0.000,0.021,0.062:
00000000
00000000
00000000
00000000
,
00000000
00000000
00000000
00000000
,
00000000
00000000
00000000
00000000
,
00000000
00000000
00000000
00000000
,
00000000
00000000
00000000
00000000
,
00000000
00000000
00000000
00000000
,
00000000
00000000
00000000
00000000
,
00000000
00000000
00000000
00000000
,
00000000
00000000
00000000
00000000
,
00000010
00000000
00000001
00000000
00001000
00000100
00000100
00000000
,
00001000
00000100
00010000
00001000
00100000
00000000
01000000
00000000
,
10000000
00100000
01000000
00000000
00100000
00010000
00001000
00000000
,
00010000
00000010
00010000
00001000
01000000
00000000
00000000
00000000
,
00200000
00000000
10300000
00000000
00010000
01000000
01000000
00000000
,
00010000
01000000
00001000
00010000
00000010
00000000
00000100
00000000
,
00000001
00000010
00000100
00000000
00000010
00001000
00010000
00000000
,
00001000
00100000
00001000
00010000
00000100
00000000
00000000
00000000
,
00000000
00000000
00000000
00000000
,
00000001
00000100
00001000
00000000
00000100
00001000
00010000
00000000
,
00001000
00010000
00100000
00000000
00010000
00100000
10000000
00000000
,
00010000
00000000
00100000
00000000
00001000
00000000
00010000
00000000
00001000
00010000
00000000
00010000
00000000
00000000
00000010
00000000
,
00001000
00000000
00000010
00000000
00010000
00000000
00001000
00000000
00010000
00001000
00000000
00001000
00000000
00000000
00100000
00000000
,
00010000
00000000
00100000
00000000
00001000
00000000
00010000
00000000
00001000
00010000
00000000
00010000
00000000
00000000
00000010
00000000
,
00010000
00000000
00000010
00000000
00001000
00000000
00010000
00000000
01000000
00100000
00000000
00100000
00000000
00000000
00000000
00000000
,
00100000
00000000
10000000
00000000
00010000
01000000
01000000
00000000
,
00010000
01000000
00001000
00010000
00000010
00000000
00000100
00000000
,
00000001
00000010
00000100
00000000
00000010
00001000
00010000
00000000
,
00001000
00100000
00001000
00010000
00000100
00000000
00000000
00000000
,
00000020
00000000
00000031
00000000
00001000
00000100
00000100
00000000
,
00001000
00000100
00010000
00001000
00100000
00000000
01000000
00000000
,
10000000
00100000
01000000
00000000
00100000
00010000
00001000
00000000
,
00010000
00000010
00010000
00001000
01000000
00000000
00000000
00000000
,
00000000
00000000
00000000
00000000
,
10000000
01000000
00010000
00000000
01000000
00010000
00001000
00000000
,
00010000
00001000
00000010
00000000
00001000
00000010
00000001
00000000
,
00001000
00000000
00000010
00000000
00010000
00000000
00001000
00000000
00010000
00001000
00000000
00001000
00000000
00000000
00100000
00000000
,
00010000
00000000
00100000
00000000
00001000
00000000
00010000
00000000
00001000
00010000
00000000
00010000
00000000
00000000
00000010
00000000
,
00001000
00000000
00000010
00000000
00010000
00000000
00001000
00000000
00010000
00001000
00000000
00001000
00000000
00000000
00100000
00000000
,
00001000
00000000
00100000
00000000
00010000
00000000
00001000
00000000
00000100
00000010
00000000
00000010
00000000
00000000
00000000
00000000
,
00000010
00001000
00100000
00000010
,
00001000
00010000
10000000
00010000
,
00100000
00010000
00000010
00100000
,
00010000
00001000
00000001
00001000
,
00000010
00001000
00100000
00000010
,
00001000
00010000
10000000
00010000
,
10000000
00100000
00010000
00001000
00000200
00000000
00000301
00000000
,
00000010
00000100
00010000
00001000
02000000
00100000
03100000
00000000
,
00010000
00000000
00100000
00000000
00001000
00000000
00010000
00000000
00001000
00010000
00000000
00010000
00000000
00000000
00000010
00000000
,
00001000
00000000
00000010
00000000
00010000
00000000
00001000
00000000
00010000
00001000
00000000
00001000
00000000
00000000
00100000
00000000
,
00010000
00000000
00100000
00000000
00001000
00000000
00010000
00000000
00001000
00010000
00000000
00010000
00000000
00000000
00000010
00000000
,
00010000
00000000
00000010
00000000
00001000
00000000
00010000
00000000
01000000
00100000
00000000
00100000
00000000
00000000
00000000
00000000
,
;
