#TITLE:Dance Partay;
#SUBTITLE:Full Song;
#ARTIST:DKC Crew;
#TITLETRANSLIT:;
#SUBTITLETRANSLIT:;
#ARTISTTRANSLIT:;
#CREDIT:;
#BANNER:Dance Partay (Full Song).png;
#BACKGROUND:Dance Partay (Full Song)-bg.png;
#LYRICSPATH:;
#CDTITLE:./CDTITLES/DanceDanceRevolution II.png;
#MUSIC:Dance Partay (Full Song).ogg;
#OFFSET:0.000;
#SAMPLESTART:44.380;
#SAMPLELENGTH:15.000;
#SELECTABLE:YES;
#DISPLAYBPM:135.000;
#BPMS:0.000=135.000;
#STOPS:;
#BGCHANGES:;

//---------------dance-single - ----------------
#NOTES:
     dance-single:
     :
     Beginner:
     2:
     0.135,0.217,0.029,0.067,0.000:
0000
0000
0000
0000
,
0000
0000
0000
0000
,
0000
0000
0000
0000
,
0000
0000
0000
0000
,
0000
0000
0000
0000
,
0000
0000
0000
0000
,
0000
0000
0000
0000
,
0000
0000
0000
0000
,
0000
0000
0000
0000
,
0001
0000
0000
0000
,
0001
0000
0000
0000
,
0001
0000
0000
0000
,
0001
0000
0000
0000
,
1000
0000
0000
0000
,
1000
0000
0000
0000
,
1000
0000
0000
0000
,
1000
1000
1000
0000
,
0010
0000
0000
0000
,
0010
0000
0000
0000
,
1000
0000
0001
0000
,
1000
0000
0001
0000
,
0010
0000
0000
0000
,
0010
0000
0000
0000
,
0001
0000
1000
0000
,
1001
0000
0000
0000
,
0001
0001
0001
0000
,
0010
0010
0010
0000
,
1000
1000
1000
0000
,
0100
0000
0000
0000
,
1000
1000
1000
0000
,
0010
0010
0010
0000
,
0001
0001
0001
0000
,
1001
0000
0000
0000
,
1000
0000
0000
0000
,
1000
0000
0000
0000
,
1000
0000
0000
0000
,
1000
0000
0000
0000
,
0001
0000
0000
0000
,
0001
0000
0000
0000
,
0001
0000
0000
0000
,
0001
0001
0001
0000
,
0010
0000
0000
0000
,
0010
0000
0000
0000
,
0001
0000
1000
0000
,
0001
0000
1000
0000
,
0010
0000
0000
0000
,
0010
0000
0000
0000
,
1000
0000
0001
0000
,
1001
0000
0000
0000
,
1000
1000
1000
0000
,
0010
0010
0010
0000
,
0001
0001
0001
0000
,
0100
0000
0000
0000
,
0001
0001
0001
0000
,
0010
0010
0010
0000
,
1000
1000
1000
0000
,
1001
0000
0000
0000
,
0001
0000
0000
0000
,
0001
0000
0000
0000
,
0001
0000
0000
0000
,
0001
0000
0000
0000
,
1000
0000
0000
0000
,
1000
0000
0000
0000
,
1000
0000
0000
0000
,
1000
1000
1000
0000
,
0010
0000
0000
0000
,
0010
0000
0000
0000
,
1000
0000
0001
0000
,
1000
0000
0001
0000
,
0010
0000
0000
0000
,
0010
0000
0000
0000
,
0001
0000
1000
0000
,
1001
0000
0000
0000
,
0001
0001
0001
0000
,
0010
0010
0010
0000
,
1000
1000
1000
0000
,
0100
0000
0000
0000
,
1000
1000
1000
0000
,
0010
0010
0010
0000
,
0001
0001
0001
0000
,
1001
0000
0000
0000
,
0100
0000
0000
0000
,
1000
0000
0000
0000
,
0100
0000
0000
0000
,
0001
0000
0000
0000
,
0100
0000
0000
0000
,
1000
0000
0000
0000
,
0100
0000
0000
0000
,
0001
0000
0000
0000
,
2000
3000
0000
0000
,
0002
0003
0000
0000
,
0020
0030
0000
0000
,
0200
0300
0000
0000
,
2000
3000
0000
0000
,
0002
0003
0000
0000
,
0020
0030
0000
0000
,
0200
0300
0000
0000
,
1000
0000
1000
0000
,
1000
0000
1000
0000
,
0001
0000
0001
0000
,
0001
0000
0001
0000
,
0100
0000
0100
0000
,
0100
0000
0100
0000
,
0010
0000
0010
0000
,
0010
0000
0010
0000
,
2000
3000
0002
0003
,
1000
0000
0001
0000
,
0200
0300
0020
0030
,
0100
0000
0010
0000
,
0002
0003
2000
3000
,
0001
0000
1000
0000
,
0200
0300
0020
0030
,
0100
0000
0000
0000
,
0001
0001
0001
0000
,
0010
0010
0010
0000
,
1000
1000
1000
0000
,
0100
0000
0100
0000
,
1000
1000
1000
0000
,
0010
0010
0010
0000
,
0001
0001
0001
0000
,
0110
0000
0000
0000
,
1000
0000
0000
0000
,
0100
0000
0000
0000
,
0001
0000
0000
0000
,
0100
0000
0000
0000
,
1000
0000
0000
0000
,
0010
0000
0000
0000
,
0001
0000
0000
0000
,
0010
0010
0010
0010
,
;

//---------------dance-single - ----------------
#NOTES:
     dance-single:
     :
     Easy:
     5:
     0.220,0.244,0.055,0.189,0.000:
0000
0000
0000
0000
,
0000
0000
0000
0000
,
0000
0000
0000
0000
,
0000
0000
0000
0000
,
0000
0000
0000
0000
,
0000
0000
0000
0000
,
0000
0000
0000
0000
,
0000
0000
0000
0000
,
0000
0000
0000
0000
,
1000
0000
0001
1000
,
0001
0000
0100
0100
,
0010
0000
1000
1000
,
0001
0000
1000
1000
,
0001
0000
0100
0000
,
0010
0000
1000
0000
,
0100
0000
0010
0000
,
0001
0001
1000
1000
,
0002
0000
1003
0000
,
2000
0000
3001
0000
,
0010
0000
0010
0000
,
0100
0100
0100
0000
,
0002
0000
1003
0000
,
2000
0000
3001
0000
,
0010
0000
0010
0000
,
1000
1000
1000
1000
,
2000
0000
0100
3001
,
0002
0000
0010
0103
,
0020
0000
0001
0031
,
2000
0010
3010
0000
,
0002
0000
0100
1003
,
2000
0000
0010
3100
,
0020
0000
1000
1030
,
0001
1000
0001
1000
,
0001
0000
1000
0001
,
1000
0000
0100
0100
,
0010
0000
0001
0001
,
1000
0000
0001
0001
,
1000
0000
0100
0000
,
0010
0000
0001
0000
,
0100
0000
0010
0000
,
1000
1000
0001
0001
,
2000
0000
3001
0000
,
0002
0000
1003
0000
,
0010
0000
0010
0000
,
0100
0100
0100
0000
,
2000
0000
3001
0000
,
0002
0000
1003
0000
,
0010
0000
0010
0000
,
0001
0001
0001
0001
,
0002
0000
0100
1003
,
2000
0000
0010
3100
,
0020
0000
1000
1030
,
0002
0010
0013
0000
,
2000
0000
0100
3001
,
0002
0000
0010
0103
,
0020
0000
0001
0031
,
1000
0001
1000
0001
,
0001
0000
1000
0001
,
1000
0000
0100
0100
,
0010
0000
0001
0001
,
1000
0000
0001
0001
,
1000
0000
0100
0000
,
0010
0000
0010
0000
,
0100
0000
0100
0000
,
1000
1000
0001
0001
,
2000
0000
3001
0000
,
0002
0000
1003
0000
,
0010
0000
0010
0000
,
0100
0100
0100
0000
,
2000
0000
3001
0000
,
0002
0000
1003
0000
,
0010
0000
0010
0000
,
0001
0001
0001
0001
,
0002
0000
0100
1003
,
2000
0000
0010
3100
,
0020
0000
1000
1030
,
0002
0010
0013
0000
,
2000
0000
0100
3001
,
0002
0000
0010
0103
,
0020
0000
0001
0031
,
1000
0001
1000
0001
,
1000
0000
1000
1000
,
0001
0000
0001
0001
,
1000
0000
1000
1000
,
0001
0000
0001
0001
,
1000
0000
1000
1000
,
0001
0000
0001
0001
,
1000
0000
1000
1000
,
1001
0000
0000
0000
,
0110
0000
0000
0000
,
1001
0000
0000
0000
,
1100
0000
0000
0000
,
0101
0000
0000
0000
,
0110
0000
0000
0000
,
1001
0000
0000
0000
,
1100
0000
0000
0000
,
0101
0000
0000
0000
,
1000
0000
1000
0000
,
0100
0000
0100
0000
,
0010
0000
0010
0000
,
0001
0000
0001
0000
,
0100
0000
0100
0000
,
0010
0000
0010
0000
,
1000
0000
1000
0000
,
0001
0000
0001
0000
,
1001
0000
1001
0000
,
0100
0100
0100
0000
,
0010
0010
0010
0000
,
2000
3000
0002
0003
,
0110
0000
0110
0000
,
1000
1000
1000
0000
,
0001
0001
0001
0000
,
0020
0030
0200
0300
,
0002
0000
0100
0103
,
0200
0000
0010
0310
,
0020
0000
1000
1030
,
2000
0000
0002
3003
,
2000
0000
0100
3100
,
0200
0000
0010
0310
,
0020
0000
0001
0031
,
0001
1000
0001
1000
,
0001
0000
0001
0001
,
1000
0000
1000
1000
,
0001
0000
0001
0001
,
1000
0000
1000
1000
,
0001
0000
0000
0000
,
0100
0000
0000
0000
,
0010
0000
0000
0000
,
1000
1000
0001
0001
,
;

//---------------dance-single - ----------------
#NOTES:
     dance-single:
     :
     Medium:
     9:
     0.360,0.434,0.181,0.084,0.017:
0000
0000
0000
0000
,
0000
0000
0000
0000
,
0000
0000
0000
0000
,
0000
0000
0000
0000
,
0000
0000
0000
0000
,
0000
0000
0000
0000
,
0000
0000
0000
0000
,
0000
0000
0000
0000
,
0000
0000
0000
0000
,
0000
0000
0001
0000
1000
0100
0010
0000
,
0000
0000
0001
0000
0100
0010
0001
0000
,
0000
0000
0100
0000
0010
0001
0010
0000
,
1000
0000
0010
0000
1000
0100
0001
0000
,
0100
0000
1000
0000
0010
1000
0001
0000
,
0100
0000
0010
0000
0100
1000
0010
0000
,
0100
0000
0001
0000
0010
0100
0010
0000
,
1000
0001
1000
0001
0200
0000
0300
0000
,
0020
1000
0100
1030
,
0200
0010
0001
0310
,
1000
0001
0100
1000
,
0001
0000
0010
0000
1000
0010
0001
0000
,
0020
0001
0100
0031
,
0200
0010
1000
0310
,
0001
1000
0100
0001
,
1001
0110
1001
0110
,
1001
0000
0100
0010
1000
0000
0010
0000
,
0110
0000
1000
0100
0010
0000
0100
0000
,
1100
0000
0001
0100
0001
0000
1000
0000
,
0101
0000
1000
0010
1000
0000
0100
0000
,
1001
0000
0100
0010
0001
0000
0010
0000
,
0110
0000
0001
0100
0010
0000
0100
0000
,
0101
0000
1000
0100
1000
0000
0001
0000
,
1000
0001
1000
0001
,
0000
0000
1000
0000
0001
0100
0010
0000
,
0000
0000
1000
0000
0100
0010
1000
0000
,
0000
0000
0100
0000
0010
1000
0010
0000
,
0001
0000
0010
0000
0001
0100
1000
0000
,
0100
0000
0001
0000
0010
0001
1000
0000
,
0100
0000
0010
0000
0100
0001
0010
0000
,
0100
0000
1000
0000
0010
0100
0010
0000
,
0001
1000
0001
1000
0200
0000
0300
0000
,
2000
0001
0100
3001
,
0002
0010
1000
0013
,
0100
1000
0100
0001
,
0100
0000
0010
0000
0001
0010
1000
0000
,
0002
1000
0100
1003
,
2000
0010
0001
3010
,
0100
0001
0100
1000
,
0001
0000
1000
0000
0001
1000
0001
0000
,
1001
0000
0100
0010
0001
0000
0010
0000
,
0110
0000
0001
0100
0010
0000
0100
0000
,
0101
0000
1000
0100
1000
0000
0001
0000
,
1100
0000
0001
0010
0001
0000
0100
0000
,
1001
0000
0100
0010
1000
0000
0010
0000
,
0110
0000
1000
0100
0010
0000
0100
0000
,
1100
0000
0001
0100
0001
0000
1000
0000
,
0001
1000
0001
1000
,
0000
0000
0001
0000
1000
0100
0010
0000
,
0000
0000
0001
0000
0100
0010
0001
0000
,
0000
0000
0100
0000
0010
0001
0010
0000
,
1000
0000
0010
0000
1000
0100
0001
0000
,
0100
0000
1000
0100
0000
0000
1000
0000
,
0010
0000
0100
0010
0000
0000
0100
0000
,
0001
0000
0010
0001
0000
0000
0010
0000
,
0100
0010
0100
0010
0200
0000
0300
0000
,
0002
1000
0100
1003
,
2000
0010
0001
3010
,
0100
0001
0100
1000
,
0100
0000
0010
0000
1000
0010
0001
0000
,
2000
0001
0100
3001
,
0002
0010
1000
0013
,
0001
0100
1000
0100
,
0010
0100
0010
0100
,
1001
0000
0100
0010
0001
0000
0010
0000
,
0110
0000
0001
0100
0010
0000
0100
0000
,
0101
0000
1000
0100
1000
0000
0001
0000
,
1100
0000
0001
0010
0001
0000
0100
0000
,
1001
0000
0100
0010
1000
0000
0010
0000
,
0110
0000
1000
0100
0010
0000
0100
0000
,
1100
0000
0001
0100
0001
0000
1000
0000
,
1001
0110
1001
0110
,
1000
0000
0100
0000
0010
0000
0001
0010
,
0001
0000
0100
0000
0010
0000
1000
0001
,
1000
0000
0100
0000
0010
0000
0001
0010
,
0001
0000
0100
0000
0010
0000
1000
0001
,
1000
0000
0010
0000
0100
0000
0001
0100
,
0001
0000
0010
0000
0100
0000
1000
0001
,
1000
0000
0010
0000
0100
0000
0001
0100
,
0001
0010
0100
0110
,
1000
0000
0000
0000
0000
0000
0000
0001
0000
0000
0001
0000
0000
0000
0000
0000
,
0100
0000
0000
0000
0000
0000
0000
0010
0000
0000
0010
0000
0000
0000
0000
0000
,
1000
0000
0000
0000
0000
0000
0000
0100
0000
0000
0100
0000
0000
0000
0000
0000
,
0001
0000
0000
0000
0000
0000
0000
0010
0000
0000
0010
0000
0000
0000
0000
0000
,
1000
0000
0000
0000
0000
0000
0000
1000
0000
0000
0001
0000
0000
0000
0000
0000
,
0010
0000
0000
0000
0000
0000
0000
0010
0000
0000
0100
0000
0000
0000
0000
0000
,
1000
0000
0000
0000
0000
0000
0000
1000
0000
0000
0010
0000
0000
0000
0000
0000
,
0001
0000
0000
0000
0000
0000
0000
0001
0000
0000
0100
0000
0000
0000
0000
0000
,
0010
0010
0010
0010
,
1000
1000
1000
1000
,
0001
0001
0001
0001
,
0100
0100
0100
0100
,
0001
0001
0010
0010
,
1000
1000
0100
0100
,
0010
0010
1000
1000
,
0001
0001
0100
0100
,
0020
1030
0020
1030
,
0100
0010
0100
0000
0010
0100
0010
0000
,
0001
0001
0100
1000
,
0010
0010
1000
0100
,
0002
0013
0002
0013
,
0100
1000
0100
0000
1000
0100
1000
0000
,
0010
0010
0001
1000
,
0010
0010
0100
0100
0020
0000
0030
0000
,
0110
0000
1000
0100
1000
0000
0100
0000
,
1100
0000
0010
0100
0010
0000
0001
0000
,
0101
0000
0010
0100
0010
0000
0001
0000
,
1001
0000
1000
0100
0001
0000
0100
0000
,
0110
0000
0001
0100
0001
0000
0100
0000
,
0101
0000
0010
0100
0010
0000
1000
0000
,
1100
0000
0010
0100
0010
0000
1000
0000
,
1001
0110
1001
0110
,
1000
0000
0100
0000
0010
0000
0001
0010
,
0001
0000
0100
0000
0010
0000
1000
0001
,
1000
0000
0100
0000
0010
0000
0001
0010
,
0001
0000
0100
0000
0010
0000
1000
0100
,
1000
0000
0100
0000
0010
0000
0100
1000
,
0001
0000
0010
0000
0100
0000
0010
0001
,
1000
0000
0010
0000
0100
0000
0010
1000
,
0001
0110
1000
0110
,
0001
0000
0000
0000
,
;

//---------------dance-single - ----------------
#NOTES:
     dance-single:
     :
     Hard:
     12:
     0.489,0.516,0.286,0.139,0.223: // measure 1
0000
0000
0000
0000
,  // measure 2
0000
0000
0000
0000
,  // measure 3
0000
0000
0000
0000
,  // measure 4
0000
0000
0000
0000
,  // measure 5
0000
0000
0000
0000
,  // measure 6
0000
0000
0000
0000
,  // measure 7
0000
0000
0000
0000
,  // measure 8
0000
0000
0000
0000
,  // measure 9
0000
0000
0000
0000
,  // measure 10
0000
0000
1000
0100
1000
0010
0011
0000
,  // measure 11
0000
0010
1000
0100
0001
0100
1100
0000
,  // measure 12
0000
0010
0100
0001
0010
1000
1010
0000
,  // measure 13
0000
0001
0100
1000
0100
0001
1001
0000
,  // measure 14
0000
0100
0010
1000
0100
0001
0010
0000
,  // measure 15
0100
1000
0010
0100
1000
0001
0010
0000
,  // measure 16
0000
0100
0010
1000
1100
0000
0011
0000
,  // measure 17
0100
0100
0100
0100
0100
0010
1001
0000
,  // measure 18
0200
0001
0010
1000
,  // measure 19
0320
0001
0100
1030
,  // measure 20
0000
0100
0001
0100
0010
1000
0100
0000
,  // measure 21
0011
0010
0100
1000
0010
0001
0100
0000
,  // measure 22
0020
0001
0100
1000
,  // measure 23
0230
0001
0010
1300
,  // measure 24
0000
0001
0100
0010
1000
0100
0100
1000
,  // measure 25
0001
0101
0001
0101
,  // measure 26
1001
0000
0000
0100
0010
0000
0000
1000
0100
0000
0010
0000
0100
0000
0000
0000
,  // measure 27
0011
0000
0000
0100
0001
0000
0000
1000
0010
0000
0100
0000
0100
0000
0000
0000
,  // measure 28
0110
0000
0000
0001
0100
0000
0000
1000
0010
0000
0100
0000
0001
0000
0000
0000
,  // measure 29
1010
0000
0000
0001
0100
0000
0000
0010
1000
0000
0100
0000
0010
0000
0000
0000
,  // measure 30
1001
0000
0000
0100
0010
0000
0000
0001
0100
0000
0010
0000
0100
0000
0000
0000
,  // measure 31
1010
0000
0000
0100
1000
0000
0000
0001
0010
0000
0100
0000
0100
0000
0000
0000
,  // measure 32
0110
0000
0000
1000
0100
0000
0000
0001
0010
0000
0100
0000
1000
0000
0000
0000
,  // measure 33
0001
1001
0001
1001
,  // measure 34
0001
0100
0001
0100
0001
0010
1010
0000
,  // measure 35
0100
0010
0001
0100
1000
0100
0101
0000
,  // measure 36
0001
0010
0110
0000
0010
0001
0011
0000
,  // measure 37
0010
1000
0100
0001
0100
1000
1001
0000
,  // measure 38
1000
0100
0010
0001
0100
1000
0010
0000
,  // measure 39
0100
0001
0010
0100
0001
1000
0010
0000
,  // measure 40
0001
0100
0010
0001
0101
0000
1010
0000
,  // measure 41
0100
0100
0100
0100
0100
0010
1001
0000
,  // measure 42
0200
0010
0001
1000
,  // measure 43
0320
0100
1000
0031
,  // measure 44
1000
0100
1000
1000
0010
0100
0001
0000
,  // measure 45
0010
0100
0010
0000
0001
0000
0100
0000
0010
0000
1000
0000
0001
0000
0000
0000
,  // measure 46
0020
0100
0001
1000
,  // measure 47
0230
0010
1000
0301
,  // measure 48
1000
0100
0001
0001
0010
0100
0001
0000
,  // measure 49
0100
0001
0100
0000
1000
0000
0100
0000
0010
0000
0001
0000
1000
0000
0000
0000
,  // measure 50
1001
0000
0000
0100
0010
0000
0000
0001
0100
0000
0010
0000
0100
0000
0000
0000
,  // measure 51
1010
0000
0000
0100
1000
0000
0000
0001
0010
0000
0100
0000
0100
0000
0000
0000
,  // measure 52
0110
0000
0000
1000
0100
0000
0000
0001
0010
0000
0100
0000
1000
0000
0000
0000
,  // measure 53
0011
0000
0000
1000
0100
0000
0000
0010
0001
0000
0100
0000
0010
0000
0000
0000
,  // measure 54
1001
0000
0000
0100
0010
0000
0000
1000
0100
0000
0010
0000
0100
0000
0000
0000
,  // measure 55
0011
0000
0000
0100
0001
0000
0000
1000
0010
0000
0100
0000
0100
0000
0000
0000
,  // measure 56
0110
0000
0000
0001
0100
0000
0000
1000
0010
0000
0100
0000
0001
0000
0000
0000
,  // measure 57
1000
1001
0001
1001
,  // measure 58
0000
1000
0001
0100
0001
0010
1010
0000
,  // measure 59
0100
0010
0001
0100
1000
0100
0101
0000
,  // measure 60
0001
0010
0100
1000
0010
0001
0011
0000
,  // measure 61
0100
1000
0100
0001
0100
1000
1001
0000
,  // measure 62
0100
0000
0010
0100
0000
0000
0011
0000
,  // measure 63
1000
0000
0100
0001
0000
0000
1100
0000
,  // measure 64
0010
0000
1000
0001
0000
0000
0110
0000
,  // measure 65
0100
0100
0100
0100
0100
0010
1001
0000
,  // measure 66
0200
0010
1000
0001
,  // measure 67
0320
0100
0001
1030
,  // measure 68
0001
0100
0001
0001
0010
0100
1000
0000
,  // measure 69
0010
0100
0010
0000
1000
0000
0100
0000
0010
0000
0001
0000
1000
0000
0000
0000
,  // measure 70
0020
0100
1000
0001
,  // measure 71
0230
0010
0001
1300
,  // measure 72
0002
0010
2003
0010
,  // measure 73
3100
0100
0100
0100
,  // measure 74
1001
0000
0000
0100
0010
0000
0000
1000
0100
0000
0010
0000
0100
0000
0000
0000
,  // measure 75
0011
0000
0000
0100
0001
0000
0000
1000
0010
0000
0100
0000
0100
0000
0000
0000
,  // measure 76
0110
0000
0000
0001
0100
0000
0000
1000
0010
0000
0100
0000
0001
0000
0000
0000
,  // measure 77
1010
0000
0000
0001
0100
0000
0000
0010
1000
0000
0100
0000
0010
0000
0000
0000
,  // measure 78
1001
0000
0000
0100
0010
0000
0000
0001
0100
0000
0010
0000
0100
0000
0000
0000
,  // measure 79
1010
0000
0000
0100
1000
0000
0000
0001
0010
0000
0100
0000
0100
0000
0000
0000
,  // measure 80
0110
0000
0000
1000
0100
0000
0000
0001
0010
0000
0100
0000
1000
0000
0000
0000
,  // measure 81
0010
0110
0100
0110
,  // measure 82
0001
0000
0000
0001
0100
0000
0010
1000
0000
0001
0010
0000
0100
0000
0010
0000
,  // measure 83
0001
0000
0000
1000
0100
0000
0010
0001
0000
0100
0010
0000
1000
0000
0001
0000
,  // measure 84
1000
0000
0000
1000
0100
0000
0010
0001
0000
1000
0010
0000
0100
0000
0010
0000
,  // measure 85
1000
0000
0000
0001
0100
0000
0010
1000
0000
0100
0010
0000
0001
0000
1000
0000
,  // measure 86
0001
0000
0000
0001
0100
0000
0010
1000
0000
0001
0010
0000
0100
0000
0010
0000
,  // measure 87
0001
0000
0000
1000
0100
0000
0010
0001
0000
0100
0010
0000
1000
0000
0001
0000
,  // measure 88
1000
0000
0000
1000
0100
0000
0010
0001
0000
1000
0010
0000
0100
0000
0010
0000
,  // measure 89
1000
0000
0000
0001
0100
0000
0100
1000
0000
1000
0100
0000
0001
0000
0010
0000
,  // measure 90
0200
0000
0000
0000
0000
0000
0000
1000
0000
0000
2000
0000
0300
0000
0000
0000
,  // measure 91
3020
0000
0000
0000
0000
0000
0000
0100
0000
0000
0200
0000
0030
0000
0000
0000
,  // measure 92
0302
0000
0000
0000
0000
0000
0000
0010
0000
0000
0020
0000
0003
0000
0000
0000
,  // measure 93
0230
0000
0000
0000
0000
0000
0000
1000
0000
0000
2000
0000
0300
0000
0000
0000
,  // measure 94
3020
0000
0000
0000
0000
0000
0000
1000
0000
0000
2000
0000
0030
0000
0000
0000
,  // measure 95
3200
0000
0000
0000
0000
0000
0000
0010
0000
0000
0020
0000
0300
0000
0000
0000
,  // measure 96
0032
0000
0000
0000
0000
0000
0000
0100
0000
0000
0200
0000
0003
0000
0000
0000
,  // measure 97
0320
0000
0000
0000
0000
0000
0000
0100
0000
0000
0100
0000
0030
0000
0000
0000
,  // measure 98
1000
1000
0100
0100
,  // measure 99
1000
1000
0010
0010
,  // measure 100
0100
0100
0001
0001
,  // measure 101
0100
0100
0010
0010
,  // measure 102
0001
0001
0100
0100
,  // measure 103
0001
0001
0010
0010
,  // measure 104
0100
0100
1000
1000
,  // measure 105
0100
0100
0100
0100
0010
0010
0010
0000
,  // measure 106
1001
0100
1001
0100
,  // measure 107
0010
1000
0100
0001
1000
0010
0100
0000
,  // measure 108
0000
0010
0010
0100
1000
0001
0010
0001
,  // measure 109
0000
0100
0001
1000
0100
1000
0001
0000
,  // measure 110
0010
1001
0010
1001
,  // measure 111
0000
0100
0100
1000
0010
0100
0001
0000
,  // measure 112
0000
1000
0001
0100
1000
0001
0100
0010
,  // measure 113
0100
0100
0100
0100
0200
0000
0300
0000
,  // measure 114
0110
0000
0000
1000
0100
0000
0000
0100
1000
0000
0010
0000
0100
0000
0000
0000
,  // measure 115
0011
0000
0000
0010
1000
0000
0000
1000
0010
0000
0100
0000
0001
0000
0000
0000
,  // measure 116
1100
0000
0000
1000
0010
0000
0000
0010
0100
0000
0001
0000
0010
0000
0000
0000
,  // measure 117
1001
0000
0000
1000
0001
0000
0000
0001
1000
0000
0001
0000
1000
0000
0000
0000
,  // measure 118
0110
0000
0000
0001
0100
0000
0000
0100
0001
0000
0010
0000
0100
0000
0000
0000
,  // measure 119
1010
0000
0000
0010
0001
0000
0000
0001
0010
0000
0100
0000
1000
0000
0000
0000
,  // measure 120
0101
0000
0000
0001
0010
0000
0000
0010
0100
0000
1000
0000
0010
0000
0000
0000
,  // measure 121
0100
0110
0010
0110
,  // measure 122
0001
0000
0000
0001
0100
0000
0010
1000
0000
0001
0010
0000
0100
0000
0010
0000
,  // measure 123
0001
0000
0000
1000
0100
0000
0010
0001
0000
0100
0010
0000
1000
0000
0001
0000
,  // measure 124
1000
0000
0000
1000
0100
0000
0010
0001
0000
1000
0010
0000
0100
0000
0010
0000
,  // measure 125
1000
0000
0000
0001
0100
0000
0010
1000
0000
1000
0100
0000
0010
0000
0010
0000
,  // measure 126
0200
0000
0000
0000
0000
0000
0000
1000
0000
0000
0010
0000
0300
0000
0000
0000
,  // measure 127
2000
0000
0000
0000
0000
0000
0000
0010
0000
0000
0001
0000
3000
0000
0000
0000
,  // measure 128
0020
0000
0000
0000
0000
0000
0000
1000
0000
0000
0100
0000
0030
0000
0000
0000
,  // measure 129
0001
0101
1000
1100
,  // measure 130
0010
0000
0000
0000
;
