#TITLE:Beautiful Monster;
#SUBTITLE:Short Song;
#ARTIST:Ne-Yo;
#TITLETRANSLIT:;
#SUBTITLETRANSLIT:;
#ARTISTTRANSLIT:;
#CREDIT:;
#BANNER:Beautiful Monster.png;
#BACKGROUND:Beautiful Monster-bg.png;
#LYRICSPATH:;
#CDTITLE:./CDTITLES/DanceDanceRevolution II.png;
#MUSIC:../Beautiful Monster (Full Song)/Beautiful Monster (Full Song).ogg;
#OFFSET:0.000;
#SAMPLESTART:45.880;
#SAMPLELENGTH:15.000;
#SELECTABLE:YES;
#DISPLAYBPM:128.000;
#BPMS:0.000=128.001;
#STOPS:;
#BGCHANGES:;

//---------------dance-single - ----------------
#NOTES:
     dance-single:
     :
     Beginner:
     2:
     0.034,0.049,0.012,0.063,0.000:
0000
0000
0000
0000
,
0000
0000
0000
0000
,
0000
0000
0000
0000
,
0000
0000
0000
0000
,
0000
0000
0000
0000
,
0000
0000
0000
0000
,
0000
0000
0000
0000
,
0000
0000
0000
0000
,
0000
0000
0000
0000
,
0002
0003
0000
0000
,
0000
0000
0000
0000
,
2000
3000
0000
0000
,
0000
0000
0000
0000
,
0002
0003
0000
0000
,
0000
0000
0000
0000
,
2000
3000
0000
0000
,
0000
0000
0000
0000
,
0002
0003
0000
0000
,
0001
0000
0000
0000
,
2000
3000
0000
0000
,
1000
0000
0000
0000
,
0002
0003
0000
0000
,
1000
0000
0000
0000
,
0002
0000
0000
0003
,
0000
0000
0000
0000
,
2000
3000
0000
0000
,
0001
0000
0001
0000
,
0002
0003
0000
0000
,
1000
0000
1000
0000
,
2000
3000
0000
0000
,
0001
0000
0001
0000
,
0002
0003
0000
0000
,
0000
0000
0000
0000
,
0002
0003
0000
0000
,
1000
0000
1000
0000
,
2000
3000
0000
0000
,
0001
0000
0001
0000
,
0002
0003
0000
0000
,
1000
0000
1000
0000
,
1000
0000
0000
0000
,
0000
0000
0000
0000
,
1001
0000
0000
0000
,
1000
0000
0001
0000
,
1001
0000
0000
0000
,
1000
0000
0001
0000
,
1001
0000
0000
0000
,
1000
0000
1000
0000
,
0001
0000
0000
0000
,
0000
0000
0000
0000
,
2000
0000
0000
3000
,
;

//---------------dance-single - ----------------
#NOTES:
     dance-single:
     :
     Easy:
     4:
     0.069,0.089,0.036,0.040,0.000: // measure 1
0000
0000
0000
0000
,  // measure 2
0000
0000
0000
0000
,  // measure 3
0000
0000
0000
0000
,  // measure 4
0000
0000
0000
0000
,  // measure 5
0000
0000
0000
0000
,  // measure 6
0000
0000
0000
0000
,  // measure 7
0000
0000
0000
0000
,  // measure 8
0000
0000
0000
0000
,  // measure 9
0000
0000
0000
0000
,  // measure 10
0002
0003
1000
0100
,  // measure 11
2000
3000
0010
0100
,  // measure 12
0020
0030
0100
0001
,  // measure 13
0200
0300
0001
0010
,  // measure 14
0002
0003
2000
3000
,  // measure 15
0001
1000
0100
0000
,  // measure 16
0020
0030
0001
0010
,  // measure 17
0200
0000
0300
0000
,  // measure 18
0001
0100
0001
0100
,  // measure 19
1000
0000
0001
0000
,  // measure 20
1000
0010
1000
0010
,  // measure 21
0100
0000
0001
0000
,  // measure 22
1000
0001
1000
0001
,  // measure 23
0100
0000
0010
0000
,  // measure 24
0200
0000
0000
0300
,  // measure 25
0000
0000
0000
0000
,  // measure 26
1000
1000
0001
0001
,  // measure 27
0100
0100
0010
0000
,  // measure 28
0001
0001
1000
1000
,  // measure 29
0010
0010
0100
0000
,  // measure 30
1000
1000
0100
0100
,  // measure 31
0001
0001
0100
0000
,  // measure 32
0001
0000
0010
0000
,  // measure 33
1000
0000
0100
0000
,  // measure 34
0001
0001
0100
0100
,  // measure 35
0001
0001
1000
0000
,  // measure 36
1000
1000
0010
0010
,  // measure 37
1000
1000
0001
0000
,  // measure 38
0001
0001
0010
0010
,  // measure 39
1000
1000
0010
0000
,  // measure 40
1000
0000
0010
0000
,  // measure 41
0001
0000
0100
0000
,  // measure 42
0101
0000
0000
0000
,  // measure 43
0110
0000
1001
0000
,  // measure 44
1100
0000
0000
0000
,  // measure 45
0110
0000
1001
0000
,  // measure 46
0011
0000
0000
0000
,  // measure 47
0110
0000
1001
0000
,  // measure 48
0001
0000
0010
0000
,  // measure 49
1000
0000
0100
0000
,  // measure 50
2000
0000
0000
0000
,  // measure 51
0000
3000
0000
0000
;

//---------------dance-single - ----------------
#NOTES:
     dance-single:
     :
     Medium:
     7:
     0.113,0.129,0.047,0.040,0.000:
0000
0000
0000
0000
,
0000
0000
0000
0000
,
0000
0000
0000
0000
,
0000
0000
0000
0000
,
0000
0000
0000
0000
,
0000
0000
0000
0000
,
0000
0000
0000
0000
,
0000
0000
0000
0000
,
0000
0000
0000
0000
,
0002
0000
1003
0000
1000
0010
0100
0000
,
0002
0000
0013
0000
0010
0001
0100
0000
,
0020
0000
0130
0000
0010
1000
0001
0000
,
0200
0000
0301
0000
0001
0100
0010
0000
,
1000
0100
2000
0000
3100
0000
0001
0000
,
0010
0100
0020
0000
1030
0000
0100
0000
,
0002
0000
1003
0000
0010
0100
0001
0000
,
0200
0000
0300
0000
,
0001
0100
1000
0100
,
1000
1000
0010
0000
0001
0001
0100
0000
,
0001
0010
1000
0100
,
0010
0010
1000
0000
0100
0100
0001
0000
,
1000
0000
0100
0010
0100
0000
0001
0000
,
1000
1000
0100
0000
0001
0001
0100
0000
,
0020
0000
0000
0030
,
0000
0000
0000
0000
,
1000
0100
1000
0000
0001
0010
0001
0000
,
1000
0100
1000
0100
0010
0000
0000
0000
,
0001
0100
0001
0000
1000
0010
1000
0000
,
0001
0010
0001
0010
0100
0000
0000
0000
,
1000
0100
0010
0000
0100
0010
0001
0000
,
0001
0100
0010
1000
0000
0100
0100
0000
,
0001
0001
0010
0100
,
1000
1000
0100
0010
,
0001
0010
0001
0000
0100
0010
0100
0000
,
1000
0100
1000
0100
1000
0000
0000
0000
,
1000
0010
1000
0000
0010
0100
0010
0000
,
0001
0010
0001
0010
0001
0000
0000
0000
,
0001
0100
0010
0000
0010
0100
0001
0000
,
1000
0100
0010
0001
0000
0010
0010
0000
,
1000
1000
0010
0100
,
0001
0001
0100
0010
,
1100
0000
0000
0100
0000
0011
0000
0000
,
0101
0000
0000
1001
0000
0000
0000
0000
,
0011
0000
0000
1000
0000
1100
0000
0000
,
1010
0000
0000
1001
0000
0000
0000
0000
,
0101
0000
0000
0010
0000
1010
0000
0000
,
0101
0000
0000
1001
0000
0000
0000
0000
,
0001
0000
0100
0000
0010
0000
1000
1000
,
0001
0000
0010
0000
0100
0000
1000
0001
,
2000
0000
0000
0000
,
0000
3000
0000
0000
,
;

//---------------dance-single - ----------------
#NOTES:
     dance-single:
     :
     Hard:
     10:
     0.131,0.149,0.008,0.055,0.018:
0000
0000
0000
0000
,
0000
0000
0000
0000
,
0000
0000
0000
0000
,
0000
0000
0000
0000
,
0000
0000
0000
0000
,
0000
0000
0000
0000
,
0000
0000
0000
0000
,
0000
0000
0000
0000
,
0000
0000
0000
0000
,
1001
0000
1000
0100
1000
0010
0200
0000
,
0301
0000
0001
0100
0001
0010
0200
0000
,
1300
0000
0010
0100
0010
1000
0002
0000
,
0103
0000
0001
0010
0001
0100
0020
0000
,
1030
0100
1000
0010
0000
0100
0002
0000
,
0013
0100
0010
0001
0000
1000
0200
0000
,
1300
0000
0001
0100
0010
0100
0001
1000
,
0200
0000
0300
0000
,
1001
0001
0100
0001
0000
0010
0200
0000
,
1300
1000
0010
0100
0000
0010
0200
0000
,
0301
0000
0010
0100
0010
0001
2000
0000
,
3100
0000
1000
0010
1000
0100
0020
0000
,
0031
0001
0100
0010
0000
1000
0200
0000
,
0310
0010
0100
1000
0000
0001
0100
0001
,
0020
0000
0000
0030
,
0000
0000
0000
0000
,
1000
0100
1000
0001
1000
0100
1000
0010
,
0000
0100
0000
0010
1000
0001
0100
0000
,
0001
0010
0001
0100
0001
0010
0001
1000
,
0000
0010
0000
0100
0001
0010
0100
0000
,
1000
0100
0010
0100
1000
0100
0010
0001
,
0000
0100
0000
0010
0000
0100
0100
0000
,
0001
0001
0000
0010
0010
0100
0000
1000
,
1000
0010
0000
0100
0100
0001
0000
0000
,
0001
0100
0001
1000
0001
0100
0001
0010
,
0000
0100
0000
0010
0001
1000
0100
0000
,
1000
0010
1000
0100
1000
0010
1000
0001
,
0000
0010
0000
0100
1000
0010
0100
0000
,
0001
0100
0010
0100
0001
0100
0010
1000
,
0000
0100
0000
0010
0000
0100
0100
0000
,
1000
1000
0000
0010
0010
0100
0000
0001
,
0001
0010
0000
0100
0100
1000
0000
0000
,
1000
0000
0000
1000
0000
0000
0100
0000
0000
0000
0010
0000
0000
0010
0000
0000
,
0001
0000
0000
0001
0000
0000
0100
0000
0000
0000
0000
0000
0000
0000
0000
0000
,
0010
0000
0000
0010
0000
0000
1000
0000
0000
0000
0100
0000
0000
0100
0000
0000
,
0010
0000
0000
0010
0000
0000
0001
0000
0000
0000
0000
0000
0000
0000
0000
0000
,
0100
0000
0000
0100
0000
0000
0010
0000
0000
0000
1000
0000
0000
1000
0000
0000
,
0001
0000
0000
0001
0000
0000
1000
0000
0000
0000
0010
0000
0100
0000
0001
0000
,
0000
0010
0000
0100
0000
0010
0000
1000
,
0000
0010
0000
0100
0000
0010
0000
0001
,
2000
0000
0000
0000
,
0000
3000
0000
0000
,
;

//---------------dance-double - ----------------
#NOTES:
     dance-double:
     :
     Easy:
     5:
     0.063,0.088,0.000,0.051,0.000:
00000000
00000000
00000000
00000000
,
00000000
00000000
00000000
00000000
,
00000000
00000000
00000000
00000000
,
00000000
00000000
00000000
00000000
,
00000000
00000000
00000000
00000000
,
00000000
00000000
00000000
00000000
,
00000000
00000000
00000000
00000000
,
00000000
00000000
00000000
00000000
,
00000000
00000000
00000000
00000000
,
00200000
00300000
10000000
01000000
,
00200000
00300000
00001000
00010000
,
00000200
00000300
00000010
00000001
,
00000200
00000300
00000010
00010000
,
00002000
00003000
00020000
00030000
,
00001000
00100000
01000000
00000000
,
20000000
30000000
00010000
00100000
,
00002000
00000000
00003000
00000000
,
00010000
00000100
00010000
00000000
,
00000100
00000010
00000100
00000000
,
00001000
00000001
00001000
00000000
,
00000010
00010000
00000010
00000000
,
00010000
00001000
00010000
00000000
,
00001000
00100000
00001000
00100000
,
02000000
00000000
00000000
03000000
,
00000000
00000000
00000000
00000000
,
10000000
01000000
10000000
00000000
,
10000000
01000000
00100000
00000000
,
00001000
00100000
00001000
00000000
,
00001000
00010000
00000100
00000000
,
00000010
00000001
00000010
00000000
,
00000010
00000001
00000100
00000000
,
00000010
00000000
00010000
00000000
,
00001000
00000000
00010000
00000000
,
00000100
00001000
00000100
00000000
,
00000100
00000010
00000001
00000000
,
00000100
00000010
00000100
00000000
,
00000100
00000010
00010000
00000000
,
00001000
00010000
00001000
00000000
,
00001000
00100000
00001000
00000000
,
00010000
00000000
10000000
00000000
,
01000000
00000000
00100000
00000000
,
00002000
00000000
00003000
00000000
,
00010000
00000000
00010000
00000000
,
00000200
00000000
00000300
00000000
,
00000010
00000000
00000010
00000000
,
00000002
00000000
00000003
00000000
,
00000100
00000000
00000100
00000000
,
00000010
00000000
00010000
00000000
,
00000100
00000000
00000010
00000000
,
00000002
00000000
00000000
00000003
,
;

//---------------dance-double - ----------------
#NOTES:
     dance-double:
     :
     Medium:
     7:
     0.100,0.129,0.004,0.036,0.000:
00000000
00000000
00000000
00000000
,
00000000
00000000
00000000
00000000
,
00000000
00000000
00000000
00000000
,
00000000
00000000
00000000
00000000
,
00000000
00000000
00000000
00000000
,
00000000
00000000
00000000
00000000
,
00000000
00000000
00000000
00000000
,
00000000
00000000
00000000
00000000
,
00000000
00000000
00000000
00000000
,
00200000
00000000
00310000
00000000
01000000
00001000
00010000
00000000
,
00000200
00000000
00010300
00000000
00000010
00000100
00000001
00000000
,
00000020
00000000
00000130
00000000
00010000
00001000
00100000
00000000
,
00020000
00000000
01030000
00000000
00100000
10000000
01000000
00000000
,
00100000
00010000
00001000
00000010
,
00000100
00000100
00001000
00000001
,
00000200
00000000
00000301
00000000
00000010
00010000
00001000
00000000
,
00020000
00000000
00030000
00000000
,
00000100
00001000
00000001
00000100
,
00000010
00010000
00010000
00000000
00001000
00100000
00100000
00000000
,
00100000
00010000
10000000
01000000
,
00010000
00000010
00000010
00000000
00001000
00000001
00000001
00000000
,
00001000
00000010
00000100
00000001
,
00001000
00000010
00000010
00000000
00010000
00000010
00010000
00000000
,
00022000
00000000
00000000
00033000
,
00000000
00000000
00000000
00000000
,
00001000
00000010
00010000
00000000
00001000
00000000
01000000
00000000
,
00100000
00000000
10000000
00000000
01000000
00010000
00001000
00000000
,
00001000
00010000
00000100
00000000
00000010
00000000
00000001
00000000
,
00000100
00000000
00000010
00000000
00001000
00010000
00100000
00000000
,
10000000
01000000
00100000
00000000
00010000
00000000
01000000
00000000
,
00001000
00000000
00010000
00000000
00000100
00000010
00000001
00000000
,
00000100
00000010
00010000
00001000
,
01000000
00100000
10000000
01000000
,
00010000
00100000
00001000
00000000
00010000
00000000
00000100
00000000
,
00000010
00000000
00000001
00000000
00000100
00001000
00010000
00000000
,
00010000
00001000
01000000
00000000
00100000
00000000
10000000
00000000
,
01000000
00000000
00100000
00000000
00010000
00001000
00000010
00000000
,
00000001
00000100
00000010
00000000
00001000
00000000
00000100
00000000
,
00010000
00000000
00001000
00000000
01000000
00100000
10000000
00000000
,
01000000
00100000
00001000
00010000
,
00000100
00000010
00000001
00000100
,
00000010
00000000
00000000
00010000
00000000
00001000
00000000
00000000
,
00100000
00000000
00000000
01000000
00000000
00000000
00000000
00000000
,
00100000
00000000
00000000
00001000
00000000
00010000
00000000
00000000
,
00000010
00000000
00000000
00000100
00000000
00000000
00000000
00000000
,
00000010
00000000
00000000
00010000
00000000
00001000
00000000
00000000
,
00100000
00000000
00000000
00001000
00000000
00010000
00000100
00000000
,
00010000
00001000
00100000
00010000
,
01000000
00001000
00010000
00000010
,
00002000
00000000
00000000
00000000
,
00000000
00003000
00000000
00000000
,
;

//---------------dance-double - ----------------
#NOTES:
     dance-double:
     :
     Hard:
     9:
     0.125,0.149,0.004,0.059,0.018:
00000000
00000000
00000000
00000000
,
00000000
00000000
00000000
00000000
,
00000000
00000000
00000000
00000000
,
00000000
00000000
00000000
00000000
,
00000000
00000000
00000000
00000000
,
00000000
00000000
00000000
00000000
,
00000000
00000000
00000000
00000000
,
00000000
00000000
00000000
00000000
,
00000000
00000000
00000000
00000000
,
00100000
00000000
00010000
01000000
00001000
00010000
00000020
00000000
,
00010030
00000000
00000100
00001000
00000001
00000100
00002000
00000000
,
00013000
00000000
00100000
01000000
00010000
10000000
02000000
00000000
,
03100000
00000000
00001000
00010000
00000100
00000010
00000002
00000000
,
00000103
00000010
00000100
00001000
00000000
00010000
00200000
00000000
,
10300000
01000000
10000000
00010000
00000000
00001000
00000020
00000000
,
00000130
00000000
00000001
00001000
00000010
00001000
00000100
00010000
,
00002000
00000000
00003000
00000000
,
00000100
00000100
00010000
00001000
00000000
00100000
02000000
00000000
,
13000000
10000000
00100000
01000000
00000000
00001000
00020000
00000000
,
00030100
00000000
00000010
00000001
00000010
00000001
00000200
00000000
,
00000310
00000000
00010000
00001000
00010000
00001000
00200000
00000000
,
00310000
00010000
01000000
00100000
00000000
10000000
02000000
00000000
,
03010000
00010000
00001000
00000010
00000000
00000100
00000010
00000100
,
00002002
00000000
00000000
00003003
,
00000000
00000000
00000000
00000000
,
00001000
00000010
00010000
00000000
00001000
00010000
01000000
00000000
,
10000000
00000000
00100000
00000000
01000000
00001000
00010000
00000000
,
00001000
00100000
00010000
00000000
00100000
00010000
00001000
00000000
,
00000100
00000000
00000010
00000000
00000001
00000100
00001000
00000000
,
00010000
00001000
00100000
00000000
00001000
00100000
01000000
00000000
,
10000000
00000000
01000000
00000000
00100000
00010000
00010000
00000000
,
00000010
00000010
00000000
00000001
00000100
00000100
00000000
00000010
,
00010000
00010000
00000000
00001000
00100000
00100000
00000000
00000000
,
00010000
00100000
00001000
00000000
00010000
00001000
00000100
00000000
,
00000001
00000000
00000010
00000000
00000100
00010000
00001000
00000000
,
00010000
00000010
00001000
00000000
00000010
00001000
00010000
00000000
,
01000000
00000000
00100000
00000000
10000000
01000000
00010000
00000000
,
00001000
00010000
00000010
00000000
00010000
00000010
00000100
00000000
,
00000001
00000000
00000100
00000000
00000010
00001000
00001000
00000000
,
00100000
00100000
00000000
10000000
01000000
01000000
00000000
00100000
,
00010000
00010000
00000000
01000000
00001000
00001000
00000000
00000000
,
00000010
00000000
00000000
00000001
00000000
00000000
00001000
00000000
00000000
00000000
00000001
00000000
00000000
00000100
00000000
00000000
,
00000010
00000000
00000000
00010000
00000000
00000000
00001000
00000000
00000000
00000000
00000000
00000000
00000000
00000000
00000000
00000000
,
00100000
00000000
00000000
00010000
00000000
00000000
10000000
00000000
00000000
00000000
00010000
00000000
00000000
01000000
00000000
00000000
,
00001000
00000000
00000000
00010000
00000000
00000000
00000100
00000000
00000000
00000000
00000000
00000000
00000000
00000000
00000000
00000000
,
00000010
00000000
00000000
00000001
00000000
00000000
00000100
00000000
00000000
00000000
00000010
00000000
00000000
00010000
00000000
00000000
,
00001000
00000000
00000000
00100000
00000000
00000000
01000000
00000000
00000000
00000000
10000000
00000000
01000000
00000000
00010000
00000000
,
00000000
00001000
00000000
00000010
00000000
00000001
00000000
00000100
,
00000000
00001000
00000000
00010000
00000000
01000000
00000000
10000000
,
00020000
00000000
00000000
00000000
,
00000000
00030000
00000000
00000000
,
;
