#TITLE:Baby ft. Ludacris;
#SUBTITLE:Full Song;
#ARTIST:Justin Bieber;
#TITLETRANSLIT:;
#SUBTITLETRANSLIT:;
#ARTISTTRANSLIT:;
#CREDIT:;
#BANNER:Baby ft. Ludacris (Full Song).png;
#BACKGROUND:Baby ft. Ludacris (Full Song)-bg.png;
#LYRICSPATH:;
#CDTITLE:./CDTITLES/DanceDanceRevolution II.png;
#MUSIC:Baby ft. Ludacris (Full Song).ogg;
#OFFSET:0.000;
#SAMPLESTART:46.100;
#SAMPLELENGTH:15.000;
#SELECTABLE:YES;
#DISPLAYBPM:130.000;
#BPMS:0.000=130.000;
#STOPS:;
#BGCHANGES:;

//---------------dance-single - ----------------
#NOTES:
     dance-single:
     :
     Beginner:
     2:
     0.115,0.156,0.005,0.115,0.000:
0000
0000
0000
0000
,
0000
0000
0000
0000
,
0000
0000
0000
0000
,
0000
0000
0000
0000
,
0000
0000
0000
0000
,
0000
0000
0000
0000
,
0000
0000
0000
0000
,
0000
0000
0000
0000
,
0000
0000
0000
0000
,
1000
0000
0000
0000
,
0010
0000
0000
0000
,
0001
0000
0000
0000
,
0010
0000
0000
0000
,
1000
0000
0000
0000
,
0001
0000
0000
0000
,
1000
0000
1000
0000
,
0001
0000
0000
0000
,
1000
0000
0000
0000
,
0010
0000
0000
0000
,
0001
0000
0000
0000
,
0010
0000
0000
0000
,
1000
0000
0000
0000
,
0001
0000
0000
0000
,
1000
0000
1000
0000
,
0001
0000
0000
0000
,
1000
1000
1000
0000
,
0020
0030
0000
0000
,
0001
0001
0001
0000
,
0020
0030
0000
0000
,
1000
1000
1000
0000
,
0020
0030
0000
0000
,
0001
0000
0001
0000
,
1000
0000
0000
0000
,
1000
1000
1000
0000
,
0020
0030
0000
0000
,
0001
0001
0001
0000
,
0020
0030
0000
0000
,
1000
1000
1000
0000
,
0020
0030
0000
0000
,
1000
0000
1000
0000
,
0001
0000
0000
0000
,
0001
0000
0000
0000
,
0010
0000
0000
0000
,
1000
0000
0000
0000
,
0010
0000
0000
0000
,
0001
0000
0000
0000
,
1000
0000
0000
0000
,
0001
0000
0000
0000
,
1000
0000
0000
0000
,
0001
0000
0000
0000
,
0010
0000
0000
0000
,
1000
0000
0000
0000
,
0010
0000
0000
0000
,
0001
0000
0000
0000
,
0000
0000
0000
0000
,
0001
0000
0001
0000
,
1000
0000
0000
0000
,
0001
0001
0001
0000
,
0020
0030
0000
0000
,
1000
1000
1000
0000
,
0020
0030
0000
0000
,
0001
0001
0001
0000
,
0020
0030
0000
0000
,
1000
0000
1000
0000
,
0001
0000
0000
0000
,
0001
0001
0001
0000
,
0020
0030
0000
0000
,
1000
1000
1000
0000
,
0020
0030
0000
0000
,
0001
0001
0001
0000
,
0020
0030
0000
0000
,
1000
0000
1000
0000
,
0001
0000
0000
0000
,
0010
0000
0000
0000
,
0001
0000
0000
0000
,
1000
0000
0000
0000
,
0000
0000
0000
0000
,
0010
0000
0000
0000
,
0010
0000
0000
0000
,
0001
0000
0000
0000
,
1000
0000
0000
0000
,
0100
0000
0000
0000
,
0001
0000
0000
0000
,
1000
0000
0000
0000
,
0100
0000
0000
0000
,
0001
0000
0000
0000
,
0100
0000
0000
0000
,
1000
0000
0000
0000
,
0001
0000
0000
0000
,
0001
0001
0001
0000
,
0020
0030
0000
0000
,
1000
1000
1000
0000
,
0020
0030
0000
0000
,
0001
0001
0001
0000
,
0020
0030
0000
0000
,
1000
0000
1000
0000
,
0001
0000
0000
0000
,
0001
0001
0001
0000
,
0020
0030
0000
0000
,
1000
1000
1000
0000
,
0020
0030
0000
0000
,
0001
0001
0001
0000
,
0020
0030
0000
0000
,
1000
0000
1000
0000
,
0001
0000
0000
0000
,
0002
0003
0000
0000
,
2000
3000
0000
0000
,
0002
0003
0000
0000
,
1000
0000
1000
0000
,
0002
0003
0000
0000
,
2000
3000
0000
0000
,
0002
0003
0000
0000
,
2000
3000
0000
0000
,
1001
0000
0000
0000
,
;

//---------------dance-single - ----------------
#NOTES:
     dance-single:
     :
     Easy:
     4:
     0.199,0.233,0.014,0.142,0.000: // measure 1
0000
0000
0000
0000
,  // measure 2
0000
0000
0000
0000
,  // measure 3
0000
0000
0000
0000
,  // measure 4
0000
0000
0000
0000
,  // measure 5
0000
0000
0000
0000
,  // measure 6
0000
0000
0000
0000
,  // measure 7
0000
0000
0000
0000
,  // measure 8
0000
0000
0000
0000
,  // measure 9
0000
0000
0000
0000
,  // measure 10
0001
0000
1000
0000
,  // measure 11
0010
0000
1000
0000
,  // measure 12
1000
0000
0001
0000
,  // measure 13
0010
0000
0001
0000
,  // measure 14
0001
0000
0001
0000
,  // measure 15
1000
0000
1000
0000
,  // measure 16
0001
0001
0100
0100
,  // measure 17
1000
1000
0001
0000
,  // measure 18
0001
0000
1000
0000
,  // measure 19
0010
0000
1000
0000
,  // measure 20
1000
0000
0001
0000
,  // measure 21
0010
0000
0001
0000
,  // measure 22
0001
0000
0001
0000
,  // measure 23
1000
0000
1000
0000
,  // measure 24
0001
0001
0100
0100
,  // measure 25
1000
0001
1001
0000
,  // measure 26
0001
1000
0001
0000
,  // measure 27
0010
0200
0300
0001
,  // measure 28
1000
0001
1000
0000
,  // measure 29
0010
0200
0300
1000
,  // measure 30
0001
1000
0001
0000
,  // measure 31
0100
0020
0030
0001
,  // measure 32
1000
0000
0001
0000
,  // measure 33
1000
0010
0100
0000
,  // measure 34
0001
1000
0001
0000
,  // measure 35
0010
0200
0300
0001
,  // measure 36
1000
0001
1000
0000
,  // measure 37
0010
0200
0300
1000
,  // measure 38
0001
1000
0001
0000
,  // measure 39
0100
0020
0030
0001
,  // measure 40
1000
0000
0001
0000
,  // measure 41
1000
0100
0001
0000
,  // measure 42
1000
0000
0001
0000
,  // measure 43
0010
0000
0001
0000
,  // measure 44
0001
0000
1000
0000
,  // measure 45
0010
0000
1000
0000
,  // measure 46
1000
0000
1000
0000
,  // measure 47
0001
0000
0001
0000
,  // measure 48
1000
1000
0100
0100
,  // measure 49
0001
0001
1000
0000
,  // measure 50
1000
0000
0001
0000
,  // measure 51
0010
0000
0001
0000
,  // measure 52
0001
0000
1000
0000
,  // measure 53
0010
0000
1000
0000
,  // measure 54
1000
0001
0000
0000
,  // measure 55
1000
0000
0000
0000
,  // measure 56
1000
0000
0100
0000
,  // measure 57
1000
0001
1001
0000
,  // measure 58
1000
0001
1000
0000
,  // measure 59
0010
0200
0300
1000
,  // measure 60
0010
1000
0001
0000
,  // measure 61
0010
0200
0300
0001
,  // measure 62
1000
0001
1000
0000
,  // measure 63
0100
0020
0030
1000
,  // measure 64
0001
0000
0010
0000
,  // measure 65
0001
0100
1000
0000
,  // measure 66
1000
0001
1000
0000
,  // measure 67
0010
0200
0300
1000
,  // measure 68
0001
1000
0001
0000
,  // measure 69
0010
0200
0300
0001
,  // measure 70
1000
0001
1000
0000
,  // measure 71
0100
0020
0030
1000
,  // measure 72
0001
0000
0010
0000
,  // measure 73
0001
0100
1000
0000
,  // measure 74
0000
0100
0100
0100
,  // measure 75
0000
1000
0000
1000
,  // measure 76
0000
0100
0100
0100
,  // measure 77
0001
0000
0001
0000
,  // measure 78
0000
0010
0010
0010
,  // measure 79
0000
0100
0000
0010
,  // measure 80
0000
1000
1000
1000
,  // measure 81
0000
0001
0000
0100
,  // measure 82
0000
0100
0100
0100
,  // measure 83
0000
0010
0010
0010
,  // measure 84
0000
0001
0001
0001
,  // measure 85
0000
0100
0100
0100
,  // measure 86
0000
1000
0000
0100
,  // measure 87
0000
0100
0000
0100
,  // measure 88
0000
0001
0001
0001
,  // measure 89
0100
0000
0100
0000
,  // measure 90
1000
0001
1000
0000
,  // measure 91
0100
0020
0030
1000
,  // measure 92
0001
1000
0001
0000
,  // measure 93
0100
0020
0030
0001
,  // measure 94
1000
0001
1000
0000
,  // measure 95
0010
0200
0300
1000
,  // measure 96
0001
0000
1000
0000
,  // measure 97
1000
0100
0001
0000
,  // measure 98
1000
0001
1000
0000
,  // measure 99
1000
0020
0030
1000
,  // measure 100
0001
1000
0001
0000
,  // measure 101
0001
0020
0030
0001
,  // measure 102
1000
0001
1000
0000
,  // measure 103
1000
0200
0300
1000
,  // measure 104
0001
0000
1000
0000
,  // measure 105
1000
0100
0001
0000
,  // measure 106
2000
3000
0200
0300
,  // measure 107
0002
0003
0200
0300
,  // measure 108
2000
3000
0002
0003
,  // measure 109
0010
0000
0100
0000
,  // measure 110
2000
3000
0200
0300
,  // measure 111
0002
0003
0200
0300
,  // measure 112
0002
0003
2000
3000
,  // measure 113
0200
0300
0001
1000
,  // measure 114
1001
0000
0000
0000
;

//---------------dance-single - ----------------
#NOTES:
     dance-single:
     :
     Medium:
     6:
     0.291,0.285,0.014,0.142,0.000:
0000
0000
0000
0000
,
0000
0000
0000
0000
,
0000
0000
0000
0000
,
0000
0000
0000
0000
,
0000
0000
0000
0000
,
0000
0000
0000
0000
,
0000
0000
0000
0000
,
0000
0000
0000
0000
,
0000
0000
0000
0000
,
0001
0000
0000
1000
0000
0100
0100
0000
,
0010
0000
0000
1000
0000
0001
0100
0000
,
1000
0000
0000
0001
0000
0100
0100
0000
,
0010
0000
0000
0001
0000
1000
0100
0000
,
0001
0000
0000
0001
0000
0100
0010
0000
,
1000
0000
0000
1000
0000
0100
0010
0000
,
0001
1000
0100
0001
,
1000
0000
1000
0000
0001
0010
0100
0000
,
0001
0000
0000
1000
0000
0100
0100
0000
,
0010
0000
0000
1000
0000
0001
0100
0000
,
1000
0000
0000
0001
0000
0100
0100
0000
,
0010
0000
0000
0001
0000
1000
0100
0000
,
0001
0000
0000
0001
0000
0100
0010
0000
,
1000
0000
0000
1000
0000
0100
0010
0000
,
0001
1000
0100
0001
,
1000
0001
1001
0000
,
0001
0000
1000
0000
0001
0100
1000
0000
,
0010
0000
0200
0000
1000
0300
0001
0000
,
1000
0000
0001
0000
1000
0100
0001
0000
,
0010
0000
0200
0000
0001
0300
1000
0000
,
0001
0000
1000
0000
0001
0010
1000
0000
,
0100
0000
0020
0000
1000
0030
0001
0000
,
1000
0100
0001
0010
,
1000
0000
0010
0100
0001
0000
0000
0000
,
0001
0000
1000
0000
0001
0100
1000
0000
,
0010
0000
0200
0000
1000
0300
0001
0000
,
1000
0000
0001
0000
1000
0100
0001
0000
,
0010
0000
0200
0000
0001
0300
1000
0000
,
0001
0000
1000
0000
0001
0010
1000
0000
,
0100
0000
0020
0000
1000
0030
0001
0000
,
1000
0100
0001
0010
,
1000
0100
0010
0000
0001
0000
0000
0000
,
1000
0000
0000
0001
0000
0100
0100
0000
,
0010
0000
0000
0001
0000
1000
0100
0000
,
0001
0000
0000
1000
0000
0100
0100
0000
,
0010
0000
0000
1000
0000
0001
0100
0000
,
1000
0000
0000
1000
0000
0100
0010
0000
,
0001
0000
0000
0001
0000
0100
0010
0000
,
1000
0001
0100
1000
,
0001
0000
0001
0000
1000
0010
0100
0000
,
1000
0000
0000
0001
0000
0100
0100
0000
,
0010
0000
0000
0001
0000
1000
0100
0000
,
0001
0000
0000
1000
0000
0100
0100
0000
,
0010
0000
0000
1000
0000
0001
0100
0000
,
1000
0000
0001
0000
0000
0100
0000
0000
,
1000
0000
0000
0100
0000
0000
0000
0000
,
1000
0001
0100
1000
,
1000
0001
1001
0000
,
1000
0000
0001
0000
1000
0100
0001
0000
,
0010
0000
0200
0000
0001
0300
1000
0000
,
0010
0000
1000
0000
0001
0100
1000
0000
,
0010
0000
0200
0000
1000
0300
0001
0000
,
1000
0000
0001
0000
1000
0010
0001
0000
,
0100
0000
0020
0000
0001
0030
1000
0000
,
0001
0100
0010
1000
,
0001
0010
0100
0000
1000
0000
0000
0000
,
1000
0000
0001
0000
1000
0100
0001
0000
,
0010
0000
0200
0000
0001
0300
1000
0000
,
0001
0000
1000
0000
0001
0100
1000
0000
,
0010
0000
0200
0000
1000
0300
0001
0000
,
1000
0000
0001
0000
1000
0010
0001
0000
,
0100
0000
0020
0000
0001
0030
1000
0000
,
0001
0100
0010
1000
,
0001
0010
0100
0000
1000
0000
0000
0000
,
0000
0100
0010
0010
,
0000
1000
0100
0100
,
0000
0010
0100
0100
,
0001
0001
0100
0010
,
0000
0010
1000
0100
,
0000
0100
1000
0010
,
0000
0010
1000
0010
,
0000
1000
0001
0100
,
0000
0100
1000
0010
,
0000
0010
0001
0010
,
0000
0001
0100
0001
,
0000
0100
0100
0001
,
0000
1000
0010
0100
,
0000
0100
0010
0100
,
0000
0100
0001
0100
,
0100
0010
1000
0001
,
1000
0000
0001
0000
1000
0010
0001
0000
,
0100
0000
0020
0000
0001
0030
1000
0000
,
0001
0000
1000
0000
0001
0010
1000
0000
,
0100
0000
0020
0000
1000
0030
0001
0000
,
1000
0000
0001
0000
1000
0100
0001
0000
,
0010
0000
0200
0000
0001
0300
1000
0000
,
0001
0010
1000
0100
,
1000
0100
0010
0000
0001
0000
0000
0000
,
1000
0000
0001
0000
1000
0010
0001
0000
,
1000
0000
0020
0000
0001
0030
1000
0000
,
0001
0000
1000
0000
0001
0010
1000
0000
,
0001
0000
0020
0000
1000
0030
0001
0000
,
1000
0000
0001
0000
1000
0100
0001
0000
,
1000
0000
0200
0000
0001
0300
1000
0000
,
0001
0010
1000
0100
,
1000
0100
0010
0000
0001
0000
0000
0000
,
2000
0000
0000
3200
0000
0000
0310
0000
,
0002
0000
0000
0203
0000
0000
0310
0000
,
2000
0000
0000
3002
0000
0000
0103
0000
,
0010
0000
0001
0100
1000
0000
0000
0000
,
2000
0000
0000
3200
0000
0000
0310
0000
,
0002
0000
0000
0203
0000
0000
0310
0000
,
0002
0000
0000
2003
0000
0000
3000
0200
,
0000
0300
0001
1000
,
1001
0000
0000
0000
,
;

//---------------dance-single - ----------------
#NOTES:
     dance-single:
     :
     Hard:
     10:
     0.395,0.363,0.005,0.161,0.078:
0000
0000
0000
0000
,
0000
0000
0000
0000
,
0000
0000
0000
0000
,
0000
0000
0000
0000
,
0000
0000
0000
0000
,
0000
0000
0000
0000
,
0000
0000
0000
0000
,
0000
0000
0000
0000
,
0000
0000
0000
0000
,
1000
0000
0000
0100
0000
0000
0010
0000
0000
0000
0010
0000
0001
0000
0000
0000
,
0100
0000
0000
0010
0000
0000
1000
0000
0100
0000
0010
0000
0100
0000
0000
0000
,
0001
0000
0000
0100
0000
0000
0010
0000
0000
0000
0010
0000
1000
0000
0000
0000
,
0100
0000
0000
0010
0000
0000
0001
0000
0100
0000
0010
0000
0100
0000
0000
0000
,
0001
0000
0000
0100
0000
0000
0001
0000
0000
0000
0010
0000
0100
0000
0000
0000
,
1000
0000
0000
0100
0000
0000
1000
0000
0000
0000
0010
0000
0100
0000
0000
0000
,
0001
0000
0000
0010
0000
0000
0001
0000
0100
0000
0000
0010
0000
0000
1000
0000
,
0100
0000
0000
1000
0000
0000
0010
0000
0100
0000
0001
0000
1000
0000
0000
0000
,
0001
0000
0000
0100
0000
0000
0010
0000
0000
0000
0010
0000
1000
0000
0000
0000
,
0100
0000
0000
0010
0000
0000
0001
0000
0100
0000
0010
0000
0100
0000
0000
0000
,
1000
0000
0000
0100
0000
0000
0010
0000
0000
0000
0010
0000
0001
0000
0000
0000
,
0100
0000
0000
0010
0000
0000
1000
0000
0100
0000
0010
0000
0100
0000
0000
0000
,
1000
0000
0000
0100
0000
0000
1000
0000
0000
0000
0010
0000
0100
0000
0000
0000
,
0001
0000
0000
0100
0000
0000
0001
0000
0000
0000
0010
0000
0100
0000
0000
0000
,
1000
0000
0000
0010
0000
0000
1000
0000
0100
0000
0000
0010
0000
0000
0001
0000
,
0100
0000
0000
0001
0000
0000
0010
0000
0100
0000
1000
0000
0001
0000
0000
0000
,
1000
0100
0001
0000
1000
0100
0001
0100
,
1000
0001
0200
0000
0001
0300
1000
0000
,
0001
0100
1000
0000
0001
0100
1000
0100
,
0001
1000
0200
0000
1000
0300
0001
0000
,
1000
0010
0001
0000
1000
0010
0001
0010
,
1000
0001
0020
0000
0001
0030
1000
0000
,
0001
0000
0100
0000
0010
1000
0010
0000
,
1000
0100
0010
0100
1000
0000
0001
0000
,
1000
0100
0001
0000
1000
0100
0001
0100
,
1000
0001
0200
0000
0001
0300
1000
0000
,
0001
0100
1000
0000
0001
0100
1000
0100
,
0001
1000
0200
0000
1000
0300
0001
0000
,
1000
0010
0001
0000
1000
0010
0001
0010
,
1000
0001
0020
0000
0001
0030
1000
0000
,
0001
0000
0100
0000
0010
1000
0010
0000
,
1000
0100
0010
0100
1000
0000
0001
0000
,
1000
0000
0000
0100
0000
0000
0010
0000
0000
0000
0010
0000
0001
0000
0000
0000
,
0100
0000
0000
0010
0000
0000
1000
0000
0100
0000
0010
0000
0100
0000
0000
0000
,
0001
0000
0000
0100
0000
0000
0010
0000
0000
0000
0010
0000
1000
0000
0000
0000
,
0100
0000
0000
0010
0000
0000
0001
0000
0100
0000
0010
0000
0100
0000
0000
0000
,
0001
0000
0000
0100
0000
0000
0001
0000
0000
0000
0010
0000
0100
0000
0000
0000
,
1000
0000
0000
0100
0000
0000
1000
0000
0000
0000
0010
0000
0100
0000
0000
0000
,
0001
0000
0000
0010
0000
0000
0001
0000
0100
0000
0000
0010
0000
0000
1000
0000
,
0100
0000
0000
1000
0000
0000
0010
0000
0100
0000
0001
0000
1000
0000
0000
0000
,
0001
0000
0000
0100
0000
0000
0010
0000
0000
0000
0010
0000
1000
0000
0000
0000
,
0100
0000
0000
0010
0000
0000
0001
0000
0100
0000
0010
0000
0100
0000
0000
0000
,
1000
0000
0000
0100
0000
0000
0010
0000
0000
0000
0010
0000
0001
0000
0000
0000
,
0100
0000
0000
0010
0000
0000
1000
0000
0100
0000
0010
0000
0100
0000
0000
0000
,
0001
1000
0200
0000
0300
0020
0000
0030
,
0002
0000
0003
2000
0000
3000
0000
0000
,
0001
0000
0000
0010
0000
0000
0001
0000
0100
0000
0000
0010
0000
0000
1000
0000
,
0100
0000
0000
1000
0000
0000
0010
0000
0100
0000
0001
0000
1000
0000
0000
0000
,
0001
0100
1000
0000
0001
0100
1000
0100
,
0001
1000
0200
0000
1000
0300
0001
0000
,
1000
0100
0001
0000
1000
0100
0001
0100
,
1000
0001
0200
0000
0001
0300
1000
0000
,
0001
0010
1000
0000
0001
0010
1000
0010
,
0001
1000
0020
0000
1000
0030
0001
0000
,
1000
0000
0100
0000
0010
0001
0010
0000
,
0001
0100
0010
0100
0001
0000
1000
0000
,
0001
0100
1000
0000
0001
0100
1000
0100
,
0001
1000
0200
0000
1000
0300
0001
0000
,
1000
0100
0001
0000
1000
0100
0001
0100
,
1000
0001
0200
0000
0001
0300
1000
0000
,
0001
0010
1000
0000
0001
0010
1000
0010
,
0001
1000
0020
0000
1000
0030
0001
0000
,
1000
0000
0100
0000
0010
0001
0010
0000
,
0001
0100
0010
0100
0001
0000
1000
0000
,
0000
1000
0100
0000
0010
0000
0100
0000
,
0000
1000
0001
0000
1000
0100
1000
0000
,
0000
0001
0100
0010
0100
0001
0010
0000
,
0100
0001
0010
0001
0100
0010
1000
0000
,
0000
0100
0010
1000
0001
0000
0100
0000
,
0000
0001
0100
0000
0001
0000
0010
0000
,
0000
1000
0010
0100
0001
0000
0010
0000
,
0000
0100
0001
0010
1000
0000
0100
0000
,
0000
0001
0100
0000
0001
0000
0010
0000
,
0000
0001
0010
0000
1000
0100
0010
0000
,
0000
0001
1000
0010
0100
0000
1000
0000
,
0000
0001
0100
0010
0100
0001
1000
0100
,
0000
0010
0001
0100
0010
0000
0100
0000
,
0000
1000
0100
0000
0010
0000
0100
0000
,
0000
0001
0100
0010
1000
0000
0100
0000
,
0100
1000
0010
0100
0001
0000
1000
0000
,
0001
0010
1000
0000
0001
0010
1000
0010
,
0001
1000
0020
0000
1000
0030
0001
0000
,
1000
0010
0001
0000
1000
0010
0001
0010
,
1000
0001
0020
0000
0001
0030
1000
0000
,
0001
0100
1000
0000
0001
0100
1000
0100
,
0001
1000
0200
0000
1000
0300
0001
0000
,
1000
0000
0010
0000
0100
0001
0100
0000
,
0001
0010
0100
0010
0001
0000
1000
0000
,
0001
0010
1000
0000
0001
0010
1000
0010
,
0001
1000
0020
0000
1000
0030
0001
0000
,
1000
0010
0001
0000
1000
0010
0001
0010
,
1000
0001
0020
0000
0001
0030
1000
0000
,
0001
0100
1000
0000
0001
0100
1000
0100
,
0001
1000
0200
0000
1000
0300
0001
0000
,
1000
0000
0010
0000
0100
0001
0100
0000
,
0001
0010
0100
0010
0001
0000
1000
0000
,
0002
0000
0000
0203
0000
0010
0310
0000
,
2000
0000
0000
3200
0000
0010
0310
0000
,
0002
0000
0000
2003
0000
0100
3100
0000
,
0010
0001
1000
0100
0001
0000
0000
0000
,
0002
0000
0000
0203
0000
0010
0310
0000
,
2000
0000
0000
3200
0000
0010
0310
0000
,
2000
0000
0000
3002
0000
0000
0003
0200
,
0000
0300
1000
0001
,
1001
0000
0000
0000
,
;

//---------------dance-double - ----------------
#NOTES:
     dance-double:
     :
     Easy:
     4:
     0.199,0.233,0.014,0.142,0.000:
00000000
00000000
00000000
00000000
,
00000000
00000000
00000000
00000000
,
00000000
00000000
00000000
00000000
,
00000000
00000000
00000000
00000000
,
00000000
00000000
00000000
00000000
,
00000000
00000000
00000000
00000000
,
00000000
00000000
00000000
00000000
,
00000000
00000000
00000000
00000000
,
00000000
00000000
00000000
00000000
,
10000000
00000000
00010000
00000000
,
00100000
00000000
00010000
00000000
,
00001000
00000000
00000001
00000000
,
00000010
00000000
00000001
00000000
,
00001000
00000000
00001000
00000000
,
00000001
00000000
00000001
00000000
,
00000100
00000100
00001000
00001000
,
00010000
00010000
01000000
00000000
,
10000000
00000000
00010000
00000000
,
00100000
00000000
00010000
00000000
,
00001000
00000000
00000001
00000000
,
00000010
00000000
00000001
00000000
,
00001000
00000000
00001000
00000000
,
00000001
00000000
00000001
00000000
,
00000100
00000100
00001000
00001000
,
00010000
00100000
10010000
00000000
,
10000000
01000000
10000000
00000000
,
00010000
00200000
00300000
00001000
,
00010000
00001000
00010000
00000000
,
00000100
00002000
00003000
00000010
,
00000001
00000010
00000001
00000000
,
00000100
00000020
00000030
00001000
,
00010000
00000000
00001000
00000000
,
00010000
01000000
00010000
00000000
,
10000000
01000000
10000000
00000000
,
00010000
00200000
00300000
00001000
,
00010000
00001000
00010000
00000000
,
00000100
00002000
00003000
00000010
,
00000001
00000010
00000001
00000000
,
00000100
00000020
00000030
00001000
,
00010000
00000000
00001000
00000000
,
00010000
01000000
00010000
00000000
,
10000000
00000000
00010000
00000000
,
00100000
00000000
00010000
00000000
,
00001000
00000000
00000001
00000000
,
00000010
00000000
00000001
00000000
,
00001000
00000000
00001000
00000000
,
00000001
00000000
00000001
00000000
,
00000100
00000100
00001000
00001000
,
00010000
00010000
01000000
00000000
,
10000000
00000000
00010000
00000000
,
00100000
00000000
00010000
00000000
,
00001000
00000000
00000001
00000000
,
00000010
00000000
00000001
00000000
,
00001000
00000010
00000000
00000000
,
00010000
00000000
00000000
00000000
,
00000100
00000000
00001000
00000000
,
00010000
00100000
10010000
00000000
,
10000000
01000000
10000000
00000000
,
00010000
00200000
00300000
00001000
,
00010000
00001000
00010000
00000000
,
00000100
00002000
00003000
00000010
,
00000001
00000010
00000001
00000000
,
00000100
00000020
00000030
00001000
,
00010000
00000000
00001000
00000000
,
00010000
01000000
00010000
00000000
,
10000000
01000000
10000000
00000000
,
00010000
00200000
00300000
00001000
,
00010000
00001000
00010000
00000000
,
00000100
00002000
00003000
00000010
,
00000001
00000010
00000001
00000000
,
00000100
00000020
00000030
00001000
,
00010000
00000000
00001000
00000000
,
00010000
01000000
00010000
00000000
,
00000000
10000000
10000000
10000000
,
00000000
00010000
00000000
00010000
,
00000000
01000000
01000000
01000000
,
00001000
00000000
00001000
00000000
,
00000000
00010000
00010000
00010000
,
00000000
00001000
00000000
00000010
,
00000000
00000001
00000001
00000001
,
00000000
00000100
00000000
00000010
,
00000000
00001000
00001000
00001000
,
00000000
00000100
00000100
00000100
,
00000000
00010000
00010000
00010000
,
00000000
00100000
00100000
00100000
,
00000000
10000000
00000000
01000000
,
00000000
00100000
00000000
00010000
,
00000000
00001000
00001000
00001000
,
00000010
00000000
00000001
00000000
,
00000001
00000100
00000001
00000000
,
00001000
00000020
00000030
00010000
,
00001000
00010000
00001000
00000000
,
01000000
00020000
00030000
00100000
,
10000000
00100000
10000000
00000000
,
01000000
00200000
00300000
00010000
,
00001000
00000000
00010000
00000000
,
00001000
00000100
00001000
00000000
,
00000001
00000100
00000001
00000000
,
00001000
00000020
00000030
00010000
,
00001000
00010000
00001000
00000000
,
01000000
00020000
00030000
00100000
,
10000000
00100000
10000000
00000000
,
01000000
00200000
00300000
00010000
,
00001000
00000000
00010000
00000000
,
00001000
00000100
00001000
00000000
,
00000002
00000003
00000200
00000300
,
00000020
00000030
00020000
00030000
,
00002000
00003000
02000000
03000000
,
00010000
00000000
10000000
00000000
,
20000000
30000000
02000000
03000000
,
00200000
00300000
00002000
00003000
,
00020000
00030000
00002000
00003000
,
00020000
00030000
00001000
00010000
,
00011000
00000000
00000000
00000000
,
;

//---------------dance-double - ----------------
#NOTES:
     dance-double:
     :
     Medium:
     6:
     0.292,0.285,0.009,0.142,0.000:
00000000
00000000
00000000
00000000
,
00000000
00000000
00000000
00000000
,
00000000
00000000
00000000
00000000
,
00000000
00000000
00000000
00000000
,
00000000
00000000
00000000
00000000
,
00000000
00000000
00000000
00000000
,
00000000
00000000
00000000
00000000
,
00000000
00000000
00000000
00000000
,
00000000
00000000
00000000
00000000
,
10000000
00000000
00000000
00010000
00000000
00100000
00001000
00000000
,
00010000
00000000
00000000
00000100
00000000
00000010
00000001
00000000
,
00000001
00000000
00000000
00001000
00000000
00000010
00010000
00000000
,
00001000
00000000
00000000
01000000
00000000
00100000
10000000
00000000
,
00010000
00000000
00000000
00010000
00000000
00100000
00001000
00000000
,
00010000
00000000
00000000
00010000
00000000
00000010
00001000
00000000
,
00000001
00000100
00000010
00010000
,
00001000
00000000
00010000
00000000
00001000
01000000
00100000
00000000
,
10000000
00000000
00000000
00010000
00000000
00100000
00001000
00000000
,
00010000
00000000
00000000
00000100
00000000
00000010
00000001
00000000
,
00000001
00000000
00000000
00001000
00000000
00000010
00010000
00000000
,
00001000
00000000
00000000
01000000
00000000
00100000
10000000
00000000
,
00010000
00000000
00000000
00010000
00000000
00100000
00001000
00000000
,
00010000
00000000
00000000
00010000
00000000
00000010
00001000
00000000
,
00000001
00000100
00000010
00010000
,
00001000
00000000
00010000
00000000
00001000
01000000
00100000
00000000
,
00010000
00000000
10000000
00000000
00010000
01000000
00001000
00000000
,
00010000
00000000
00000200
00000000
00000010
00000300
00001000
00000000
,
00001000
00000000
00000001
00000000
00001000
00000100
00010000
00000000
,
00001000
00000000
02000000
00000000
00100000
03000000
00010000
00000000
,
00010000
00000000
10000000
00000000
00010000
01000000
00001000
00000000
,
00010000
00000000
00000200
00000000
00000010
00000300
00001000
00000000
,
00000001
00000100
00000010
00001000
,
00010000
00000000
00100000
00010000
10000000
00000000
00000000
00000000
,
00010000
00000000
10000000
00000000
00010000
01000000
00001000
00000000
,
00010000
00000000
00000200
00000000
00000010
00000300
00001000
00000000
,
00001000
00000000
00000001
00000000
00001000
00000100
00010000
00000000
,
00001000
00000000
02000000
00000000
00100000
03000000
00010000
00000000
,
00010000
00000000
10000000
00000000
00010000
01000000
00001000
00000000
,
00010000
00000000
00000200
00000000
00000010
00000300
00001000
00000000
,
00000001
00000100
00000010
00001000
,
00010000
00000000
00100000
00010000
10000000
00000000
00000000
00000000
,
10000000
00000000
00000000
00010000
00000000
00100000
00001000
00000000
,
00010000
00000000
00000000
00000100
00000000
00000010
00000001
00000000
,
00000001
00000000
00000000
00001000
00000000
00000010
00010000
00000000
,
00001000
00000000
00000000
01000000
00000000
00100000
10000000
00000000
,
00010000
00000000
00000000
00010000
00000000
00100000
00001000
00000000
,
00010000
00000000
00000000
00010000
00000000
00000010
00001000
00000000
,
00000001
00000100
00000010
00010000
,
00001000
00000000
00010000
00000000
00001000
01000000
00100000
00000000
,
10000000
00000000
00000000
00010000
00000000
00100000
00001000
00000000
,
00010000
00000000
00000000
00000100
00000000
00000010
00000001
00000000
,
00000001
00000000
00000000
00001000
00000000
00000010
00010000
00000000
,
00001000
00000000
00000000
01000000
00000000
00100000
10000000
00000000
,
00010000
00000000
01000000
00000000
00000000
00001000
00000000
00000000
,
00010000
00000000
00000000
00000100
00000000
00000000
00000000
00000000
,
00000010
00000001
00000100
00001000
,
00010000
00100000
10010000
00000000
,
00010000
00000000
10000000
00000000
00010000
01000000
00001000
00000000
,
00010000
00000000
00000200
00000000
00000010
00000300
00001000
00000000
,
00001000
00000000
00000001
00000000
00001000
00000100
00010000
00000000
,
00001000
00000000
02000000
00000000
00100000
03000000
00010000
00000000
,
00010000
00000000
10000000
00000000
00010000
01000000
00001000
00000000
,
00010000
00000000
00000200
00000000
00000010
00000300
00001000
00000000
,
00000001
00000100
00000010
00001000
,
00010000
00000000
00100000
00010000
10000000
00000000
00000000
00000000
,
00010000
00000000
10000000
00000000
00010000
01000000
00001000
00000000
,
00010000
00000000
00000200
00000000
00000010
00000300
00001000
00000000
,
00001000
00000000
00000001
00000000
00001000
00000100
00010000
00000000
,
00001000
00000000
02000000
00000000
00100000
03000000
00010000
00000000
,
00010000
00000000
10000000
00000000
00010000
01000000
00001000
00000000
,
00010000
00000000
00000200
00000000
00000010
00000300
00001000
00000000
,
00000001
00000100
00000010
00001000
,
00010000
00000000
00100000
00010000
10000000
00000000
00000000
00000000
,
00000000
10000000
00010000
01000000
,
00000000
00001000
01000000
00010000
,
00000000
00001000
00010000
00000100
,
00000010
00000010
00000001
00000100
,
00000000
00000010
00001000
00000100
,
00000000
00010000
00000100
00001000
,
00000000
00000100
00010000
00001000
,
00000000
01000000
00100000
00010000
,
00000000
10000000
00010000
01000000
,
00000000
00001000
01000000
00010000
,
00000000
00100000
00001000
00010000
,
00000000
00000100
00000100
00001000
,
00000000
00000001
00000100
00000010
,
00000000
00010000
00001000
00010000
,
00000000
00000100
00010000
00001000
,
01000000
00100000
10000000
00010000
,
00010000
00000000
10000000
00000000
00010000
00100000
00001000
00000000
,
00010000
00000000
00000020
00000000
00000100
00000030
00001000
00000000
,
00001000
00000000
00000001
00000000
00001000
00000010
00010000
00000000
,
00001000
00000000
00200000
00000000
01000000
00300000
00010000
00000000
,
00010000
00000000
10000000
00000000
00010000
00100000
00001000
00000000
,
00010000
00000000
00000020
00000000
00000100
00000030
00001000
00000000
,
00000001
00000010
00000100
00001000
,
00010000
00000000
01000000
00010000
10000000
00000000
00000000
00000000
,
00010000
00000000
10000000
00000000
00010000
00100000
00001000
00000000
,
00010000
00000000
00000020
00000000
00000100
00000030
00001000
00000000
,
00001000
00000000
00000001
00000000
00001000
00000010
00010000
00000000
,
00001000
00000000
00200000
00000000
01000000
00300000
00010000
00000000
,
00010000
00000000
10000000
00000000
00010000
00100000
00001000
00000000
,
00010000
00000000
00000020
00000000
00000100
00000030
00001000
00000000
,
00000001
00000010
00000100
00001000
,
00010000
00000000
01000000
00010000
10000000
00000000
00000000
00000000
,
20000000
00000000
00000000
32000000
00000000
00000000
03100000
00000000
,
00002000
00000000
00000000
00023000
00000000
00000000
00030010
00000000
,
00000200
00000000
00000000
00000302
00000000
00000000
00000013
00000000
,
00000001
00000000
00000010
00000100
00001000
00000000
00000000
00000000
,
00000002
00000000
00000000
00000203
00000000
00000000
00000310
00000000
,
00020000
00000000
00000000
00032000
00000000
00000000
00103000
00000000
,
02000000
00000000
00000000
03020000
00000000
00000000
00030000
20000000
,
00000000
30000000
01000000
00100000
,
10010000
00000000
00000000
00000000
,
;

//---------------dance-double - ----------------
#NOTES:
     dance-double:
     :
     Hard:
     8:
     0.395,0.363,0.005,0.161,0.076:
00000000
00000000
00000000
00000000
,
00000000
00000000
00000000
00000000
,
00000000
00000000
00000000
00000000
,
00000000
00000000
00000000
00000000
,
00000000
00000000
00000000
00000000
,
00000000
00000000
00000000
00000000
,
00000000
00000000
00000000
00000000
,
00000000
00000000
00000000
00000000
,
00000000
00000000
00000000
00000000
,
10000000
00000000
00000000
01000000
00000000
00000000
00010000
00000000
00000000
00000000
00001000
00000000
00010000
00000000
00000000
00000000
,
00000100
00000000
00000000
00000010
00000000
00000000
00000001
00000000
00000100
00000000
00000010
00000000
00000100
00000000
00000000
00000000
,
00000001
00000000
00000000
00000100
00000000
00000000
00001000
00000000
00000000
00000000
00010000
00000000
00001000
00000000
00000000
00000000
,
01000000
00000000
00000000
00100000
00000000
00000000
10000000
00000000
01000000
00000000
00100000
00000000
01000000
00000000
00000000
00000000
,
00100000
00000000
00000000
00010000
00000000
00000000
00100000
00000000
00000000
00000000
00001000
00000000
00010000
00000000
00000000
00000000
,
00000010
00000000
00000000
00001000
00000000
00000000
00000010
00000000
00000000
00000000
00010000
00000000
00001000
00000000
00000000
00000000
,
00100000
00000000
00000000
00010000
00000000
00000000
00100000
00000000
00001000
00000000
00000000
00010000
00000000
00000000
00001000
00000000
,
01000000
00000000
00000000
00010000
00000000
00000000
01000000
00000000
00100000
00000000
10000000
00000000
01000000
00000000
00000000
00000000
,
10000000
00000000
00000000
01000000
00000000
00000000
00010000
00000000
00000000
00000000
00001000
00000000
00010000
00000000
00000000
00000000
,
00000100
00000000
00000000
00000010
00000000
00000000
00000001
00000000
00000100
00000000
00000010
00000000
00000100
00000000
00000000
00000000
,
00000001
00000000
00000000
00000100
00000000
00000000
00001000
00000000
00000000
00000000
00010000
00000000
00001000
00000000
00000000
00000000
,
01000000
00000000
00000000
00100000
00000000
00000000
10000000
00000000
01000000
00000000
00100000
00000000
01000000
00000000
00000000
00000000
,
00100000
00000000
00000000
00010000
00000000
00000000
00100000
00000000
00000000
00000000
00001000
00000000
00010000
00000000
00000000
00000000
,
00000010
00000000
00000000
00001000
00000000
00000000
00000010
00000000
00000000
00000000
00010000
00000000
00001000
00000000
00000000
00000000
,
00100000
00000000
00000000
00010000
00000000
00000000
00100000
00000000
00001000
00000000
00000000
00010000
00000000
00000000
00001000
00000000
,
00000010
00000000
00000001
00000000
00000100
00001000
00010000
00000000
,
00100000
10000000
01000000
00000000
00100000
00010000
01000000
00001000
,
00010000
00000100
00000020
00000000
00000001
00000030
00000100
00000000
,
00000010
00000001
00000100
00000000
00000010
00001000
00000100
00010000
,
00001000
01000000
00200000
00000000
10000000
00300000
01000000
00000000
,
00100000
10000000
01000000
00000000
00100000
00010000
01000000
00001000
,
00010000
00000100
00000020
00000000
00000001
00000030
00000100
00000000
,
00001000
00000000
00000001
00000000
00000100
00001000
00010000
00000000
,
00100000
10000000
01000000
00100000
00010000
00000000
01000000
00000000
,
00100000
10000000
01000000
00000000
00100000
00010000
01000000
00001000
,
00010000
00000100
00000020
00000000
00000001
00000030
00000100
00000000
,
00000010
00000001
00000100
00000000
00000010
00001000
00000100
00010000
,
00001000
01000000
00200000
00000000
10000000
00300000
01000000
00000000
,
00100000
10000000
01000000
00000000
00100000
00010000
01000000
00001000
,
00010000
00000100
00000020
00000000
00000001
00000030
00000100
00000000
,
00001000
00000000
00000001
00000000
00000100
00001000
00010000
00000000
,
00100000
10000000
01000000
00100000
00010000
00000000
01000000
00000000
,
10000000
00000000
00000000
01000000
00000000
00000000
00010000
00000000
00000000
00000000
00001000
00000000
00010000
00000000
00000000
00000000
,
00000100
00000000
00000000
00000010
00000000
00000000
00000001
00000000
00000100
00000000
00000010
00000000
00000100
00000000
00000000
00000000
,
00000001
00000000
00000000
00000100
00000000
00000000
00001000
00000000
00000000
00000000
00010000
00000000
00001000
00000000
00000000
00000000
,
01000000
00000000
00000000
00100000
00000000
00000000
10000000
00000000
01000000
00000000
00100000
00000000
01000000
00000000
00000000
00000000
,
00100000
00000000
00000000
00010000
00000000
00000000
00100000
00000000
00000000
00000000
00001000
00000000
00010000
00000000
00000000
00000000
,
00000010
00000000
00000000
00001000
00000000
00000000
00000010
00000000
00000000
00000000
00010000
00000000
00001000
00000000
00000000
00000000
,
00100000
00000000
00000000
00010000
00000000
00000000
00100000
00000000
00001000
00000000
00000000
00010000
00000000
00000000
00001000
00000000
,
01000000
00000000
00000000
00010000
00000000
00000000
01000000
00000000
00100000
00000000
10000000
00000000
01000000
00000000
00000000
00000000
,
10000000
00000000
00000000
01000000
00000000
00000000
00010000
00000000
00000000
00000000
00001000
00000000
00010000
00000000
00000000
00000000
,
00000100
00000000
00000000
00000010
00000000
00000000
00000001
00000000
00000100
00000000
00000010
00000000
00000100
00000000
00000000
00000000
,
00000001
00000000
00000000
00000100
00000000
00000000
00001000
00000000
00000000
00000000
00010000
00000000
00001000
00000000
00000000
00000000
,
01000000
00000000
00000000
00100000
00000000
00000000
10000000
00000000
01000000
00000000
00100000
00000000
01000000
00000000
00000000
00000000
,
00010000
10000000
02000000
00000000
03000000
00200000
00000000
00300000
,
00002000
00000000
00003000
00000020
00000000
00000030
00000000
00000000
,
00000100
00000000
00000000
00010000
00000000
00000000
00000100
00000000
00010000
00000000
00000000
00001000
00000000
00000000
00010000
00000000
,
00100000
00000000
00000000
01000000
00000000
00000000
00100000
00000000
10000000
00000000
00100000
00000000
01000000
00000000
00000000
00000000
,
00100000
10000000
01000000
00000000
00100000
00010000
01000000
00001000
,
00010000
00000100
00000020
00000000
00000001
00000030
00000100
00000000
,
00000010
00000001
00000100
00000000
00000010
00001000
00000100
00010000
,
00001000
01000000
00200000
00000000
10000000
00300000
01000000
00000000
,
00100000
10000000
01000000
00000000
00100000
00010000
01000000
00001000
,
00010000
00000100
00000020
00000000
00000001
00000030
00000100
00000000
,
00001000
00000000
00000001
00000000
00000100
00001000
00010000
00000000
,
00100000
10000000
01000000
00100000
00010000
00000000
01000000
00000000
,
00100000
10000000
01000000
00000000
00100000
00010000
01000000
00001000
,
00010000
00000100
00000020
00000000
00000001
00000030
00000100
00000000
,
00000010
00000001
00000100
00000000
00000010
00001000
00000100
00010000
,
00001000
01000000
00200000
00000000
10000000
00300000
01000000
00000000
,
00100000
10000000
01000000
00000000
00100000
00010000
01000000
00001000
,
00010000
00000100
00000020
00000000
00000001
00000030
00000100
00000000
,
00001000
00000000
00000001
00000000
00000100
00001000
00010000
00000000
,
00100000
10000000
01000000
00100000
00010000
00000000
01000000
00000000
,
00000000
00100000
10000000
00000000
01000000
00000000
00100000
00000000
,
00000000
00010000
00001000
00000000
00000001
00000010
00000001
00000000
,
00000000
00000100
00000001
00000100
00000010
00001000
00000100
00000000
,
00001000
00010000
00100000
00010000
01000000
00100000
10000000
00000000
,
00000000
01000000
00100000
00001000
00010000
00000000
00000100
00000000
,
00000000
00000010
00000001
00000000
00000100
00000000
00000010
00000000
,
00000000
00001000
00010000
00100000
00010000
00000000
10000000
00000000
,
00000000
01000000
00010000
00001000
00000100
00000000
00000010
00000000
,
00000000
00000001
00001000
00000000
00000010
00000000
00010000
00000000
,
00000000
00000100
00001000
00000000
00010000
00100000
01000000
00000000
,
00000000
10000000
01000000
00010000
00001000
00000000
00010000
00000000
,
00000000
00001000
00010000
00100000
00010000
00000100
00000010
00000001
,
00000000
00000100
00000010
00000100
00001000
00000000
00010000
00000000
,
00000000
00100000
10000000
00000000
01000000
00000000
00010000
00000000
,
00000000
00001000
00010000
00001000
00000100
00000000
00000010
00000000
,
00001000
00010000
00100000
10000000
00100000
00000000
01000000
00000000
,
01000000
10000000
00100000
00000000
01000000
00010000
00100000
00001000
,
00010000
00000010
00000200
00000000
00000001
00000300
00000010
00000000
,
00000100
00000001
00000010
00000000
00000100
00001000
00000010
00010000
,
00001000
00100000
02000000
00000000
10000000
03000000
00100000
00000000
,
01000000
10000000
00100000
00000000
01000000
00010000
00100000
00001000
,
00010000
00000010
00000200
00000000
00000001
00000300
00000010
00000000
,
00001000
00000000
00000001
00000000
00000010
00001000
00010000
00000000
,
01000000
10000000
00100000
01000000
00010000
00000000
00100000
00000000
,
01000000
10000000
00100000
00000000
01000000
00010000
00100000
00001000
,
00010000
00000010
00000200
00000000
00000001
00000300
00000010
00000000
,
00000100
00000001
00000010
00000000
00000100
00001000
00000010
00010000
,
00001000
00100000
02000000
00000000
10000000
03000000
00100000
00000000
,
01000000
10000000
00100000
00000000
01000000
00010000
00100000
00001000
,
00010000
00000010
00000200
00000000
00000001
00000300
00000010
00000000
,
00001000
00000000
00000001
00000000
00000010
00001000
00010000
00000000
,
01000000
10000000
00100000
01000000
00010000
00000000
00100000
00000000
,
00002000
00000000
00000000
00023000
00000000
00000100
00030100
00000000
,
00000020
00000000
00000000
00000032
00000000
00000100
00000103
00000000
,
00000020
00000000
00000000
00020030
00000000
00001000
00031000
00000000
,
01000000
00100000
01000000
00001000
00010000
00000000
00000000
00000000
,
00020000
00000000
00000000
00032000
00000000
01000000
01003000
00000000
,
00200000
00000000
00000000
20300000
00000000
01000000
31000000
00000000
,
00020000
00000000
00000000
00032000
00000000
00000000
00003000
02000000
,
00000000
03000000
00001000
00010000
,
00011000
00000000
00000000
00000000
,
;
