#TITLE:rainbow flyer;
#SUBTITLE:-DUBSTEP RMX!!-;
#ARTIST:dj TAKA;
#TITLETRANSLIT:;
#SUBTITLETRANSLIT:;
#ARTISTTRANSLIT:;
#GENRE:;
#CREDIT:;
#BANNER:Rainbow Flyer -DUBSTEP RMX!!-.png;
#BACKGROUND:;
#LYRICSPATH:;
#CDTITLE:;
#MUSIC:Rainbow Flyer -DUBSTEP RMX!!-.ogg;
#OFFSET:-0.620000;
#SAMPLESTART:80.060020;
#SAMPLELENGTH:15.000000;
#SELECTABLE:YES;
#BPMS:0.000000=145.000244
;
#STOPS:
;
#BGCHANGES:;
#KEYSOUNDS:;
#ATTACKS:;

//---------------dance-single - ----------------
#NOTES:
     dance-single:
     :
     Hard:
     7:
     0.393167,0.734803,0.311735,0.258294,0.035627,309.000000,274.000000,35.000000,29.000000,0.000000,0.000000,0.393167,0.734803,0.311735,0.258294,0.035627,309.000000,274.000000,35.000000,29.000000,0.000000,0.000000:
0000
0000
0000
0000
,
0000
0000
0000
0000
,
0000
0000
0000
0000
,
0000
0000
0000
0000
,
0020
0032
2003
3020
,
0230
0320
2030
3002
,
2000
0000
0000
0000
,
0000
0000
0000
3003
,
0101
0000
0000
1010
0000
0000
1100
0000
,
0000
2100
3001
0000
,
1001
0000
0000
1100
0000
0000
1010
0000
,
0000
0102
0013
0000
,
1001
0000
0000
0101
0000
0000
1100
0000
,
0000
2100
3001
0000
,
0101
0000
0000
1001
0000
0000
1010
0000
,
0000
0000
0102
0000
0013
0000
0010
0001
,
1000
0000
1000
0001
0000
0001
0100
0000
,
0100
0010
0000
0010
1000
0000
1000
0000
,
1000
0000
1000
0001
0000
0001
0010
0000
,
0010
0100
0000
0100
0010
0000
0010
0000
,
0010
0000
0010
0001
0000
0001
0100
0000
,
0100
0010
0000
0010
0100
0000
0100
0000
,
0100
0000
0100
0001
0000
0001
1000
0000
,
1000
0010
0000
0010
1000
0100
0010
0001
,
1000
0100
0010
0001
,
1000
0100
0010
0001
,
1000
0001
0100
0010
,
1000
0001
0100
0010
,
1000
0100
0010
0001
1000
0100
0010
0001
,
1000
0001
0100
0010
1000
0001
0100
0010
,
1000
0100
1000
0100
1000
0100
1000
0100
0010
0001
0010
0001
0010
0001
0010
0002
,
2000
0000
0000
3003
,
1010
0000
1000
0010
1000
0000
0001
0100
,
0001
0000
0010
0001
0010
0000
0100
1000
,
0100
0000
1000
0010
1000
0000
0001
0100
,
0001
0000
1000
0001
1000
0000
0010
0100
,
0010
0000
0100
0001
0100
0000
0001
0010
,
0001
0000
1000
0100
1000
0000
0010
1000
,
0020
0100
0230
0001
,
0302
1000
2003
0010
,
3010
1000
0010
0000
0100
0001
0100
0000
,
0001
0010
0001
0000
1000
0100
1000
0000
,
0010
1000
0010
0000
0100
0001
0100
0000
,
0001
0010
0001
0000
1000
0100
1000
0000
,
0010
1000
0010
0000
0100
0001
0100
0000
,
0010
1000
0010
0000
0100
0001
0100
0000
,
0002
1000
2003
0010
,
3020
0100
0230
0301
,
0101
0000
0000
1010
0000
0000
1100
0000
,
0000
2100
3001
0000
,
1001
0000
0000
1100
0000
0000
1010
0000
,
0000
0102
0013
0000
,
1001
0000
0000
0101
0000
0000
1100
0000
,
0000
2100
3001
0000
,
0101
0000
0000
1001
0000
0000
1010
0000
,
0000
0000
0102
0000
0013
0000
0010
0001
,
1000
0000
1000
0001
0000
0001
0100
0000
,
0100
0010
0000
0010
1000
0000
1000
0000
,
1000
0000
1000
0001
0000
0001
0010
0000
,
0010
0100
0000
0100
0010
0000
0010
0000
,
0010
0000
0010
0001
0000
0001
0100
0000
,
0100
0010
0000
0010
0100
0000
0100
0000
,
0100
0000
0100
0001
0000
0001
1000
0000
,
1000
0010
0000
0010
0100
0010
0110
0000
,
2002
0000
0000
0000
,
0000
0000
0000
0000
,
3003
0000
0000
0000
;

//---------------dance-single - ----------------
#NOTES:
     dance-single:
     :
     Medium:
     4:
     0.283742,0.382098,0.195947,0.605656,0.000000,223.000000,201.000000,22.000000,68.000000,0.000000,0.000000,0.283742,0.382098,0.195947,0.605656,0.000000,223.000000,201.000000,22.000000,68.000000,0.000000,0.000000:
0000
0000
0000
0000
,
0000
0000
0000
0000
,
0000
0000
0000
0000
,
0000
0000
0000
0000
,
0020
0000
0000
0000
,
0032
0000
0000
0000
,
2000
0000
0000
0000
,
0000
0000
0000
3003
,
0102
0000
0000
1000
0000
0000
1003
0000
,
0000
2100
3001
0000
,
2001
0000
0000
0100
0000
0000
3010
0000
,
0000
0102
0013
0000
,
1002
0000
0000
0100
0000
0000
1003
0000
,
0000
2100
3001
0000
,
2001
0000
0000
0001
0000
0000
3010
0000
,
0000
0102
0013
0000
,
2000
0000
0000
3002
0000
0000
0203
0000
,
0000
0320
0000
0000
1030
0000
1000
0000
,
2000
0000
0000
3002
0000
0000
0023
0000
,
0000
0230
0000
0000
0310
0000
0010
0000
,
0020
0000
0000
0032
0000
0000
0203
0000
,
0000
0320
0000
0000
0130
0000
0100
0000
,
0200
0000
0000
0302
0000
0000
2003
0000
,
0000
3020
0000
0000
1030
0100
1000
0000
,
1000
1000
1000
1000
,
0001
0001
0001
0001
,
1000
1000
1000
1000
,
0001
0001
0001
0001
,
1000
0001
1000
0001
,
0100
0010
0100
0010
,
1000
0001
1000
0000
0010
0100
0010
0000
,
2000
0000
0000
3000
,
1020
0000
1000
0000
1030
0000
0001
0100
,
0001
0000
0010
0001
0010
0000
0100
0000
,
2100
0000
0100
0000
3100
0000
1000
0100
,
1000
0000
0001
1000
0001
0000
0010
0000
,
0012
0000
0100
0000
0103
0000
0001
0010
,
0001
0000
1000
0100
1000
0000
0010
0000
,
0020
0100
0230
0001
,
0302
1000
2003
0010
,
3020
0100
0130
0100
,
0001
0010
0001
0000
1000
0100
1000
0000
,
2010
0010
3100
1000
,
0001
0010
0001
0000
1000
0100
1000
0000
,
2010
0010
3100
0100
,
0010
0001
0010
0000
0001
0100
0001
0000
,
0002
1000
2003
0010
,
3020
0100
0230
0301
,
0102
0000
0000
1000
0000
0000
1003
0000
,
0000
2100
3001
0000
,
2001
0000
0000
0100
0000
0000
3010
0000
,
0000
0102
0013
0000
,
1002
0000
0000
0100
0000
0000
1003
0000
,
0000
2100
3001
0000
,
2001
0000
0000
0001
0000
0000
3010
0000
,
0000
0102
0013
0000
,
2000
0000
0000
3002
0000
0000
0203
0000
,
0000
0320
0000
0000
1030
0000
1000
0000
,
2000
0000
0000
3002
0000
0000
0023
0000
,
0000
0230
0000
0000
0310
0000
0010
0000
,
0020
0000
0000
0032
0000
0000
0203
0000
,
0000
0320
0000
0000
0130
0000
0100
0000
,
0200
0000
0000
0302
0000
0000
2003
0000
,
0000
3020
0000
0000
1030
0100
1000
0000
,
2002
0000
0000
0000
,
0000
0000
0000
0000
,
3003
0000
0000
0000
;

//---------------dance-single - ----------------
#NOTES:
     dance-single:
     :
     Easy:
     2:
     0.173044,0.293921,0.017813,0.089067,0.000000,136.000000,134.000000,2.000000,10.000000,0.000000,0.000000,0.173044,0.293921,0.017813,0.089067,0.000000,136.000000,134.000000,2.000000,10.000000,0.000000,0.000000:
// measure 0
0000
0000
0000
0000
,  // measure 1
0000
0000
0000
0000
,  // measure 2
0000
0000
0000
0000
,  // measure 3
0000
0000
0000
0000
,  // measure 4
1000
0000
0000
0000
,  // measure 5
2000
0000
0000
3000
,  // measure 6
0001
0000
0000
0000
,  // measure 7
0002
0000
0000
0003
,  // measure 8
0100
0000
0100
0000
,  // measure 9
0100
0000
0000
0000
,  // measure 10
0010
0000
0010
0000
,  // measure 11
0010
0000
0000
0000
,  // measure 12
1000
0000
1000
0000
,  // measure 13
1000
0000
0000
0000
,  // measure 14
0001
0000
0001
0000
,  // measure 15
0001
0000
0000
0000
,  // measure 16
1000
1000
0000
0000
,  // measure 17
0010
0010
0000
0000
,  // measure 18
0100
0100
0000
0000
,  // measure 19
0001
0001
0000
0000
,  // measure 20
1000
1000
0000
0000
,  // measure 21
0001
0001
0000
0000
,  // measure 22
0100
0100
0000
0000
,  // measure 23
0010
0010
0000
0000
,  // measure 24
1000
1000
1000
0000
,  // measure 25
0001
0001
0001
0000
,  // measure 26
1000
1000
1000
0000
,  // measure 27
0001
0001
0001
0000
,  // measure 28
1000
1000
1000
1000
,  // measure 29
0001
0001
0001
0001
,  // measure 30
1000
0001
1000
0001
,  // measure 31
2002
0000
0000
3003
,  // measure 32
1000
1000
1000
0000
,  // measure 33
0001
0001
0010
0000
,  // measure 34
1000
1000
0100
0000
,  // measure 35
0001
0001
0001
0000
,  // measure 36
0010
1000
0100
0000
,  // measure 37
0001
0001
1000
0000
,  // measure 38
0010
1000
0100
0000
,  // measure 39
0001
0001
1000
0000
,  // measure 40
0010
1000
0100
0000
,  // measure 41
0001
0001
1000
0000
,  // measure 42
0010
1000
0100
0000
,  // measure 43
0001
0001
1000
0000
,  // measure 44
0010
1000
0100
0000
,  // measure 45
0010
0001
0001
0000
,  // measure 46
0001
1000
1000
0000
,  // measure 47
0010
0001
0100
0000
,  // measure 48
0100
0000
0100
0000
,  // measure 49
0200
0000
0300
0000
,  // measure 50
0010
0000
0010
0000
,  // measure 51
0020
0000
0030
0000
,  // measure 52
1000
0000
1000
0000
,  // measure 53
2000
0000
3000
0000
,  // measure 54
0001
0000
0001
0000
,  // measure 55
0002
0000
0003
0000
,  // measure 56
1000
0000
1000
0000
,  // measure 57
0001
0000
0001
0000
,  // measure 58
0100
0000
0100
0000
,  // measure 59
0010
0000
0010
0000
,  // measure 60
1000
0000
1000
0000
,  // measure 61
0100
0000
0100
0000
,  // measure 62
0010
0000
0010
0000
,  // measure 63
0001
0000
0001
0000
,  // measure 64
2002
0000
0000
0000
,  // measure 65
0000
0000
0000
0000
,  // measure 66
3003
0000
0000
0000
;

//---------------dance-single - ----------------
#NOTES:
     dance-single:
     :
     Beginner:
     1:
     0.101791,0.146961,0.017813,0.160321,0.000000,80.000000,78.000000,2.000000,18.000000,0.000000,0.000000,0.101791,0.146961,0.017813,0.160321,0.000000,80.000000,78.000000,2.000000,18.000000,0.000000,0.000000:
// measure 0
0000
0000
0000
0000
,  // measure 1
0000
0000
0000
0000
,  // measure 2
0000
0000
0000
0000
,  // measure 3
0000
0000
0000
0000
,  // measure 4
2000
0000
0000
0000
,  // measure 5
0000
0000
0000
3000
,  // measure 6
0002
0000
0000
0000
,  // measure 7
0000
0000
0000
0003
,  // measure 8
0200
0000
0000
0300
,  // measure 9
0100
0000
0000
0000
,  // measure 10
0020
0000
0000
0030
,  // measure 11
0010
0000
0000
0000
,  // measure 12
2000
0000
0000
3000
,  // measure 13
1000
0000
0000
0000
,  // measure 14
0002
0000
0000
0003
,  // measure 15
0001
0000
0000
0000
,  // measure 16
1000
0000
0000
0000
,  // measure 17
0010
0000
0000
0000
,  // measure 18
0100
0000
0000
0000
,  // measure 19
0001
0000
0000
0000
,  // measure 20
1000
0000
0000
0000
,  // measure 21
0001
0000
0000
0000
,  // measure 22
0100
0000
0000
0000
,  // measure 23
0010
0000
0000
0000
,  // measure 24
1000
1000
0000
0000
,  // measure 25
0001
0001
0000
0000
,  // measure 26
1000
1000
0000
0000
,  // measure 27
0001
0001
0000
0000
,  // measure 28
1000
0000
0000
0000
,  // measure 29
0001
0000
0000
0000
,  // measure 30
2002
0000
0000
0000
,  // measure 31
0000
0000
3003
0000
,  // measure 32
1000
0000
1000
0000
,  // measure 33
0001
0000
0010
0000
,  // measure 34
1000
0000
0100
0000
,  // measure 35
0001
0000
0001
0000
,  // measure 36
0010
0000
0100
0000
,  // measure 37
0001
0000
1000
0000
,  // measure 38
0010
0000
0100
0000
,  // measure 39
0001
0000
1000
0000
,  // measure 40
0010
0000
0100
0000
,  // measure 41
0001
0000
1000
0000
,  // measure 42
0010
0000
0100
0000
,  // measure 43
0001
0000
1000
0000
,  // measure 44
0010
0000
0100
0000
,  // measure 45
0010
0000
0001
0000
,  // measure 46
0001
0000
1000
0000
,  // measure 47
0010
0000
0100
0000
,  // measure 48
0200
0000
0000
0300
,  // measure 49
0100
0000
0000
0000
,  // measure 50
0020
0000
0000
0030
,  // measure 51
0010
0000
0000
0000
,  // measure 52
2000
0000
0000
3000
,  // measure 53
1000
0000
0000
0000
,  // measure 54
0002
0000
0000
0003
,  // measure 55
0001
0000
0000
0000
,  // measure 56
2000
0000
0000
3000
,  // measure 57
1000
0000
0000
0000
,  // measure 58
0200
0000
0000
0300
,  // measure 59
0100
0000
0000
0000
,  // measure 60
0020
0000
0000
0030
,  // measure 61
0010
0000
0000
0000
,  // measure 62
0002
0000
0000
0003
,  // measure 63
0001
0000
0000
0000
,  // measure 64
2002
0000
0000
0000
,  // measure 65
0000
0000
0000
0000
,  // measure 66
3003
0000
0000
0000
;
