#VERSION:0.83;
#TITLE:Your Own Miracle ~Disco House Mix~;
#SUBTITLE:;
#ARTIST:Makou;
#TITLETRANSLIT:;
#SUBTITLETRANSLIT:;
#ARTISTTRANSLIT:;
#GENRE:;
#ORIGIN:;
#CREDIT:;
#BANNER:Your Own Miracle (Disco House Mix).png;
#BACKGROUND:Your Own Miracle (Disco House Mix)-bg.png;
#PREVIEWVID:;
#JACKET:Your Own Miracle (Disco House Mix)-jacket.png;
#CDIMAGE:;
#DISCIMAGE:;
#LYRICSPATH:;
#CDTITLE:;
#MUSIC:Your Own Miracle (Disco House Mix).ogg;
#OFFSET:-0.074000;
#SAMPLESTART:37.921947;
#SAMPLELENGTH:15.000000;
#SELECTABLE:YES;
#BPMS:0.000=130.000;
#STOPS:;
#DELAYS:;
#WARPS:;
#TIMESIGNATURES:0.000=4=4;
#TICKCOUNTS:0.000=4;
#COMBOS:0.000=1;
#SPEEDS:0.000=1.000=0.000=0;
#SCROLLS:0.000=1.000;
#FAKES:;
#LABELS:0.000=Song Start;
#BGCHANGES:;
#KEYSOUNDS:;
#ATTACKS:
;

//---------------dance-single - XLev450X----------------
#NOTEDATA:;
#CHARTNAME:XLev450X;
#STEPSTYPE:dance-single;
#DESCRIPTION:XLev450X;
#CHARTSTYLE:;
#DIFFICULTY:Beginner;
#METER:1;
#RADARVALUES:0.089756,0.127283,0.054163,0.000000,0.000000,58.000000,53.000000,5.000000,0.000000,0.000000,0.000000,0.000000,0.000000,0.000000,0.089756,0.127283,0.054163,0.000000,0.000000,58.000000,53.000000,5.000000,0.000000,0.000000,0.000000,0.000000,0.000000,0.000000;
#CREDIT:XLev450X;
#NOTES:
0000
0000
0000
0000
,
0000
0000
0000
0000
,
0000
0000
0000
0000
,
0000
0000
0000
0000
,
0000
0000
0000
0000
,
0000
0000
0000
0000
,
0000
0000
0000
0000
,
0000
0000
0000
0000
,
0000
0000
0000
0000
,
0001
0000
0001
0000
,
1000
0000
0000
0000
,
0010
0000
0010
0000
,
0100
0000
0000
0000
,
0001
0000
0010
0000
,
0001
0000
0000
0000
,
0100
0000
1000
0000
,
0100
0000
0000
0000
,
0010
0000
0010
0000
,
0100
0000
0000
0000
,
1000
0000
0100
0000
,
1000
0000
0000
0000
,
0010
0000
0001
0000
,
0010
0000
0000
0000
,
0100
0000
0100
0000
,
0010
0000
0000
0000
,
1000
0000
0001
0000
,
0001
0000
0000
0000
,
1000
0000
1000
0000
,
0001
0000
0000
0000
,
0010
0000
0100
0000
,
0010
0000
0000
0000
,
0100
0000
0001
0000
,
0100
0000
0000
0000
,
1000
0000
0010
0000
,
1000
0000
0000
0000
,
0001
0000
1000
0000
,
0001
0000
0000
0000
,
1001
0000
0000
0000
,
0010
0000
0000
0000
,
1001
0000
0000
0000
,
0100
0000
0000
0000
,
1010
0000
0000
0000
,
0010
0000
0000
0000
,
0101
0000
0000
0000
,
0100
0000
0000
0000
,
0001
0000
0000
0000
,
0001
0000
0000
0000
,
1001
0000
0000
0000
;

//---------------dance-single - XLev450X----------------
#NOTEDATA:;
#CHARTNAME:XLev450X;
#STEPSTYPE:dance-single;
#DESCRIPTION:XLev450X;
#CHARTSTYLE:;
#DIFFICULTY:Easy;
#METER:3;
#RADARVALUES:0.185702,0.233984,0.032498,0.064996,0.000000,120.000000,117.000000,3.000000,6.000000,0.000000,0.000000,0.000000,0.000000,0.000000,0.185702,0.233984,0.032498,0.064996,0.000000,120.000000,117.000000,3.000000,6.000000,0.000000,0.000000,0.000000,0.000000,0.000000;
#CREDIT:XLev450X;
#NOTES:
0000
0000
0000
0000
,
0000
0000
0000
0000
,
0000
0000
0000
0000
,
0000
0000
0000
0000
,
0000
0000
0000
0000
,
0000
0000
0000
0000
,
0000
0000
0000
0000
,
0000
0000
0000
0000
,
0000
0000
0000
0000
,
1000
0001
1000
0000
,
0010
1000
0010
0000
,
0100
0001
0100
0000
,
0001
1000
0001
0000
,
0010
0010
0100
0000
,
1000
1000
0100
0000
,
0010
0010
0001
0000
,
0100
0100
0010
0000
,
0001
0001
1000
0001
,
0010
1000
0010
0000
,
0100
0010
0100
0001
,
1000
0001
1000
0000
,
0010
0010
1000
0100
,
0001
0010
0100
0000
,
0010
0000
0001
0010
,
0001
0000
1000
0000
,
0001
0000
1000
0100
,
0010
0000
0001
0100
,
0001
0000
1000
0001
,
2002
0000
0000
3003
,
0001
0001
1000
0000
,
0010
0010
1000
0000
,
0100
0100
0010
0000
,
0001
0010
0001
0000
,
1000
1000
0001
0000
,
0010
0010
0100
0010
,
0001
1000
0001
0000
,
1000
0000
0100
0000
0010
0000
1000
0001
,
1000
0001
1000
0000
,
0010
0010
1000
0000
,
0100
0001
0100
0000
,
0010
0010
0100
0000
,
0001
0010
0001
0000
,
0100
1000
0100
0000
,
0001
0000
1000
0000
,
0001
1000
0001
0000
,
0010
0000
0100
0000
,
0010
0100
0010
0000
,
2002
3003
2002
0000
,
3003
0000
0000
0000
;

//---------------dance-single - XLev450X----------------
#NOTEDATA:;
#CHARTNAME:XLev450X;
#STEPSTYPE:dance-single;
#DESCRIPTION:XLev450X;
#CHARTSTYLE:;
#DIFFICULTY:Medium;
#METER:5;
#RADARVALUES:0.267720,0.337977,0.032498,0.043330,0.000000,173.000000,170.000000,3.000000,4.000000,0.000000,0.000000,0.000000,0.000000,0.000000,0.267720,0.337977,0.032498,0.043330,0.000000,173.000000,170.000000,3.000000,4.000000,0.000000,0.000000,0.000000,0.000000,0.000000;
#CREDIT:XLev450X;
#NOTES:
0000
0000
0000
0000
,
0000
0000
0000
0000
,
0000
0000
0000
0000
,
0000
0000
0000
0000
,
0000
0000
0000
0000
,
0000
0000
0000
0000
,
0000
0000
0000
0000
,
0000
0000
0000
0000
,
0000
0000
0000
0000
,
0001
1000
0010
0100
,
0001
1000
0001
0000
,
0010
1000
0010
0100
,
0001
1000
0001
0000
,
0010
1000
0010
0100
,
0001
1000
0001
0000
,
0001
1000
0001
0010
,
0100
0000
1000
0000
0001
0000
1000
0001
,
1000
0010
0100
0001
,
0010
0001
0010
0000
0010
0100
0010
0000
,
1000
0100
0001
0010
,
0100
0000
1000
0000
0001
1000
0001
0000
,
0001
0000
1000
0000
0010
1000
0010
0000
,
0100
0000
0001
0000
0010
0100
0010
0000
,
0001
0010
0001
0000
0100
1000
0100
0000
,
2001
0000
0001
3001
,
0010
0100
0001
1000
,
0010
0100
1000
0000
,
0001
1000
0100
0001
,
0010
0100
0010
0000
0010
0000
1000
0000
,
0001
0001
1000
0000
0010
0000
0100
0000
,
1000
0000
0010
0000
0100
0000
0100
0100
,
0001
1000
0001
0000
0001
0000
1000
0000
,
0010
1000
0010
0000
0001
0000
0100
0000
,
0010
0010
0100
0000
0001
0000
1000
0000
,
0010
0000
1000
0000
0001
0010
0001
0000
,
0100
0000
1000
0000
0010
1000
0010
0000
,
0100
0001
1000
0001
,
0001
0001
1000
0000
0010
0000
0100
0000
,
1000
1000
0001
0000
0100
0100
0010
0000
,
0001
0010
0100
0000
,
0001
0001
0100
0000
1000
1000
0100
0000
,
0010
0100
0001
0000
,
0010
0010
0001
0000
0100
0100
1000
0000
,
0001
1000
0001
0100
,
0010
0000
1000
0000
0001
1000
0001
0000
,
0001
1000
0001
0000
,
0010
1000
0010
0000
,
2001
3001
2002
0000
,
3003
0000
0000
0000
;

//---------------dance-single - XLev450X----------------
#NOTEDATA:;
#CHARTNAME:XLev450X;
#STEPSTYPE:dance-single;
#DESCRIPTION:XLev450X;
#CHARTSTYLE:;
#DIFFICULTY:Hard;
#METER:7;
#RADARVALUES:0.394616,0.467968,0.032498,0.021665,0.021665,255.000000,252.000000,3.000000,2.000000,0.000000,0.000000,0.000000,0.000000,0.000000,0.394616,0.467968,0.032498,0.021665,0.021665,255.000000,252.000000,3.000000,2.000000,0.000000,0.000000,0.000000,0.000000,0.000000;
#CREDIT:XLev450X;
#NOTES:
// measure 0
0000
0000
0000
0000
,  // measure 1
0000
0000
0000
0000
,  // measure 2
0000
0000
0000
0000
,  // measure 3
0000
0000
0000
0000
,  // measure 4
0000
0000
0000
0000
,  // measure 5
0000
0000
0000
0000
,  // measure 6
0000
0000
0000
0000
,  // measure 7
0000
0000
0000
0000
,  // measure 8
0000
0000
0000
0000
,  // measure 9
0001
0000
1000
0000
0010
0100
0010
0000
,  // measure 10
0001
0000
1000
0000
0010
1000
0010
0000
,  // measure 11
0001
0000
0100
0000
0001
1000
0001
0000
,  // measure 12
0010
0001
0010
0000
0010
1000
0010
0000
,  // measure 13
0100
0000
0001
0000
1000
0001
1000
0000
,  // measure 14
0010
0000
0100
0000
0001
0001
0100
0000
,  // measure 15
1000
0000
0010
0000
0100
0010
0100
0000
,  // measure 16
0001
0000
0000
0000
1000
0000
0000
0000
0001
0000
1000
0000
0010
0000
0010
0100
,  // measure 17
0010
0001
1000
0010
0100
0001
0010
1000
,  // measure 18
0100
0001
0010
0100
0010
0000
1001
0000
,  // measure 19
0010
1000
0100
0010
0001
0010
0100
1000
,  // measure 20
0001
1000
0010
0100
0010
0001
0010
0000
,  // measure 21
0001
1000
0100
0000
0001
1000
0010
0000
,  // measure 22
0100
0010
0100
1000
0001
0010
0001
0001
,  // measure 23
0100
1000
0001
1000
0100
0010
0001
0000
,  // measure 24
0010
0100
1000
0000
0100
0001
0010
0000
,  // measure 25
0001
1000
0001
1000
0100
0001
1000
0000
,  // measure 26
0001
1000
0010
0000
0100
1000
0001
0000
,  // measure 27
0010
1000
0010
0100
0001
1000
0001
0000
,  // measure 28
0010
1000
0100
0010
0001
1000
1000
1000
,  // measure 29
0100
0010
0001
0000
0010
0100
0010
0000
,  // measure 30
1000
0010
0100
0001
0010
0100
1000
0000
,  // measure 31
0001
0001
1000
0100
0001
0010
0100
0000
,  // measure 32
0010
0001
0010
0000
0100
1000
0100
0000
,  // measure 33
0001
1000
0010
0100
0010
0001
0100
0000
,  // measure 34
0010
1000
0010
0000
0100
0001
1000
0001
,  // measure 35
0100
1000
1000
0010
1000
0100
0001
0010
,  // measure 36
0100
1000
0001
1000
0001
1000
0010
0000
,  // measure 37
0001
1000
0100
0001
0010
0100
0010
0000
,  // measure 38
0010
0100
0010
0000
0001
0010
0001
0000
,  // measure 39
1000
1000
0100
0001
0010
0100
1000
0000
,  // measure 40
0010
1000
0100
0010
0001
0010
0100
0000
,  // measure 41
0001
1000
0001
0000
0010
1000
0010
0000
,  // measure 42
0001
0010
0100
1000
0001
1000
0010
1000
,  // measure 43
0010
0001
0100
1000
0001
0100
1000
0000
,  // measure 44
0010
0100
1000
0001
0010
0100
1000
0001
,  // measure 45
1000
0001
0100
0010
,  // measure 46
1000
0000
0000
0001
0000
0000
0100
0000
0010
0000
0000
0000
1000
0001
0000
0000
,  // measure 47
0110
0000
0000
0000
0100
0010
0000
0000
2002
0000
0000
0000
0000
0000
0000
0000
,  // measure 48
3003
0000
0000
0000
;
