#TITLE:You Get What You Give;
#SUBTITLE:(Mark Picchiotti Remix);
#ARTIST:LMC;
#TITLETRANSLIT:;
#SUBTITLETRANSLIT:;
#ARTISTTRANSLIT:;
#GENRE:;
#CREDIT:;
#BANNER:You Get What You Give (Mark Picchiotti Remix).png;
#BACKGROUND:;
#LYRICSPATH:;
#CDTITLE:;
#MUSIC:You Get What You Give (Mark Picchiotti Remix).ogg;
#OFFSET:-0.040000;
#SAMPLESTART:46.099979;
#SAMPLELENGTH:15.000000;
#SELECTABLE:YES;
#BPMS:0.000000=125.000198
;
#STOPS:
;
#BGCHANGES:;
#KEYSOUNDS:;
#ATTACKS:;

//---------------dance-single - ----------------
#NOTES:
     dance-single:
     :
     Hard:
     7:
     0.453904,0.452904,0.153450,0.126371,0.000000,352.000000,335.000000,17.000000,14.000000,0.000000,0.000000,0.453904,0.452904,0.153450,0.126371,0.000000,352.000000,335.000000,17.000000,14.000000,0.000000,0.000000:
0000
0000
0000
0000
,
0000
0000
0000
0000
,
0000
0000
0000
0000
,
0000
0000
0000
0000
,
1010
0100
0001
0100
,
0101
0001
0010
0001
,
0011
0100
1000
0100
,
1100
0010
1000
0010
,
1000
0001
1000
0001
1000
0001
1000
0001
,
0100
0010
0100
0010
0100
0010
0100
0010
,
1000
0010
1000
0010
1000
0010
1000
0010
,
0100
0001
0100
0001
0100
0001
0100
0001
,
1000
0100
1000
0100
1000
0100
1000
0100
,
0010
0001
0010
0001
0010
0001
0010
0001
,
1000
0001
1000
0001
1000
0001
1000
0001
,
0100
0010
0100
0010
0100
0010
0100
0010
,
1002
0000
0100
0000
1000
1000
1003
0000
,
2001
0000
0100
0000
0001
0001
3001
0000
,
1002
0000
0010
0000
1000
1000
1003
0000
,
2001
0000
0010
0000
0001
0001
3001
0000
,
0102
0000
0010
0000
1000
1000
1003
0000
,
2100
0000
0010
0000
0001
0001
3001
0000
,
0012
0000
0100
0000
1000
1000
1003
0000
,
2010
0000
0100
0000
0001
0001
3001
0000
,
1000
0010
0100
0010
1000
0010
0100
0010
,
1000
0100
0010
0100
1000
0100
0010
0000
,
0001
0100
0010
0100
0001
0100
0010
0100
,
0001
0010
0100
0010
0001
0010
0100
0000
,
1000
0001
1000
0001
0100
0010
0100
0010
,
1000
0100
0010
0001
1000
0100
0010
0001
,
0100
0010
0100
0010
1000
0001
1000
0001
,
1000
0010
0100
0001
1000
0010
0100
0001
,
1000
1000
0100
0010
0001
0001
0010
0100
,
1000
1000
0010
0100
0001
0001
0100
0010
,
0100
0100
0010
1000
0010
0010
0100
0001
,
0010
0010
0100
1000
0100
0100
0010
0001
,
1000
0001
1000
0010
1000
0001
1000
0010
,
0100
0001
0100
0010
0100
0001
0100
0010
,
1000
0100
0010
0001
1000
0100
0010
0001
,
2002
0000
0000
3003
,
1000
1000
1000
0000
0001
0001
0001
0000
,
1000
1000
1000
0000
0001
0001
0001
0000
,
0100
0100
0100
0000
0010
0010
0010
0000
,
0100
0100
0100
0000
0010
0010
0010
0000
,
1000
1000
1000
0000
0100
0100
0100
0000
,
0010
0010
0010
0000
0001
0001
0001
0000
,
1000
1000
1000
0000
0010
0010
0010
0000
,
0100
0100
0100
0000
0001
0001
0001
0000
,
1000
1000
0001
0100
0001
0001
1000
0100
,
1000
1000
0001
0010
0001
0001
1000
0010
,
1000
1000
0100
0010
0001
0001
0010
0100
,
1000
1000
0001
0100
0001
0001
1000
0100
,
1002
0100
0010
0013
,
2001
0100
0010
3010
,
1002
0010
0100
0103
,
2001
0010
0100
3100
;

//---------------dance-single - ----------------
#NOTES:
     dance-single:
     :
     Medium:
     5:
     0.375244,0.402582,0.216636,0.126371,0.000000,291.000000,267.000000,24.000000,14.000000,0.000000,0.000000,0.375244,0.402582,0.216636,0.126371,0.000000,291.000000,267.000000,24.000000,14.000000,0.000000,0.000000:
0000
0000
0000
0000
,
0000
0000
0000
0000
,
0000
0000
0000
0000
,
0000
0000
0000
0000
,
1001
0100
0001
0100
,
1001
0001
0010
0001
,
1001
0100
1000
0100
,
1001
0010
1000
0010
,
1000
0001
1000
0001
1000
0001
1000
0000
,
0010
0100
0010
0100
0010
0100
0010
0000
,
1000
0010
1000
0010
1000
0010
1000
0000
,
0001
0100
0001
0100
0001
0100
0001
0000
,
1000
0100
1000
0100
1000
0100
1000
0000
,
0001
0010
0001
0010
0001
0010
0001
0000
,
1000
0001
1000
0001
1000
0001
1000
0000
,
0010
0100
0010
0100
0010
0100
0010
0000
,
1002
0100
1000
1003
,
2001
0100
0001
3001
,
1002
0010
1000
1003
,
2001
0010
0001
3001
,
0102
0010
1000
1003
,
2100
0010
0001
3001
,
0012
0100
1000
1003
,
2010
0100
0001
3001
,
1000
0010
0100
0000
1000
0010
0100
0000
,
0001
0100
0010
0000
0001
0100
0010
0000
,
1000
0100
0010
0000
1000
0100
0010
0000
,
0001
0010
0100
0000
0001
0010
0100
0000
,
1000
0001
1000
0000
0010
0100
0010
0000
,
1000
0100
0010
0000
1000
0100
0010
0000
,
0010
0100
0010
0000
1000
0001
1000
0000
,
0001
0010
0100
0000
0001
0010
0100
0000
,
1000
1000
1000
0000
0001
0001
0001
0000
,
1000
1000
1000
0000
0001
0001
0001
0000
,
0100
0100
0100
0000
0010
0010
0010
0000
,
0100
0100
0100
0000
0010
0010
0010
0000
,
1000
0001
1000
0000
0001
1000
0001
0000
,
0100
0010
0100
0000
0010
0100
0010
0000
,
1000
0100
0010
0000
0001
0010
0100
0000
,
2002
0000
0000
3003
,
1000
1000
0001
0001
,
1000
1000
0001
0001
,
0100
0100
0010
0010
,
0100
0100
0010
0010
,
1000
1100
0100
0110
,
0010
0011
0001
1001
,
1000
1010
0010
0110
,
0100
0101
0001
1001
,
1000
0000
0001
0100
0001
0000
1000
0100
,
1000
0000
0001
0010
0001
0000
1000
0010
,
1000
0000
0100
0010
0001
0000
0010
0100
,
1000
0000
1000
0100
0010
0000
0001
0100
,
0002
0100
0010
0013
,
2001
0100
0010
3010
,
1002
0010
0100
0103
,
2001
0010
0100
3100
;

//---------------dance-single - ----------------
#NOTES:
     dance-single:
     :
     Easy:
     3:
     0.250163,0.251613,0.117344,0.126371,0.000000,194.000000,181.000000,13.000000,14.000000,0.000000,0.000000,0.250163,0.251613,0.117344,0.126371,0.000000,194.000000,181.000000,13.000000,14.000000,0.000000,0.000000:
0000
0000
0000
0000
,
0000
0000
0000
0000
,
0000
0000
0000
0000
,
0000
0000
0000
0000
,
1001
0000
0001
0000
,
1001
0000
0010
0000
,
1001
0000
1000
0000
,
1001
0000
0100
0000
,
1000
1000
1000
0000
,
0010
0010
0010
0000
,
1000
1000
1000
0000
,
0001
0001
0001
0000
,
1000
1000
1000
0000
,
0001
0001
0001
0000
,
1000
1000
1000
0000
,
0010
0010
0010
0000
,
1002
0100
1000
0003
,
2001
0100
0001
3000
,
1002
0010
1000
0003
,
2001
0010
0001
3000
,
0102
0010
1000
0003
,
2100
0010
0001
3000
,
0012
0100
1000
0003
,
2010
0100
0001
3000
,
1000
0100
1000
0100
,
0001
0010
0001
0010
,
1000
0010
1000
0010
,
0001
0100
0001
0100
,
1000
1000
0010
0010
,
1000
0010
1000
0010
,
0001
0001
0100
0100
,
0001
0100
0001
0100
,
1000
1000
0001
0001
,
1000
1000
0001
0001
,
0100
0100
0010
0010
,
0100
0100
0010
0010
,
1000
1000
0001
0001
,
0100
0100
0010
0010
,
1000
0010
0001
0100
,
2002
0000
0000
3003
,
1000
1000
0001
0001
,
1000
1000
0001
0001
,
0100
0100
0010
0010
,
0100
0100
0010
0010
,
1000
1000
0100
0100
,
0010
0010
0001
0001
,
1000
1000
0010
0010
,
0100
0100
0001
0001
,
1000
0001
0001
1000
,
1000
0001
0001
1000
,
1000
0100
0001
0010
,
1000
0100
0001
0010
,
2000
0001
0001
3001
,
0002
0100
0100
0103
,
0200
0010
0010
0310
,
0020
1000
1000
1030
;

//---------------dance-single - ----------------
#NOTES:
     dance-single:
     :
     Beginner:
     1:
     0.139266,0.175340,0.000000,0.009026,0.000000,108.000000,108.000000,0.000000,1.000000,0.000000,0.000000,0.139266,0.175340,0.000000,0.009026,0.000000,108.000000,108.000000,0.000000,1.000000,0.000000,0.000000:
// measure 0
0000
0000
0000
0000
,  // measure 1
0000
0000
0000
0000
,  // measure 2
0000
0000
0000
0000
,  // measure 3
0000
0000
0000
0000
,  // measure 4
0001
0000
0001
0000
,  // measure 5
1000
0000
0010
0000
,  // measure 6
1000
0000
1000
0000
,  // measure 7
0001
0000
0100
0000
,  // measure 8
1000
1000
0000
0000
,  // measure 9
0010
0010
0000
0000
,  // measure 10
1000
1000
0000
0000
,  // measure 11
0001
0001
0000
0000
,  // measure 12
1000
1000
0000
0000
,  // measure 13
0001
0001
0000
0000
,  // measure 14
1000
1000
0000
0000
,  // measure 15
0010
0010
0000
0000
,  // measure 16
1000
0000
1000
0000
,  // measure 17
0001
0000
0001
0000
,  // measure 18
1000
0000
1000
0000
,  // measure 19
0001
0000
0001
0000
,  // measure 20
0100
0000
1000
0000
,  // measure 21
0100
0000
0001
0000
,  // measure 22
0010
0000
1000
0000
,  // measure 23
0010
0000
0001
0000
,  // measure 24
1000
0000
1000
0000
,  // measure 25
0001
0000
0001
0000
,  // measure 26
1000
0000
1000
0000
,  // measure 27
0001
0000
0001
0000
,  // measure 28
1000
0000
0010
0000
,  // measure 29
1000
0000
1000
0000
,  // measure 30
0001
0000
0100
0000
,  // measure 31
0001
0000
0001
0000
,  // measure 32
1000
1000
0000
0000
,  // measure 33
1000
1000
0000
0000
,  // measure 34
0100
0100
0000
0000
,  // measure 35
0100
0100
0000
0000
,  // measure 36
0010
0010
0000
0000
,  // measure 37
0010
0010
0000
0000
,  // measure 38
0001
0001
0000
0000
,  // measure 39
0002
0000
0000
0003
,  // measure 40
1000
1000
0000
0000
,  // measure 41
0001
0001
0000
0001
,  // measure 42
0100
0100
0000
0000
,  // measure 43
0010
0010
0000
0000
,  // measure 44
1000
1000
0000
0000
,  // measure 45
0010
0010
0000
0000
,  // measure 46
0100
0100
0000
0000
,  // measure 47
0001
0001
0000
0000
,  // measure 48
1000
0000
0001
0000
,  // measure 49
1000
0000
0001
0000
,  // measure 50
1000
0000
0001
0000
,  // measure 51
1000
0000
0001
0000
,  // measure 52
0001
0001
0001
0000
,  // measure 53
0100
0100
0100
0000
,  // measure 54
0010
0010
0010
0000
,  // measure 55
1000
1000
1000
0000
;
