#TITLE:Watchin';
#SUBTITLE:;
#ARTIST:Freemasons feat. Amanda Wilson;
#TITLETRANSLIT:;
#SUBTITLETRANSLIT:;
#ARTISTTRANSLIT:;
#GENRE:;
#CREDIT:;
#BANNER:Watchin'.png;
#BACKGROUND:;
#LYRICSPATH:;
#CDTITLE:;
#MUSIC:Watchin'.ogg;
#OFFSET:-0.020000;
#SAMPLESTART:22.520018;
#SAMPLELENGTH:15.000004;
#SELECTABLE:YES;
#BPMS:0.000000=128.000183
;
#STOPS:
;
#BGCHANGES:;
#KEYSOUNDS:;
#ATTACKS:;

//---------------dance-single - ----------------
#NOTES:
     dance-single:
     :
     Hard:
     8:
     0.535650,0.497832,0.135526,0.018070,0.144561,415.000000,400.000000,15.000000,2.000000,0.000000,0.000000,0.535650,0.497832,0.135526,0.018070,0.144561,415.000000,400.000000,15.000000,2.000000,0.000000,0.000000:
0000
0000
0000
0000
,
0000
0000
0000
0000
,
0000
0000
0000
0000
,
0000
1000
0100
0010
0001
0010
0100
1000
,
1001
0000
0000
0001
0100
0000
0000
0100
0001
0000
0100
0000
0001
0000
0100
0000
,
0010
0000
0000
0010
1000
0000
0000
1000
0010
0000
1000
0000
0010
0000
1000
0000
,
0001
0000
0000
0001
1000
0000
0000
1000
0001
0000
1000
0000
0001
0000
1000
0000
,
0100
0000
0000
0100
0010
0000
0000
0010
0100
0000
0010
0000
0100
0000
0010
0000
,
0001
0000
0000
0001
0100
0000
0000
0100
0001
0000
0100
0000
0001
0000
0100
0000
,
0010
0000
0000
0010
1000
0000
0000
1000
0010
0000
1000
0000
0010
0000
1000
0000
,
0010
0000
0000
0010
0100
0000
0000
0100
0010
0000
0100
0000
0010
0000
0100
0000
,
0001
0000
0000
0001
1000
0000
0000
1000
0001
0000
1000
0000
0001
0000
1000
0000
,
1001
0001
0100
0001
1000
0010
1000
0010
,
1000
0100
1000
0100
0010
0001
0010
0001
,
1001
0001
1000
0001
0100
0010
0100
0010
,
1000
0100
1000
0100
0010
0001
0010
0001
,
1001
0100
1000
0100
0010
0100
0010
0100
,
0001
0100
0001
0100
0010
0100
0010
0100
,
1001
0010
1000
0010
0100
0010
0100
0010
,
0001
0010
0001
0010
0100
0010
0100
0010
,
1001
0000
0000
1000
0000
0000
1000
0000
0001
0000
0000
0001
0000
0000
0001
0000
,
0100
0000
0000
0100
0000
0000
0100
0000
0010
0000
0000
0010
0000
0000
0010
0000
,
1000
0000
0000
1000
0000
0000
1000
0000
0100
0000
0000
0100
0000
0000
0100
0000
,
0010
0000
0000
0010
0000
0000
0010
0000
0001
0000
0000
0001
0000
0000
0001
0000
,
1000
0000
0000
1000
0000
0000
1000
0000
0001
0000
0000
0001
0000
0000
0001
0000
,
0100
0000
0000
0100
0000
0000
0100
0000
0010
0000
0000
0010
0000
0000
0010
0000
,
1000
0000
0000
1000
0000
0000
1000
0000
0010
0000
0000
0010
0000
0000
0010
0000
,
0100
0000
0000
0100
0000
0000
0100
0000
0001
0000
0000
0001
0000
0000
0001
0000
,
1000
0100
0010
0100
1000
0100
0010
0000
,
0001
0010
0100
0010
0001
0010
0100
0000
,
1000
0010
0100
0010
1000
0010
0100
0000
,
0001
0100
0010
0100
0001
0100
0010
0000
,
1000
0100
0010
0100
1000
0100
0010
0000
,
0001
0010
0100
0010
0001
0010
0100
0000
,
1000
0010
0100
0010
1000
0010
0100
0000
,
0001
0100
0010
0100
0001
0100
0010
0000
,
1000
0001
1000
0001
0100
0010
0100
0010
,
1000
0100
0001
0100
1000
0100
0001
0100
,
1000
0001
1000
0001
0100
0010
0100
0010
,
1000
0100
0001
0100
1000
0100
0001
0100
,
1001
0001
0100
0001
1000
0010
1000
0010
,
1000
0100
1000
0100
0010
0001
0010
0001
,
1001
0001
1000
0001
0100
0010
0100
0010
,
1000
0100
1000
0100
0010
0001
0010
0001
,
1001
0100
1000
0100
0010
0100
0010
0100
,
0001
0100
0001
0100
0010
0100
0010
0100
,
1001
0010
1000
0010
0100
0010
0100
0010
,
0001
0010
0001
0010
0100
0010
0100
0010
,
1001
0001
0100
0001
1000
0010
1000
0010
,
1000
0100
1000
0100
0010
0001
0010
0001
,
1001
0001
1000
0001
0100
0010
0100
0010
,
1000
0100
1000
0100
0010
0001
0010
0001
,
1001
0100
1000
0100
0010
0100
0010
0100
,
0001
0100
0001
0100
0010
0100
0010
0100
,
1001
0010
1000
0010
0100
0010
0100
0010
,
0001
0010
0001
0010
0100
0010
0100
0010
,
2002
0000
0000
0000
,
0000
0000
0000
0000
,
3003
0000
0000
0000
;

//---------------dance-single - ----------------
#NOTES:
     dance-single:
     :
     Medium:
     6:
     0.403996,0.419227,0.225876,0.054210,0.054210,313.000000,288.000000,25.000000,6.000000,0.000000,0.000000,0.403996,0.419227,0.225876,0.054210,0.054210,313.000000,288.000000,25.000000,6.000000,0.000000,0.000000:
0000
0000
0000
0000
,
0000
0000
0000
0000
,
0000
0000
0000
0000
,
0000
0000
0000
0000
,
0001
0000
0100
0000
0001
0100
0001
0100
,
0010
0000
1000
0000
0010
1000
0010
1000
,
0001
0000
1000
0000
0001
1000
0001
1000
,
0100
0000
0010
0000
0100
0010
0100
0010
,
0001
0000
0100
0000
0001
0100
0001
0100
,
0010
0000
1000
0000
0010
1000
0010
1000
,
0010
0000
0100
0000
0010
0100
0010
0100
,
0001
0000
1000
0000
0001
1000
0001
0000
,
1001
0000
0100
0001
1000
0010
1000
0000
,
1001
0000
1000
0100
0010
0001
0010
0000
,
1001
0000
1000
0001
0100
0010
0100
0000
,
1001
0000
1000
0100
0010
0001
0010
0000
,
1001
0000
1000
0100
0010
0100
0010
0000
,
1001
0000
0001
0100
0010
0100
0010
0000
,
1001
0000
1000
0010
0100
0010
0100
0000
,
1001
0000
0001
0010
0100
0010
0100
0000
,
1000
0000
0000
1000
0000
0000
1000
0000
0001
0000
0000
0001
0000
0000
0001
0000
,
0100
0000
0000
0100
0000
0000
0100
0000
0020
0000
0000
0000
0000
0000
0000
0000
,
1030
0000
0000
1000
0000
0000
1000
0000
0100
0000
0000
0100
0000
0000
0100
0000
,
0010
0000
0000
0010
0000
0000
0010
0000
0002
0000
0000
0000
0000
0000
0000
0000
,
1003
0000
0000
1000
0000
0000
1000
0000
0001
0000
0000
0001
0000
0000
0001
0000
,
0100
0000
0000
0100
0000
0000
0100
0000
0020
0000
0000
0000
0000
0000
0000
0000
,
1030
0000
0000
1000
0000
0000
1000
0000
0010
0000
0000
0010
0000
0000
0010
0000
,
0100
0000
0000
0100
0000
0000
0100
0000
0002
0000
0000
0000
0000
0000
0000
0000
,
1003
0010
1000
0010
,
0001
0100
0001
0100
,
1000
0100
1000
0100
,
0001
0010
0001
0010
,
1000
0010
1000
0010
,
0001
0100
0001
0100
,
1000
0100
1000
0100
,
0001
0010
0001
0010
,
1000
0001
1000
0000
0010
0100
0010
0000
,
1000
0100
1000
0000
0001
0100
0001
0000
,
1000
0001
1000
0000
0010
0100
0010
0000
,
1000
0100
1000
0000
0001
0100
0001
0000
,
1001
0000
0100
0001
1000
0010
1000
0000
,
1001
0000
1000
0100
0010
0001
0010
0000
,
1001
0000
1000
0001
0100
0010
0100
0000
,
1001
0000
1000
0100
0010
0001
0010
0000
,
1001
0000
1000
0100
0010
0100
0010
0000
,
1001
0000
0001
0100
0010
0100
0010
0000
,
1001
0000
1000
0010
0100
0010
0100
0000
,
1001
0000
0001
0010
0100
0010
0100
0000
,
1001
0000
0100
0001
1000
0010
1000
0000
,
1001
0000
1000
0100
0010
0001
0010
0000
,
1001
0000
1000
0001
0100
0010
0100
0000
,
1001
0000
1000
0100
0010
0001
0010
0000
,
1001
0000
1000
0100
0010
0100
0010
0000
,
1001
0000
0001
0100
0010
0100
0010
0000
,
1001
0000
1000
0010
0100
0010
0100
0000
,
1001
0000
0001
0010
0100
0010
0100
0000
,
2002
0000
0000
0000
,
0000
0000
0000
0000
,
3003
0000
0000
0000
;

//---------------dance-single - ----------------
#NOTES:
     dance-single:
     :
     Easy:
     4:
     0.260726,0.314420,0.153596,0.162631,0.000000,202.000000,185.000000,17.000000,18.000000,0.000000,0.000000,0.260726,0.314420,0.153596,0.162631,0.000000,202.000000,185.000000,17.000000,18.000000,0.000000,0.000000:
0000
0000
0000
0000
,
0000
0000
0000
0000
,
0000
0000
0000
0000
,
0000
0000
0000
0000
,
0001
0100
0001
0001
,
0010
1000
0010
0010
,
0001
1000
0001
0001
,
0100
0010
0100
0100
,
0001
0100
0001
0001
,
0010
1000
0010
0010
,
0010
0100
0010
0010
,
0001
1000
0001
0001
,
1001
0100
1000
1000
,
1000
1000
0010
0010
,
1001
1000
0100
0100
,
1000
1000
0010
0010
,
1001
1000
0010
0010
,
0001
0001
0010
0010
,
1001
1000
0100
0100
,
0001
0001
0100
0100
,
2000
0000
3002
0000
,
0203
0000
0320
0000
,
2030
0000
3200
0000
,
0320
0000
0032
0000
,
2003
0000
3002
0000
,
0203
0000
0320
0000
,
2030
0000
3020
0000
,
0230
0000
0302
0000
,
1003
0010
1000
0000
,
0001
0100
0001
0000
,
1000
0100
1000
0000
,
0001
0010
0001
0000
,
1000
0010
1000
0000
,
0001
0100
0001
0000
,
1000
0100
1000
0000
,
0001
0010
0001
0000
,
1000
1000
0010
0010
,
1000
1000
0001
0001
,
0100
0100
0010
0010
,
1000
1000
0001
0001
,
1001
0100
1000
1000
,
0001
1000
0010
0010
,
1001
1000
0100
0100
,
0001
1000
0010
0010
,
1001
1000
0010
0010
,
0001
0001
0010
0010
,
1001
1000
0100
0100
,
0001
0001
0100
0100
,
1001
0100
1000
1000
,
1001
1000
0010
0010
,
1001
1000
0100
0100
,
1001
1000
0010
0010
,
1001
1000
0010
0010
,
1001
0001
0010
0010
,
1001
1000
0100
0100
,
1001
0001
0100
0100
,
2002
0000
0000
0000
,
0000
0000
0000
0000
,
3003
0000
0000
0000
;

//---------------dance-single - ----------------
#NOTES:
     dance-single:
     :
     Beginner:
     3:
     0.157468,0.209613,0.081316,0.009035,0.000000,122.000000,113.000000,9.000000,1.000000,0.000000,0.000000,0.157468,0.209613,0.081316,0.009035,0.000000,122.000000,113.000000,9.000000,1.000000,0.000000,0.000000:
// measure 0
0000
0000
0000
0000
,  // measure 1
0000
0000
0000
0000
,  // measure 2
0000
0000
0000
0000
,  // measure 3
0000
0000
0000
0000
,  // measure 4
0001
0000
0001
0000
,  // measure 5
0010
0000
0010
0000
,  // measure 6
0001
0000
0001
0000
,  // measure 7
0100
0000
0100
0000
,  // measure 8
1000
0000
1000
0000
,  // measure 9
0010
0000
0010
0000
,  // measure 10
1000
0000
1000
0000
,  // measure 11
0001
0000
0001
0000
,  // measure 12
1001
0000
1000
0000
,  // measure 13
1000
0000
0010
0000
,  // measure 14
1001
0000
0100
0000
,  // measure 15
1000
0000
0010
0000
,  // measure 16
1001
0000
0010
0000
,  // measure 17
0001
0000
0010
0000
,  // measure 18
1001
0000
0100
0000
,  // measure 19
0001
0000
0100
0000
,  // measure 20
1000
1000
0000
0000
,  // measure 21
0100
0100
0000
0000
,  // measure 22
0010
0010
0000
0000
,  // measure 23
0001
0001
0000
0000
,  // measure 24
0100
0100
0000
0000
,  // measure 25
0010
0010
0000
0000
,  // measure 26
1000
1000
0000
0000
,  // measure 27
0001
0001
0000
0000
,  // measure 28
1000
0000
1000
0000
,  // measure 29
0001
0000
0001
0000
,  // measure 30
1000
0000
1000
0000
,  // measure 31
0001
0000
0001
0000
,  // measure 32
1000
0000
1000
0000
,  // measure 33
0001
0000
0001
0000
,  // measure 34
1000
0000
1000
0000
,  // measure 35
0001
0000
0001
0000
,  // measure 36
1000
1000
0000
0000
,  // measure 37
0010
0010
0000
0000
,  // measure 38
0100
0100
0000
0000
,  // measure 39
0001
0001
0000
0000
,  // measure 40
1001
0000
1000
0000
,  // measure 41
0001
0000
0010
0000
,  // measure 42
1001
0000
0100
0000
,  // measure 43
1000
0000
0010
0000
,  // measure 44
1001
0000
0010
0000
,  // measure 45
0001
0000
0010
0000
,  // measure 46
1001
0000
0100
0000
,  // measure 47
1000
0000
0100
0000
,  // measure 48
1001
0000
1000
1000
,  // measure 49
1000
0000
0010
0010
,  // measure 50
0010
0000
0100
0100
,  // measure 51
0100
0000
0001
0001
,  // measure 52
0001
0000
0100
0100
,  // measure 53
0100
0000
0010
0010
,  // measure 54
0010
0000
1000
1000
,  // measure 55
1000
0000
0001
0001
,  // measure 56
0002
0000
0000
0000
,  // measure 57
0000
0000
0000
0000
,  // measure 58
0003
0000
0000
0000
;
