#TITLE:Turn The Lights Off;
#SUBTITLE:;
#ARTIST:Kato feat. Jon;
#TITLETRANSLIT:;
#SUBTITLETRANSLIT:;
#ARTISTTRANSLIT:;
#GENRE:;
#CREDIT:;
#BANNER:Turn The Lights Off.png;
#BACKGROUND:;
#LYRICSPATH:;
#CDTITLE:;
#MUSIC:Turn The Lights Off.ogg;
#OFFSET:-0.920000;
#SAMPLESTART:58.379971;
#SAMPLELENGTH:14.999999;
#SELECTABLE:YES;
#BPMS:0.000000=131.980255
;
#STOPS:
;
#BGCHANGES:;
#KEYSOUNDS:;
#ATTACKS:;

//---------------dance-single - ----------------
#NOTES:
     dance-single:
     :
     Hard:
     7:
     0.404223,0.492815,0.133156,0.221926,0.299601,255.000000,243.000000,12.000000,20.000000,0.000000,0.000000,0.404223,0.492815,0.133156,0.221926,0.299601,255.000000,243.000000,12.000000,20.000000,0.000000,0.000000:
0000
0000
0000
0000
,
0000
0000
0000
0000
,
0000
0000
0000
0000
,
0000
0000
0000
0000
0000
0000
0000
0010
,
0020
0000
0000
0000
,
0230
0001
0001
0001
,
0302
0000
0000
0000
,
0000
0000
0000
0000
0000
1000
1000
0000
,
2000
0000
0000
0000
0000
0003
0020
0000
,
0000
0030
0001
0000
0001
0000
0001
0000
,
0001
0002
0000
0000
,
0000
0000
0000
0000
3000
0000
0000
0100
,
0200
0000
0000
0003
0000
0000
0010
0010
,
0020
0300
1000
1000
,
2000
0030
0001
0001
,
0002
0000
0000
3003
,
1001
0000
0000
0001
0100
0000
0000
0100
0010
0000
0000
0010
1000
0000
0000
1000
,
0100
0000
0000
0100
1000
0000
0000
1000
0010
0000
0000
0010
0100
0000
0000
0100
,
0001
0100
0001
0100
0010
1000
0010
1000
,
0100
1000
0100
1000
0001
0010
0001
0010
,
0001
0000
0000
0001
1000
0000
0000
1000
0100
0000
0000
0100
0010
0000
0000
0010
,
0100
0000
0000
0100
1000
0000
0000
1000
0010
0000
0000
0010
0100
0000
0000
0100
,
0010
1000
0010
1000
0001
0100
0001
0100
,
0001
0010
0001
0010
0100
1000
0100
1000
,
0001
0000
0000
0001
0100
0000
0000
0100
0010
0000
0000
0010
1000
0000
0000
1000
,
0100
0000
0000
0100
0010
0000
0000
0010
0001
0000
0000
0001
0010
0000
0000
0010
,
0100
1000
0100
1000
0001
0010
0001
0010
,
0001
0100
0001
0100
0010
1000
0010
1000
,
0010
0000
0000
0010
1000
0000
0000
1000
0100
0000
0000
0100
0010
0000
0000
0010
,
0001
0000
0000
0001
0100
0000
0000
0100
0010
0000
0000
0010
1000
0000
0000
1000
,
0001
0100
0001
0100
0010
1000
0010
1000
,
0100
1000
0100
1000
0001
0010
0001
0010
,
1002
0000
0100
0000
1000
0000
0103
0001
,
2001
0000
0100
0000
0001
0000
3100
1000
,
1002
0000
0010
0000
0100
0000
0013
0001
,
2001
0000
0010
0000
0100
0000
3010
1000
,
1001
0000
0000
0001
1000
0000
0000
1000
0100
0000
0000
0100
0010
0000
0000
0010
,
0001
0000
0000
0001
0100
0000
0000
0100
0010
0000
0000
0010
1000
0000
0000
1000
,
0001
0000
0000
0001
0100
0000
0000
0100
0010
0000
0000
0010
1000
0000
0000
1000
,
0100
0000
0000
0100
0010
0000
0000
0010
0001
0000
0000
0001
0100
0000
0000
0000
,
2001
0000
0100
0000
0010
0000
3100
1000
,
1002
0000
0100
0000
0010
0000
0103
0001
,
2001
0000
0010
0000
0010
0000
3100
1000
,
1002
0000
0010
0000
0010
0000
0103
0010
,
0110
0000
0000
0100
0001
0000
0000
0001
0010
0000
0000
0010
0001
0000
0000
0001
,
1000
0000
0000
1000
0100
0000
0000
0100
1000
0000
0000
1000
0010
0000
0100
0000
,
2002
0000
0000
3003
;

//---------------dance-single - ----------------
#NOTES:
     dance-single:
     :
     Medium:
     6:
     0.310697,0.440940,0.188637,0.221926,0.000000,196.000000,179.000000,17.000000,20.000000,0.000000,0.000000,0.310697,0.440940,0.188637,0.221926,0.000000,196.000000,179.000000,17.000000,20.000000,0.000000,0.000000:
0000
0000
0000
0000
,
0000
0000
0000
0000
,
0000
0000
0000
0000
,
0000
0000
0000
0000
,
1020
0000
0000
0100
,
0230
0001
0001
0001
,
0302
1000
1000
1000
,
0000
0000
0000
0000
0000
1000
1000
0000
,
2000
0000
0000
0000
0000
0003
0020
0000
,
0000
0030
0001
0000
0001
0000
0001
0000
,
0001
0002
0000
0000
,
0000
0000
0000
0000
3000
0000
0000
0100
,
0200
0000
0000
0003
0000
0000
0010
0010
,
0020
0300
1000
1000
,
2000
0030
0001
0001
,
0002
0000
0000
3003
,
1001
0100
0010
1000
,
0100
1000
0010
0100
,
0001
0100
0001
0100
0010
1000
0010
1000
,
0100
1000
0100
1000
0001
0010
0001
0000
,
0001
1000
0100
0010
,
0100
1000
0010
0100
,
0010
1000
0010
1000
0001
0100
0001
0100
,
0001
0010
0001
0010
0100
1000
0100
0000
,
0001
0100
0010
1000
,
0100
0010
0001
0010
,
0100
1000
0100
1000
0001
0010
0001
0010
,
0001
0100
0001
0100
0010
1000
0010
0000
,
0010
1000
0100
0010
,
0001
0100
0010
1000
,
0001
0100
0001
0100
0010
1000
0010
1000
,
0100
1000
0100
1000
0001
0010
0001
0000
,
1002
0100
1000
0103
,
2001
0100
0001
3100
,
1002
0010
0100
0013
,
2001
0010
0100
3010
,
1001
1000
0100
0010
,
0001
0100
0010
1000
,
0001
0100
0010
1000
,
0100
0010
0001
0100
,
2001
0100
0010
3100
,
1002
0100
0010
0103
,
2001
0010
0010
3100
,
1002
0010
0010
0103
,
0110
0001
0010
0001
,
1001
0110
1001
0110
,
2002
0000
0000
3003
;

//---------------dance-single - ----------------
#NOTES:
     dance-single:
     :
     Easy:
     5:
     0.299601,0.363127,0.199734,0.255215,0.000000,189.000000,171.000000,18.000000,23.000000,0.000000,0.000000,0.299601,0.363127,0.199734,0.255215,0.000000,189.000000,171.000000,18.000000,23.000000,0.000000,0.000000:
0000
0000
0000
0000
,
0000
0000
0000
0000
,
0000
0000
0000
0000
,
0000
0000
0000
0000
,
1020
1000
0100
0100
,
0230
0001
0001
0001
,
0302
1000
1000
1000
,
1000
1000
1000
1000
,
2003
0010
0010
0020
,
3000
0100
0100
0100
,
0100
0230
0001
0001
,
0301
0002
1000
2003
,
3200
0010
0010
0010
,
0320
0001
0001
0032
,
2003
0001
0001
0001
,
0002
0000
0000
3003
,
1001
0100
0010
1000
,
0100
1000
0010
0100
,
0001
0001
0001
0000
0010
0010
0010
0000
,
0100
0100
0100
0000
1000
1000
1000
0000
,
0001
1000
0100
0010
,
0100
1000
0010
0100
,
0010
0010
0010
0000
0100
0100
0100
0000
,
0001
0001
0001
0000
1000
1000
1000
0000
,
0001
0100
0010
1000
,
0100
0010
0001
0010
,
1000
1000
1000
0000
0001
0001
0001
0000
,
0100
0100
0100
0000
0010
0010
0010
0000
,
0010
1000
0100
0010
,
0001
0100
0010
1000
,
0001
0001
0001
0000
1000
1000
1000
0000
,
0010
0010
0010
0000
0100
0100
0100
0000
,
1002
1000
1000
0003
,
2001
0001
0001
3000
,
0102
0100
0100
0003
,
2010
0010
0010
3000
,
1001
1000
0100
0010
,
0001
0100
0010
1000
,
0001
0100
0010
1000
,
0100
0010
0001
0100
,
2100
0100
0100
3000
,
0012
0010
0010
0003
,
2001
0001
0001
3000
,
1002
1000
1000
0003
,
1001
0000
0110
0000
,
1001
0110
1001
0110
,
2002
0000
0000
3003
;

//---------------dance-single - ----------------
#NOTES:
     dance-single:
     :
     Beginner:
     2:
     0.131571,0.181563,0.022193,0.155348,0.000000,83.000000,81.000000,2.000000,14.000000,0.000000,0.000000,0.131571,0.181563,0.022193,0.155348,0.000000,83.000000,81.000000,2.000000,14.000000,0.000000,0.000000:
// measure 0
0000
0000
0000
0000
,  // measure 1
0000
0000
0000
0000
,  // measure 2
0000
0000
0000
0000
,  // measure 3
0000
0000
0000
0000
,  // measure 4
0020
0000
0030
0000
,  // measure 5
0200
0000
0300
0000
,  // measure 6
0002
0000
0003
0000
,  // measure 7
2000
0000
3000
0000
,  // measure 8
2000
0000
3000
0000
,  // measure 9
0020
0000
0030
0000
,  // measure 10
0200
0000
0300
0000
,  // measure 11
0002
0000
0003
0000
,  // measure 12
0200
0000
0300
0000
,  // measure 13
0020
0000
0030
0000
,  // measure 14
2000
0000
3000
0000
,  // measure 15
0002
0000
0003
0000
,  // measure 16
1001
0000
0010
0000
,  // measure 17
0100
0000
0010
0000
,  // measure 18
0001
0000
0010
0000
,  // measure 19
0100
0000
1000
0000
,  // measure 20
0001
0000
0100
0000
,  // measure 21
0100
0000
0010
0000
,  // measure 22
0010
0000
0100
0000
,  // measure 23
0001
0000
1000
0000
,  // measure 24
0001
0000
0010
0000
,  // measure 25
0100
0000
0001
0000
,  // measure 26
1000
0000
0001
0000
,  // measure 27
0100
0000
0010
0000
,  // measure 28
0010
0000
0100
0000
,  // measure 29
0001
0000
0010
0000
,  // measure 30
0001
0000
1000
0000
,  // measure 31
0010
0000
0100
0000
,  // measure 32
1000
1000
1000
0000
,  // measure 33
0001
0001
0001
0000
,  // measure 34
0100
0100
0100
0000
,  // measure 35
0010
0010
0010
0000
,  // measure 36
1000
0000
0100
0000
,  // measure 37
0001
0000
0010
0000
,  // measure 38
0001
0000
0010
0000
,  // measure 39
0100
0000
1000
0000
,  // measure 40
0100
0100
0100
0000
,  // measure 41
0010
0010
0010
0000
,  // measure 42
0001
0001
0001
0000
,  // measure 43
1000
1000
1000
0000
,  // measure 44
1000
1000
0000
0000
,  // measure 45
0001
0001
0000
0000
,  // measure 46
2002
0000
0000
3003
;
