#TITLE:Toronto EVOLVED;
#SUBTITLE:~Newspaper Head Trauma~;
#ARTIST:Misery underground;
#TITLETRANSLIT:;
#SUBTITLETRANSLIT:;
#ARTISTTRANSLIT:;
#GENRE:;
#CREDIT:;
#BANNER:Toronto EVOLVED ~Newspaper Head Trauma~.png;
#BACKGROUND:;
#LYRICSPATH:;
#CDTITLE:;
#MUSIC:Toronto EVOLVED ~Newspaper Head Trauma~.ogg;
#OFFSET:0.000000;
#SAMPLESTART:33.859879;
#SAMPLELENGTH:14.999998;
#SELECTABLE:YES;
#BPMS:0.000000=340.040009
;
#STOPS:
;
#BGCHANGES:;
#KEYSOUNDS:;
#ATTACKS:;

//---------------dance-single - ----------------
#NOTES:
     dance-single:
     :
     Hard:
     10:
     0.889270,1.155643,0.016915,0.786569,0.778111,736.000000,734.000000,2.000000,93.000000,0.000000,0.000000,0.889270,1.155643,0.016915,0.786569,0.778111,736.000000,734.000000,2.000000,93.000000,0.000000,0.000000:
// measure 0
0000
0000
0000
0000
,  // measure 1
0000
0000
0000
0000
,  // measure 2
0000
0000
0000
0000
,  // measure 3
0000
0000
0000
0000
,  // measure 4
0000
0000
0000
0000
,  // measure 5
0000
0000
0000
0000
,  // measure 6
0000
0000
0000
0000
,  // measure 7
0000
0000
0000
0000
,  // measure 8
1100
0100
1000
0010
,  // measure 9
0100
0001
0010
0001
,  // measure 10
1000
0100
0010
0100
,  // measure 11
1000
0010
0100
0010
,  // measure 12
1000
0001
0010
0001
,  // measure 13
0100
0001
1000
0010
,  // measure 14
1000
0001
0010
0001
,  // measure 15
1000
0100
1000
0010
,  // measure 16
1020
0000
1030
0100
1000
0000
0010
0000
,  // measure 17
0100
0001
0010
0001
0100
0000
0010
1000
,  // measure 18
0200
0000
1300
0010
1000
0010
0100
0001
,  // measure 19
0010
0000
0001
0100
0001
0100
0020
0000
,  // measure 20
1030
0100
0010
0000
0010
0100
1000
0000
,  // measure 21
1000
0010
0100
0010
2000
0000
3001
0100
,  // measure 22
0010
0100
0001
0100
0020
0000
1030
0100
,  // measure 23
1000
0002
0010
0010
,  // measure 24
0013
0001
0010
0001
0100
0000
0010
1000
,  // measure 25
0010
1000
0100
0000
1000
0010
1000
0010
,  // measure 26
0200
0000
0301
0100
0001
0100
0010
0100
,  // measure 27
0001
0010
0001
0100
0001
0100
0001
0010
,  // measure 28
0001
0000
1000
0010
1000
0100
1000
0000
,  // measure 29
0010
1000
0010
0100
0010
0000
1000
0100
,  // measure 30
1000
0010
1000
0010
1000
0010
0100
0010
,  // measure 31
0100
0010
1000
0100
0010
0100
1000
0010
,  // measure 32
0100
0000
0001
0000
0010
0000
0001
0000
0010
0000
0100
0000
,  // measure 33
2000
0000
3020
0000
,  // measure 34
1030
0000
0010
0000
0100
0000
0001
0000
0010
0000
0001
0000
,  // measure 35
2000
0000
3002
0000
,  // measure 36
1003
0000
0010
0000
0100
0000
0001
0000
0010
0000
0001
0000
,  // measure 37
0200
0000
0320
0000
,  // measure 38
1030
0000
0010
0000
0100
0000
0010
0000
1000
0000
0001
0000
,  // measure 39
0020
0000
0032
0000
,  // measure 40
0103
0000
0001
0000
0100
0000
0010
0000
1000
0000
0010
0000
,  // measure 41
2000
0000
3002
0000
,  // measure 42
1003
0000
0010
0000
0100
0000
0001
0000
0100
0000
0010
0000
,  // measure 43
2000
0000
3002
0000
,  // measure 44
1003
0000
0100
0000
0010
0000
0001
0000
0100
0000
0010
0000
,  // measure 45
2000
0000
3002
0000
,  // measure 46
0103
0000
0001
0000
1000
0000
0100
0000
0010
0000
0001
0000
,  // measure 47
2000
0000
3020
0000
,  // measure 48
1030
0000
0000
1000
0010
0000
0100
0001
,  // measure 49
0000
0100
0010
0000
1000
0100
0000
0010
,  // measure 50
0001
0000
1000
0001
0000
0100
0001
0000
,  // measure 51
1000
0010
0000
1000
0001
0000
1000
0001
,  // measure 52
0100
0001
0100
0000
0010
1000
0010
0000
,  // measure 53
0100
0001
0100
0000
0010
1000
0010
0000
,  // measure 54
1000
0100
1000
0000
0001
0010
0001
0000
,  // measure 55
1000
0100
1000
0000
0001
0010
0001
0000
,  // measure 56
1000
0000
0001
0100
0000
0100
0001
0000
,  // measure 57
0001
1000
0000
1000
0010
0000
0010
0100
,  // measure 58
0000
0100
0010
0000
0010
1000
0000
1000
,  // measure 59
0100
0000
0100
0010
0000
0010
0001
0000
,  // measure 60
0001
1000
0001
0000
1000
0001
1000
0000
,  // measure 61
0010
0100
0010
0000
0100
0010
0100
0000
,  // measure 62
0010
1000
0100
0000
0010
0001
0100
0000
,  // measure 63
0010
1000
0100
0010
0001
0100
0010
0000
,  // measure 64
0200
0000
0302
0000
,  // measure 65
1003
0000
0010
0000
0100
0000
0010
0000
1000
0000
0100
0000
,  // measure 66
2000
0000
3002
0000
,  // measure 67
1003
0000
0100
0000
0010
0000
0001
0000
0010
0000
0100
0000
,  // measure 68
2000
0000
3020
0000
,  // measure 69
0130
0000
0010
0000
1000
0000
0100
0000
0010
0000
0100
0000
,  // measure 70
2000
0000
3020
0000
,  // measure 71
0130
0000
0001
0000
0010
0000
0001
0000
0100
0000
0010
0000
,  // measure 72
0200
0000
0320
0000
,  // measure 73
1030
0000
0100
0000
0010
0000
0001
0000
0100
0000
0010
0000
,  // measure 74
2000
0000
3002
0000
,  // measure 75
1003
0000
0010
0000
0100
0000
0001
0000
0100
0000
0010
0000
,  // measure 76
0200
0000
0320
0000
,  // measure 77
1030
0000
0010
0000
0100
0000
0001
0000
1000
0000
0010
0000
,  // measure 78
0200
0000
0302
0000
,  // measure 79
1003
0000
0010
0000
0100
0000
0001
0000
1000
0000
0001
0000
,  // measure 80
0100
0000
0001
0000
0010
0000
0001
0000
0010
0000
0100
0000
,  // measure 81
2000
0000
3020
0000
,  // measure 82
1030
0000
0010
0000
0100
0000
0001
0000
0010
0000
0001
0000
,  // measure 83
2000
0000
3002
0000
,  // measure 84
1003
0000
0010
0000
0100
0000
0001
0000
0010
0000
0001
0000
,  // measure 85
0200
0000
0320
0000
,  // measure 86
1030
0000
0010
0000
0100
0000
0010
0000
1000
0000
0001
0000
,  // measure 87
0020
0000
0032
0000
,  // measure 88
0103
0000
0001
0000
0100
0000
0010
0000
1000
0000
0010
0000
,  // measure 89
2000
0000
3002
0000
,  // measure 90
1003
0000
0010
0000
0100
0000
0001
0000
0100
0000
0010
0000
,  // measure 91
2000
0000
3002
0000
,  // measure 92
1003
0000
0100
0000
0010
0000
0001
0000
0100
0000
0010
0000
,  // measure 93
0200
0000
0320
0000
,  // measure 94
0130
0000
0001
0000
1000
0000
0100
0000
0010
0000
0001
0000
,  // measure 95
2000
0000
3002
0000
,  // measure 96
1003
0010
1000
0000
0001
0100
0001
0000
,  // measure 97
0010
0001
0010
0000
0100
1000
0100
0000
,  // measure 98
1000
0010
1000
0000
0001
0100
0001
0000
,  // measure 99
1000
0010
0100
0000
0010
0100
0001
0000
,  // measure 100
0100
0001
0100
0000
0010
1000
0010
0000
,  // measure 101
0100
0001
0100
0000
0001
0010
0001
0000
,  // measure 102
1000
0100
0010
0000
0010
0100
1000
0000
,  // measure 103
1000
0010
0100
0000
0100
0010
1000
0000
,  // measure 104
0001
0010
0100
0000
0100
0010
0001
0000
,  // measure 105
0001
0100
0010
0000
0010
0100
0001
0000
,  // measure 106
1000
0100
0010
0000
0010
0100
1000
0000
,  // measure 107
1000
0001
0100
0000
0001
1000
0100
0000
,  // measure 108
1000
0001
0100
0000
0001
1000
0100
0000
,  // measure 109
0100
1000
0010
0000
0100
0001
0010
0000
,  // measure 110
0100
1000
0010
0000
0100
0001
0010
0000
,  // measure 111
0100
1000
0010
0000
0100
0001
0010
0000
,  // measure 112
0001
0010
0001
0000
1000
0100
1000
0000
,  // measure 113
0001
0010
0001
0000
1000
0100
1000
0000
,  // measure 114
1000
0010
0100
0000
0100
0010
1000
0000
,  // measure 115
1000
0100
0010
0000
0010
0100
1000
0000
,  // measure 116
0001
0100
0010
0000
0010
0100
0001
0000
,  // measure 117
0001
0010
0100
0000
0100
0010
0001
0000
,  // measure 118
1000
0010
1000
0000
0001
0100
0001
0000
,  // measure 119
1000
0001
1000
0000
0100
1000
0100
0000
,  // measure 120
2000
0000
3002
0000
,  // measure 121
1003
0000
0010
0000
0100
0000
0010
0000
1000
0000
0100
0000
,  // measure 122
2000
0000
3002
0000
,  // measure 123
1003
0000
0100
0000
0010
0000
0001
0000
0010
0000
0100
0000
,  // measure 124
2000
0000
3002
0000
,  // measure 125
0103
0000
0010
0000
1000
0000
0100
0000
0010
0000
0100
0000
,  // measure 126
2000
0000
3020
0000
,  // measure 127
1030
0000
0100
0000
0010
0000
0001
0000
0100
0000
0010
0000
,  // measure 128
0100
0000
0001
0000
0010
0000
0001
0000
0010
0000
0100
0000
,  // measure 129
2000
0000
3020
0000
,  // measure 130
1030
0000
0010
0000
0100
0000
0001
0000
0010
0000
0001
0000
,  // measure 131
2000
0000
3002
0000
,  // measure 132
1003
0000
0100
0000
0010
0000
0001
0000
0100
0000
0001
0000
,  // measure 133
0200
0000
0320
0000
,  // measure 134
1030
0000
0010
0000
0100
0000
0010
0000
1000
0000
0001
0000
,  // measure 135
0020
0000
0032
0000
,  // measure 136
0103
0000
0001
0000
0100
0000
0010
0000
1000
0000
0010
0000
,  // measure 137
2000
0000
3002
0000
,  // measure 138
1003
0000
0010
0000
0100
0000
0001
0000
0100
0000
0010
0000
,  // measure 139
2000
0000
3002
0000
,  // measure 140
1003
0000
0100
0000
0010
0000
0001
0000
0100
0000
0010
0000
,  // measure 141
2000
0000
3002
0000
,  // measure 142
0103
0000
0001
0000
1000
0000
0100
0000
0010
0000
0001
0000
,  // measure 143
2000
0000
3002
0000
,  // measure 144
0103
0000
0001
0000
0010
0000
0001
0000
0010
0000
0001
0000
,  // measure 145
0200
0000
0320
0000
,  // measure 146
1030
0000
0010
0000
0100
0000
0001
0000
0010
0000
0100
0000
,  // measure 147
2000
0000
3002
0000
,  // measure 148
1003
0000
0100
0000
0010
0000
0001
0000
0010
0000
0100
0000
,  // measure 149
2000
0000
3020
0000
,  // measure 150
1030
0000
0010
0000
0100
0000
0010
0000
1000
0000
0001
0000
,  // measure 151
0200
0000
0302
0000
,  // measure 152
0103
0000
0001
0000
0100
0000
0010
0000
1000
0000
0010
0000
,  // measure 153
2000
0000
3002
0000
,  // measure 154
1003
0000
0010
0000
0100
0000
0001
0000
0100
0000
0010
0000
,  // measure 155
0200
0000
0320
0000
,  // measure 156
1030
0000
0100
0000
0010
0000
0001
0000
0100
0000
0010
0000
,  // measure 157
1000
0000
0010
0000
0100
0000
0001
0000
1000
0000
0010
0000
,  // measure 158
0100
0000
0001
0000
1000
0000
0100
0000
0010
0000
0001
0000
,  // measure 159
1000
0000
0010
0000
0100
0000
0001
0000
2000
0000
0002
0000
,  // measure 160
0000
0000
0000
3003
;

//---------------dance-single - ----------------
#NOTES:
     dance-single:
     :
     Medium:
     9:
     0.647621,0.951706,0.143781,0.685076,0.270647,536.000000,519.000000,17.000000,81.000000,0.000000,0.000000,0.647621,0.951706,0.143781,0.685076,0.270647,536.000000,519.000000,17.000000,81.000000,0.000000,0.000000:
// measure 0
0000
0000
0000
0000
,  // measure 1
0000
0000
0000
0000
,  // measure 2
0000
0000
0000
0000
,  // measure 3
0000
0000
0000
0000
,  // measure 4
0000
0000
0000
0000
,  // measure 5
0000
0000
0000
0000
,  // measure 6
0000
0000
0000
0000
,  // measure 7
0000
0000
0000
0000
,  // measure 8
1001
0000
0100
0000
,  // measure 9
1001
0000
0010
0000
,  // measure 10
1001
0000
0100
0000
,  // measure 11
1001
0000
0010
0000
,  // measure 12
1001
0001
0100
0001
,  // measure 13
1000
0010
1000
0100
,  // measure 14
1000
0010
0100
0001
,  // measure 15
1000
0100
0010
0001
,  // measure 16
1001
0010
1000
0100
,  // measure 17
0010
0001
0100
0010
,  // measure 18
1000
0010
0100
0001
,  // measure 19
0100
0010
1000
0010
,  // measure 20
1100
1000
0100
0010
,  // measure 21
0001
0010
0100
1000
,  // measure 22
0100
0010
0001
0100
,  // measure 23
0010
0100
0001
0010
,  // measure 24
0011
0001
0010
0100
,  // measure 25
1000
0100
0010
0100
,  // measure 26
1000
0010
0100
0010
,  // measure 27
1000
0100
0010
0100
,  // measure 28
1100
1000
0010
0100
,  // measure 29
0001
0100
0010
0100
,  // measure 30
0001
0010
0001
0100
,  // measure 31
0001
0010
0100
0010
,  // measure 32
0012
0000
1000
0000
,  // measure 33
0103
0000
0000
0000
,  // measure 34
2010
0000
0001
0000
,  // measure 35
3100
0000
0000
0000
,  // measure 36
0012
0000
1000
0000
,  // measure 37
0103
0000
0000
0000
,  // measure 38
2010
0000
0001
0000
,  // measure 39
3100
0000
0000
0000
,  // measure 40
0012
0000
1000
0000
,  // measure 41
0103
0000
0000
0000
,  // measure 42
2010
0000
0001
0000
,  // measure 43
3100
0000
0000
0000
,  // measure 44
0012
0000
1000
0000
,  // measure 45
0103
0000
0000
0000
,  // measure 46
2010
0000
0100
0000
,  // measure 47
0002
0000
0000
3003
,  // measure 48
1000
0000
0000
1000
0010
0000
0100
0001
,  // measure 49
0000
0100
0010
0000
1000
0100
0000
0010
,  // measure 50
0001
0000
1000
0001
0000
0100
0001
0000
,  // measure 51
1000
0010
0000
1000
0001
0000
1000
0001
,  // measure 52
0100
0001
0100
0000
0010
1000
0010
0000
,  // measure 53
0100
0001
0100
0000
0010
1000
0010
0000
,  // measure 54
1000
0100
1000
0000
0001
0010
0001
0000
,  // measure 55
1000
0100
1000
0000
0001
0010
0001
0000
,  // measure 56
1000
0000
0001
0100
0000
0100
0001
0000
,  // measure 57
0001
1000
0000
1000
0010
0000
0010
0100
,  // measure 58
0000
0100
0010
0000
0010
1000
0000
1000
,  // measure 59
0100
0000
0100
0010
0000
0010
0001
0000
,  // measure 60
0001
1000
0001
0000
1000
0001
1000
0000
,  // measure 61
0010
0100
0010
0000
0100
0010
0100
0000
,  // measure 62
0010
1000
0100
0000
0010
0001
0100
0000
,  // measure 63
0010
1000
0100
0010
0001
0100
0001
0000
,  // measure 64
1000
0000
0000
0000
1000
0000
0010
0000
0000
0000
0010
0000
,  // measure 65
0100
0000
0000
0000
0100
0000
0001
0000
0000
0000
0001
0000
,  // measure 66
1000
0000
0000
0000
1000
0000
0010
0000
0000
0000
0010
0000
,  // measure 67
0100
0000
0000
0000
0100
0000
0001
0000
0000
0000
0001
0000
,  // measure 68
0010
0000
0000
0000
0010
0000
0100
0000
0000
0000
0100
0000
,  // measure 69
1000
0000
0000
0000
1000
0000
0010
0000
0000
0000
0010
0000
,  // measure 70
0100
0000
0000
0000
0100
0000
0001
0000
0000
0000
0001
0000
,  // measure 71
1000
0000
0000
0000
1000
0000
0010
0000
0000
0000
0010
0000
,  // measure 72
1000
0000
0000
0000
1000
0000
0100
0000
0000
0000
0100
0000
,  // measure 73
0010
0000
0000
0000
0010
0000
0001
0000
0000
0000
0001
0000
,  // measure 74
0100
0000
0000
0000
0100
0000
0010
0000
0000
0000
0010
0000
,  // measure 75
1000
0000
0000
0000
1000
0000
0010
0000
0000
0000
0010
0000
,  // measure 76
0100
0000
0000
0000
0100
0000
0001
0000
0000
0000
0001
0000
,  // measure 77
1000
0000
0000
0000
1000
0000
0100
0000
0000
0000
0100
0000
,  // measure 78
0010
0000
0000
0000
0010
0000
0001
0000
0000
0000
0001
0000
,  // measure 79
0100
0000
0000
0000
0100
0000
0001
0000
0000
0000
0001
0000
,  // measure 80
2000
0000
3020
0000
,  // measure 81
0230
0000
0302
0000
,  // measure 82
0023
0000
0032
0000
,  // measure 83
0203
0000
0320
0000
,  // measure 84
2030
0000
3200
0000
,  // measure 85
0320
0000
0032
0000
,  // measure 86
2003
0000
3002
0000
,  // measure 87
0203
0000
0320
0000
,  // measure 88
2030
0000
3020
0000
,  // measure 89
0230
0000
0302
0000
,  // measure 90
2003
0000
3200
0000
,  // measure 91
0320
0000
0032
0000
,  // measure 92
2003
0000
3020
0000
,  // measure 93
0230
0000
0320
0000
,  // measure 94
2030
0000
3002
0000
,  // measure 95
0203
0000
0320
0000
,  // measure 96
0130
0001
0010
0001
,  // measure 97
0100
0001
0010
0001
,  // measure 98
1000
0100
0010
0100
,  // measure 99
1000
0100
0010
0100
,  // measure 100
1000
0010
0100
0010
,  // measure 101
1000
0010
0100
0010
,  // measure 102
0100
0001
0010
0001
,  // measure 103
0100
0002
2000
3003
,  // measure 104
1000
0100
0010
0001
,  // measure 105
0010
0100
1000
0010
,  // measure 106
1000
0001
0010
0100
,  // measure 107
1000
0100
0010
0001
,  // measure 108
0100
0001
1000
0010
,  // measure 109
0100
0001
1000
0010
,  // measure 110
0100
0001
1000
0100
,  // measure 111
0010
0002
2000
3003
,  // measure 112
1000
0010
1000
0010
,  // measure 113
0100
0001
0100
0001
,  // measure 114
0010
0001
0010
0001
,  // measure 115
1000
0100
1000
0100
,  // measure 116
1000
0010
1000
0010
,  // measure 117
0100
0001
0100
0001
,  // measure 118
1000
0001
1000
0001
,  // measure 119
0100
0020
0200
0330
,  // measure 120
0001
1000
0001
1000
,  // measure 121
0010
1000
0010
1000
,  // measure 122
0100
1000
0100
1000
,  // measure 123
0001
0010
0001
0010
,  // measure 124
0001
0100
0001
0100
,  // measure 125
0001
1000
0001
1000
,  // measure 126
0010
1000
0100
0010
,  // measure 127
0001
2000
0002
3003
,  // measure 128
1000
0000
0000
0000
1000
0000
0010
0000
0000
0000
0010
0000
,  // measure 129
0100
0000
0000
0000
0100
0000
0001
0000
0000
0000
0001
0000
,  // measure 130
1000
0000
0000
0000
1000
0000
0010
0000
0000
0000
0010
0000
,  // measure 131
0100
0000
0000
0000
0100
0000
0001
0000
0000
0000
0001
0000
,  // measure 132
0010
0000
0000
0000
0010
0000
0100
0000
0000
0000
0100
0000
,  // measure 133
1000
0000
0000
0000
1000
0000
0010
0000
0000
0000
0010
0000
,  // measure 134
0100
0000
0000
0000
0100
0000
0001
0000
0000
0000
0001
0000
,  // measure 135
1000
0000
0000
0000
1000
0000
0010
0000
0000
0000
0010
0000
,  // measure 136
1000
0000
0000
0000
1000
0000
0100
0000
0000
0000
0100
0000
,  // measure 137
0010
0000
0000
0000
0010
0000
0001
0000
0000
0000
0001
0000
,  // measure 138
0100
0000
0000
0000
0100
0000
0010
0000
0000
0000
0010
0000
,  // measure 139
1000
0000
0000
0000
1000
0000
0010
0000
0000
0000
0010
0000
,  // measure 140
0100
0000
0000
0000
0100
0000
0001
0000
0000
0000
0001
0000
,  // measure 141
1000
0000
0000
0000
1000
0000
0100
0000
0000
0000
0100
0000
,  // measure 142
0010
0000
0000
0000
0010
0000
0001
0000
0000
0000
0001
0000
,  // measure 143
0100
0000
0000
0000
0100
0000
0001
0000
0000
0000
0001
0000
,  // measure 144
2000
0000
3020
0000
,  // measure 145
0230
0000
0302
0000
,  // measure 146
0023
0000
0032
0000
,  // measure 147
0203
0000
0320
0000
,  // measure 148
2030
0000
3200
0000
,  // measure 149
0320
0000
0032
0000
,  // measure 150
2003
0000
3002
0000
,  // measure 151
0203
0000
0320
0000
,  // measure 152
2030
0000
3020
0000
,  // measure 153
0230
0000
0302
0000
,  // measure 154
2003
0000
3200
0000
,  // measure 155
0320
0000
0032
0000
,  // measure 156
2003
0000
3020
0000
,  // measure 157
0230
0000
0320
0000
,  // measure 158
2030
0000
3002
0000
,  // measure 159
0203
0000
0020
0000
,  // measure 160
0000
0000
0000
0330
;

//---------------dance-single - ----------------
#NOTES:
     dance-single:
     :
     Easy:
     7:
     0.434969,0.543832,0.076120,1.150252,0.000000,360.000000,351.000000,9.000000,136.000000,0.000000,0.000000,0.434969,0.543832,0.076120,1.150252,0.000000,360.000000,351.000000,9.000000,136.000000,0.000000,0.000000:
// measure 0
0000
0000
0000
0000
,  // measure 1
0000
0000
0000
0000
,  // measure 2
0000
0000
0000
0000
,  // measure 3
0000
0000
0000
0000
,  // measure 4
0000
0000
0000
0000
,  // measure 5
0000
0000
0000
0000
,  // measure 6
0000
0000
0000
0000
,  // measure 7
0000
0000
0000
0000
,  // measure 8
1000
0000
0100
0000
,  // measure 9
0001
0000
0010
0000
,  // measure 10
1000
0000
0100
0000
,  // measure 11
0001
0000
0010
0000
,  // measure 12
1000
0000
0100
0000
,  // measure 13
0001
0000
0010
0000
,  // measure 14
1000
0000
0100
0000
,  // measure 15
0001
0000
0010
0000
,  // measure 16
1000
0010
1000
0000
,  // measure 17
0001
0100
0010
0000
,  // measure 18
1000
0010
0100
0000
,  // measure 19
0001
0010
0001
0000
,  // measure 20
1000
0100
1000
0000
,  // measure 21
0001
0010
0001
0000
,  // measure 22
0100
0010
0100
0000
,  // measure 23
0001
0100
0001
0000
,  // measure 24
1000
0001
1000
0000
,  // measure 25
0010
0100
0010
0000
,  // measure 26
1000
0010
0100
0000
,  // measure 27
0001
0100
0010
0000
,  // measure 28
1000
0010
0100
0000
,  // measure 29
0001
0100
0010
0000
,  // measure 30
1000
0010
1000
0000
,  // measure 31
0001
0100
0001
0000
,  // measure 32
0012
0000
1000
0000
,  // measure 33
0103
0000
0000
0000
,  // measure 34
2010
0000
0001
0000
,  // measure 35
3100
0000
0000
0000
,  // measure 36
0012
0000
1000
0000
,  // measure 37
0103
0000
0000
0000
,  // measure 38
2010
0000
0001
0000
,  // measure 39
3100
0000
0000
0000
,  // measure 40
0012
0000
1000
0000
,  // measure 41
0103
0000
0000
0000
,  // measure 42
2010
0000
0001
0000
,  // measure 43
3100
0000
0000
0000
,  // measure 44
0012
0000
1000
0000
,  // measure 45
0103
0000
0000
0000
,  // measure 46
2010
0000
0100
0000
,  // measure 47
0002
0000
0000
3003
,  // measure 48
1000
0000
0000
1000
0000
0000
0100
0000
,  // measure 49
0000
0100
0000
0000
0010
0000
0001
0000
,  // measure 50
0001
0000
0000
0001
0000
0000
0001
0000
,  // measure 51
0000
1000
0000
0000
1000
0000
0001
0000
,  // measure 52
0100
0000
0010
0000
,  // measure 53
0100
0000
0010
0000
,  // measure 54
1000
0000
0001
0000
,  // measure 55
1000
0000
0001
0000
,  // measure 56
1000
0000
0000
0100
0000
0000
0001
0000
,  // measure 57
0000
0100
0000
0000
1000
0000
0010
0000
,  // measure 58
0100
0000
0000
0010
0000
0000
1000
0000
,  // measure 59
0000
0100
0000
0000
1000
0000
0001
0000
,  // measure 60
1000
0000
0001
0000
,  // measure 61
1000
0000
0010
0000
,  // measure 62
0100
0000
0010
0000
,  // measure 63
1000
0000
0001
0000
,  // measure 64
2000
0000
3020
0000
,  // measure 65
0230
0000
0302
0000
,  // measure 66
2003
0000
3020
0000
,  // measure 67
0230
0000
0302
0000
,  // measure 68
0023
0000
0230
0000
,  // measure 69
2300
0000
3020
0000
,  // measure 70
0230
0000
0302
0000
,  // measure 71
2003
0000
3020
0000
,  // measure 72
2030
0000
3200
0000
,  // measure 73
0320
0000
0032
0000
,  // measure 74
0203
0000
0320
0000
,  // measure 75
2030
0000
3020
0000
,  // measure 76
0230
0000
0302
0000
,  // measure 77
2003
0000
3200
0000
,  // measure 78
0320
0000
0032
0000
,  // measure 79
0203
0000
0302
0000
,  // measure 80
2003
0000
3020
0000
,  // measure 81
0230
0000
0302
0000
,  // measure 82
0023
0000
0032
0000
,  // measure 83
0203
0000
0320
0000
,  // measure 84
2030
0000
3200
0000
,  // measure 85
0320
0000
0032
0000
,  // measure 86
2003
0000
3002
0000
,  // measure 87
0203
0000
0320
0000
,  // measure 88
2030
0000
3020
0000
,  // measure 89
0230
0000
0302
0000
,  // measure 90
2003
0000
3200
0000
,  // measure 91
0320
0000
0032
0000
,  // measure 92
2003
0000
3020
0000
,  // measure 93
0230
0000
0320
0000
,  // measure 94
2030
0000
3002
0000
,  // measure 95
0203
0000
0310
0000
,  // measure 96
1001
0000
0010
0001
,  // measure 97
0100
0000
0010
0000
,  // measure 98
1000
0100
0010
0100
,  // measure 99
1000
0000
0010
0000
,  // measure 100
1000
0010
0100
0010
,  // measure 101
1000
0000
0100
0000
,  // measure 102
0001
0010
0001
0100
,  // measure 103
0001
0000
1000
0000
,  // measure 104
1000
0100
0010
0001
,  // measure 105
0010
0000
0100
0000
,  // measure 106
1000
0100
0010
0100
,  // measure 107
1000
0000
0010
0000
,  // measure 108
0100
0001
1000
0010
,  // measure 109
0100
0000
0001
0000
,  // measure 110
0100
0001
1000
0100
,  // measure 111
0010
0000
0100
0000
,  // measure 112
1000
0010
1000
0000
,  // measure 113
0001
0100
0001
0000
,  // measure 114
0010
0001
0010
0000
,  // measure 115
0100
1000
0100
0000
,  // measure 116
1000
0010
1000
0000
,  // measure 117
0001
0100
0001
0000
,  // measure 118
1000
0001
1000
0000
,  // measure 119
0010
0100
0010
0000
,  // measure 120
1000
0001
1000
0000
,  // measure 121
0010
1000
0010
0000
,  // measure 122
1000
0100
1000
0000
,  // measure 123
0001
0010
0001
0000
,  // measure 124
0100
0001
0100
0000
,  // measure 125
0001
1000
0001
0000
,  // measure 126
0010
1000
0100
0000
,  // measure 127
0010
0001
0100
0000
,  // measure 128
2000
0000
3020
0000
,  // measure 129
0230
0000
0302
0000
,  // measure 130
2003
0000
3020
0000
,  // measure 131
0230
0000
0302
0000
,  // measure 132
0023
0000
0230
0000
,  // measure 133
2300
0000
3020
0000
,  // measure 134
0230
0000
0302
0000
,  // measure 135
2003
0000
3020
0000
,  // measure 136
2030
0000
3200
0000
,  // measure 137
0320
0000
0032
0000
,  // measure 138
0203
0000
0320
0000
,  // measure 139
2030
0000
3020
0000
,  // measure 140
0230
0000
0302
0000
,  // measure 141
2003
0000
3200
0000
,  // measure 142
0320
0000
0032
0000
,  // measure 143
0203
0000
0302
0000
,  // measure 144
2003
0000
3020
0000
,  // measure 145
0230
0000
0302
0000
,  // measure 146
0023
0000
0032
0000
,  // measure 147
0203
0000
0320
0000
,  // measure 148
2030
0000
3200
0000
,  // measure 149
0320
0000
0032
0000
,  // measure 150
2003
0000
3002
0000
,  // measure 151
0203
0000
0320
0000
,  // measure 152
2030
0000
3020
0000
,  // measure 153
0230
0000
0302
0000
,  // measure 154
2003
0000
3200
0000
,  // measure 155
0320
0000
0032
0000
,  // measure 156
2003
0000
3020
0000
,  // measure 157
0230
0000
0320
0000
,  // measure 158
2030
0000
3002
0000
,  // measure 159
0203
0000
0020
0000
,  // measure 160
0000
0000
0000
0330
;

//---------------dance-single - ----------------
#NOTES:
     dance-single:
     :
     Beginner:
     4:
     0.215068,0.339895,0.076120,0.422887,0.000000,178.000000,169.000000,9.000000,50.000000,0.000000,0.000000,0.215068,0.339895,0.076120,0.422887,0.000000,178.000000,169.000000,9.000000,50.000000,0.000000,0.000000:
// measure 0
0000
0000
0000
0000
,  // measure 1
0000
0000
0000
0000
,  // measure 2
0000
0000
0000
0000
,  // measure 3
0000
0000
0000
0000
,  // measure 4
0000
0000
0000
0000
,  // measure 5
0000
0000
0000
0000
,  // measure 6
0000
0000
0000
0000
,  // measure 7
0000
0000
0000
0000
,  // measure 8
1000
0000
0000
0000
,  // measure 9
0001
0000
0000
0000
,  // measure 10
1000
0000
0000
0000
,  // measure 11
0001
0000
0000
0000
,  // measure 12
1000
0000
0000
0000
,  // measure 13
0001
0000
0000
0000
,  // measure 14
1000
0000
0000
0000
,  // measure 15
0001
0000
0000
0000
,  // measure 16
1000
0000
1000
0000
,  // measure 17
0001
0000
0010
0000
,  // measure 18
1000
0000
0100
0000
,  // measure 19
0001
0000
0001
0000
,  // measure 20
1000
0000
1000
0000
,  // measure 21
0001
0000
0001
0000
,  // measure 22
0100
0000
0100
0000
,  // measure 23
0001
0000
0001
0000
,  // measure 24
1000
0000
1000
0000
,  // measure 25
0010
0000
0010
0000
,  // measure 26
1000
0000
0100
0000
,  // measure 27
0001
0000
0010
0000
,  // measure 28
1000
0000
0100
0000
,  // measure 29
0001
0000
0010
0000
,  // measure 30
1000
0000
1000
0000
,  // measure 31
0001
0000
0001
0000
,  // measure 32
0002
0000
0000
0000
,  // measure 33
0003
0000
0000
0000
,  // measure 34
2000
0000
0000
0000
,  // measure 35
3000
0000
0000
0000
,  // measure 36
0002
0000
0000
0000
,  // measure 37
0003
0000
0000
0000
,  // measure 38
2000
0000
0000
0000
,  // measure 39
3000
0000
0000
0000
,  // measure 40
0002
0000
0000
0000
,  // measure 41
0003
0000
0000
0000
,  // measure 42
2000
0000
0000
0000
,  // measure 43
3000
0000
0000
0000
,  // measure 44
0002
0000
0000
0000
,  // measure 45
0003
0000
0000
0000
,  // measure 46
2000
0000
0000
0000
,  // measure 47
3000
0000
0000
0000
,  // measure 48
1000
0000
1000
0000
,  // measure 49
1000
0000
0000
0000
,  // measure 50
0001
0000
0001
0000
,  // measure 51
0001
0000
0000
0000
,  // measure 52
1000
0000
1000
0000
,  // measure 53
1000
0000
0000
0000
,  // measure 54
0001
0000
0001
0000
,  // measure 55
0001
0000
0000
0000
,  // measure 56
0100
0000
0100
0000
,  // measure 57
0100
0000
0000
0000
,  // measure 58
0010
0000
0010
0000
,  // measure 59
0010
0000
0000
0000
,  // measure 60
0100
0000
0100
0000
,  // measure 61
0100
0000
0000
0000
,  // measure 62
0010
0000
0010
0000
,  // measure 63
0010
0000
0000
0000
,  // measure 64
2000
0000
3000
0000
,  // measure 65
1000
0000
0000
0000
,  // measure 66
0002
0000
0003
0000
,  // measure 67
0001
0000
0000
0000
,  // measure 68
0200
0000
0300
0000
,  // measure 69
0100
0000
0000
0000
,  // measure 70
0020
0000
0030
0000
,  // measure 71
0010
0000
0000
0000
,  // measure 72
2000
0000
3000
0000
,  // measure 73
1000
0000
0000
0000
,  // measure 74
0002
0000
0003
0000
,  // measure 75
0001
0000
0000
0000
,  // measure 76
0200
0000
0300
0000
,  // measure 77
0100
0000
0000
0000
,  // measure 78
0020
0000
0030
0000
,  // measure 79
0010
0000
0000
0000
,  // measure 80
2000
0000
3000
0000
,  // measure 81
0200
0000
0300
0000
,  // measure 82
0020
0000
0030
0000
,  // measure 83
0002
0000
0003
0000
,  // measure 84
2000
0000
3000
0000
,  // measure 85
0020
0000
0030
0000
,  // measure 86
0200
0000
0300
0000
,  // measure 87
0002
0000
0003
0000
,  // measure 88
2000
0000
3000
0000
,  // measure 89
0200
0000
0300
0000
,  // measure 90
0020
0000
0030
0000
,  // measure 91
0002
0000
0003
0000
,  // measure 92
2000
0000
3000
0000
,  // measure 93
0020
0000
0030
0000
,  // measure 94
0200
0000
0300
0000
,  // measure 95
0002
0000
0003
0000
,  // measure 96
0001
0000
0001
0000
,  // measure 97
0001
0000
0000
0000
,  // measure 98
1000
0000
1000
0000
,  // measure 99
1000
0000
0000
0000
,  // measure 100
0010
0000
0010
0000
,  // measure 101
0010
0000
0000
0000
,  // measure 102
0100
0000
0100
0000
,  // measure 103
0100
0000
0000
0000
,  // measure 104
0001
0000
0001
0000
,  // measure 105
0001
0000
0000
0000
,  // measure 106
1000
0000
1000
0000
,  // measure 107
1000
0000
0000
0000
,  // measure 108
0010
0000
0010
0000
,  // measure 109
0010
0000
0000
0000
,  // measure 110
0100
0000
0100
0000
,  // measure 111
0100
0000
0000
0000
,  // measure 112
0001
0000
0000
0000
,  // measure 113
0001
0000
0000
0000
,  // measure 114
0010
0000
0000
0000
,  // measure 115
0100
0000
0000
0000
,  // measure 116
1000
0000
0000
0000
,  // measure 117
0001
0000
0000
0000
,  // measure 118
1000
0000
0000
0000
,  // measure 119
0010
0000
0000
0000
,  // measure 120
1000
0000
0000
0000
,  // measure 121
0010
0000
0000
0000
,  // measure 122
1000
0000
0000
0000
,  // measure 123
0001
0000
0000
0000
,  // measure 124
0100
0000
0000
0000
,  // measure 125
0001
0000
0000
0000
,  // measure 126
0010
0000
0000
0000
,  // measure 127
1000
0000
0000
0000
,  // measure 128
1001
0000
0000
0000
,  // measure 129
0000
0000
0000
0000
,  // measure 130
1001
0000
0000
0000
,  // measure 131
0000
0000
0000
0000
,  // measure 132
1001
0000
0000
0000
,  // measure 133
0000
0000
0000
0000
,  // measure 134
1001
0000
0000
0000
,  // measure 135
0000
0000
0000
0000
,  // measure 136
0110
0000
0000
0000
,  // measure 137
0000
0000
0000
0000
,  // measure 138
0110
0000
0000
0000
,  // measure 139
0000
0000
0000
0000
,  // measure 140
0110
0000
0000
0000
,  // measure 141
0000
0000
0000
0000
,  // measure 142
0110
0000
0000
0000
,  // measure 143
2000
0000
3000
0000
,  // measure 144
0002
0000
0003
0000
,  // measure 145
0200
0000
0300
0000
,  // measure 146
0020
0000
0030
0000
,  // measure 147
2000
0000
3000
0000
,  // measure 148
0002
0000
0003
0000
,  // measure 149
0200
0000
0300
0000
,  // measure 150
0020
0000
0030
0000
,  // measure 151
2000
0000
3000
0000
,  // measure 152
0200
0000
0300
0000
,  // measure 153
0020
0000
0030
0000
,  // measure 154
0002
0000
0003
0000
,  // measure 155
2000
0000
3000
0000
,  // measure 156
0002
0000
0003
0000
,  // measure 157
0200
0000
0300
0000
,  // measure 158
0020
0000
0030
0000
,  // measure 159
2002
0000
0000
0000
,  // measure 160
0000
0000
0000
3003
;
