#VERSION:0.83;
#TITLE:The Five;
#SUBTITLE:;
#ARTIST:CRANKY;
#TITLETRANSLIT:;
#SUBTITLETRANSLIT:;
#ARTISTTRANSLIT:;
#GENRE:;
#ORIGIN:;
#CREDIT:;
#BANNER:The Five.png;
#BACKGROUND:;
#PREVIEWVID:;
#JACKET:The Five-jacket.png;
#CDIMAGE:;
#DISCIMAGE:;
#LYRICSPATH:;
#CDTITLE:;
#MUSIC:The Five.ogg;
#OFFSET:-0.040000;
#SAMPLESTART:18.019970;
#SAMPLELENGTH:15.000000;
#SELECTABLE:YES;
#BPMS:0.000=160.000;
#STOPS:;
#DELAYS:;
#WARPS:;
#TIMESIGNATURES:0.000=4=4;
#TICKCOUNTS:0.000=4;
#COMBOS:0.000=1;
#SPEEDS:0.000=1.000=0.000=0;
#SCROLLS:0.000=1.000;
#FAKES:;
#LABELS:0.000=Song Start;
#BGCHANGES:;
#KEYSOUNDS:;
#ATTACKS:
;

//---------------dance-single - ----------------
#NOTEDATA:;
#CHARTNAME:;
#STEPSTYPE:dance-single;
#DESCRIPTION:;
#CHARTSTYLE:;
#DIFFICULTY:Easy;
#METER:5;
#RADARVALUES:0.338382,0.439484,0.495193,0.231090,0.000000,287.000000,227.000000,60.000000,28.000000,0.000000,0.000000,0.000000,0.000000,0.000000,0.338382,0.439484,0.495193,0.231090,0.000000,287.000000,227.000000,60.000000,28.000000,0.000000,0.000000,0.000000,0.000000,0.000000;
#CREDIT:;
#NOTES:
0000
0000
0000
0000
,
0000
0000
0000
0000
,
0000
0000
0000
0000
,
0000
0000
0000
0000
,
2001
0000
3100
0000
,
1002
0000
0103
0000
,
0220
0330
2002
3003
,
2200
3300
0202
0303
,
1000
1000
0010
1001
,
0001
0001
0010
1001
,
1000
0100
1000
1001
,
0001
1000
0010
1010
,
1000
1000
0010
0110
,
0100
0100
0001
0110
,
1000
1000
0001
1001
,
0001
0001
1000
1001
,
1000
0100
0001
0100
,
1000
0100
0001
0100
,
1000
0100
0001
0100
,
1000
0100
0001
0100
,
1000
1000
0001
0001
,
1000
1000
0001
0001
,
1000
1000
0001
0001
,
1000
1000
0001
0001
,
1100
0010
0100
0010
,
1000
0001
1000
1000
,
2001
0001
0100
3001
,
1002
0010
1000
0103
,
2001
0000
0100
3000
,
1002
0000
0100
0003
,
2001
0000
0010
3000
,
1002
0000
0010
0003
,
2001
0000
0100
3000
,
1002
0000
0100
0003
,
2000
0000
3200
0000
,
0320
0000
0032
0000
,
1003
0010
1010
1010
,
0001
0010
0011
0011
,
1000
0101
0001
1100
,
1000
0101
0001
1100
,
1010
0101
0001
1000
,
0011
1100
1000
0001
,
1000
1000
0001
0001
,
1000
1000
0001
0001
,
1000
0010
0100
0001
,
1001
0100
0001
0100
,
1001
0100
1000
1001
,
0001
0100
0001
1001
,
1000
0010
1000
1001
,
0001
0100
0001
1001
,
1000
1000
1000
1100
,
0001
0001
0001
0101
,
2000
0000
0010
3000
,
0002
0000
0010
0003
,
2000
0000
0100
3000
,
0002
0000
0100
0003
,
1000
0100
1000
1100
,
0001
0010
0001
0011
,
1000
0101
0001
1100
,
1000
0101
0001
1100
,
1000
0101
1000
0101
,
0001
1100
0001
1100
,
1000
1000
0010
1001
,
0001
0001
0010
1001
,
1000
0100
1000
1001
,
0001
1000
0010
0110
,
1000
1000
0010
0110
,
0100
0100
0001
1001
,
1000
0001
2002
0000
,
0000
0000
0000
0000
,
0000
0000
0000
0000
,
3003
0000
0000
0000
;

//---------------dance-single - ----------------
#NOTEDATA:;
#CHARTNAME:;
#STEPSTYPE:dance-single;
#DESCRIPTION:;
#CHARTSTYLE:;
#DIFFICULTY:Medium;
#METER:6;
#RADARVALUES:0.333666,0.439484,0.288863,0.198077,0.000000,283.000000,248.000000,35.000000,24.000000,0.000000,0.000000,0.000000,0.000000,0.000000,0.333666,0.439484,0.288863,0.198077,0.000000,283.000000,248.000000,35.000000,24.000000,0.000000,0.000000,0.000000,0.000000,0.000000;
#CREDIT:;
#NOTES:
0000
0000
0000
0000
,
0000
0000
0000
0000
,
0000
0000
0000
0000
,
0000
0000
0000
0000
,
0001
0100
0001
0010
,
0100
1000
0010
1000
,
1000
1100
1000
1100
,
0001
0010
0001
1001
,
0001
0100
0010
0010
,
1000
0001
1000
0001
,
0002
0000
0023
0000
,
0230
0000
1300
1000
,
1000
0011
0001
0100
,
0001
1010
1000
0100
,
0010
1001
0100
0010
,
0110
0010
1001
0000
,
0001
1100
1000
0010
,
1000
0101
0001
0010
,
0100
0110
0010
0110
,
1001
0000
0110
0100
,
1000
0100
1100
0000
,
0001
0100
0101
0000
,
1000
0100
0010
0001
,
1001
0000
0110
0000
,
0002
0000
0013
0001
,
2000
0000
3010
1000
,
2002
3003
0001
0010
,
0011
0010
0100
1001
,
2000
0000
3200
0000
,
0320
0000
0032
0000
,
2003
0000
3002
0000
,
0203
0000
0320
0000
,
1030
0100
1000
0001
,
0010
0001
0001
0001
,
1000
0100
0010
0100
,
1000
0000
0001
1001
,
0001
0100
0001
1000
,
0010
1000
1000
1000
,
0001
0100
0010
0110
,
0100
0010
1000
0100
,
1000
0100
1000
0001
,
0010
0002
1003
2000
,
3100
0100
1000
1001
,
1000
2000
3001
1100
,
0001
0002
1003
0101
,
1000
0001
0011
0100
,
1100
1000
0100
0011
,
0101
0000
1000
0000
0010
0000
0100
0100
,
0010
0000
1000
0000
0010
0000
0100
0100
,
0001
0000
0001
0000
1000
0000
0010
0010
,
1000
0000
0001
0000
0100
0000
0010
1000
,
0100
1000
2000
0000
0010
0000
0000
0000
,
3010
0200
0010
0000
,
0310
2000
0001
0000
,
3001
1000
0002
0000
,
0103
0100
0010
0010
,
1000
1000
0100
0010
,
0001
0001
0010
0100
,
1000
1000
0100
0010
,
0001
0001
0100
0010
,
1000
0001
1000
0000
0010
0000
0100
0000
,
0001
1000
0001
0000
0100
0000
0010
0000
,
1000
0001
1000
0000
0010
0000
0100
0000
,
0001
1000
0001
0000
0100
0000
0010
0000
,
1000
0100
1000
0000
0001
0000
1000
0000
,
0001
0100
0001
0000
1000
0000
0100
0000
,
0100
1100
0101
1100
,
0101
1001
1000
0001
,
0010
0001
1000
0100
0010
0002
0000
0000
,
0000
0000
0000
0000
,
0000
0000
0000
0000
,
0003
0000
0000
0000
;

//---------------dance-single - ----------------
#NOTEDATA:;
#CHARTNAME:;
#STEPSTYPE:dance-single;
#DESCRIPTION:;
#CHARTSTYLE:;
#DIFFICULTY:Hard;
#METER:9;
#RADARVALUES:0.518774,0.556679,0.148558,0.074279,0.400281,440.000000,422.000000,18.000000,9.000000,0.000000,0.000000,0.000000,0.000000,0.000000,0.518774,0.556679,0.148558,0.074279,0.400281,440.000000,422.000000,18.000000,9.000000,0.000000,0.000000,0.000000,0.000000,0.000000;
#CREDIT:;
#NOTES:
0000
0000
0000
0000
,
0000
0000
0000
0000
,
0000
0000
0000
0000
,
0000
0000
0000
0000
,
1000
1000
0010
0010
0100
0001
0010
0001
,
0100
0100
0010
0010
1000
0100
0010
0001
,
0100
0100
0001
0001
0010
0001
1000
0010
,
0100
0100
0001
0001
1000
0010
0100
0001
,
1000
1000
0001
0001
0100
0010
1000
0001
,
0010
0010
0001
0001
1000
0100
0010
0100
,
1000
1000
0010
0010
0100
0001
0100
0010
,
1000
1000
0010
0010
0100
0001
1001
0000
,
1000
0000
0000
1000
0010
0000
0000
0010
0100
0000
0000
0100
0001
0000
0000
0001
,
1000
0000
0000
1000
0100
0000
0000
0100
0010
0000
0000
0010
0001
0000
0000
0001
,
1000
0000
0000
1000
0100
0000
0000
0100
0001
0000
0000
0001
0100
0000
0000
0100
,
1000
0000
0000
1000
0010
0000
0000
0010
0001
0000
0000
0001
0010
0000
0000
0010
,
1000
0000
0000
1000
0001
0000
0000
0001
0100
0000
0000
0100
0010
0000
0000
0010
,
1000
0000
0000
1000
0100
0000
0000
0100
0010
0000
0000
0010
0001
0000
0000
0001
,
1000
0000
0000
1000
0010
0000
0000
0010
0100
0000
0000
0100
0001
0000
0000
0001
,
1000
0000
0000
1000
0010
0000
0000
0010
0100
0000
0000
0100
0001
0000
0000
0001
,
1000
0110
1000
0110
,
0001
0110
0001
0110
,
1000
0110
0001
0110
,
1000
0110
1001
0110
,
1000
1000
0010
0100
0001
0010
0100
0010
,
0001
0001
0100
0010
1000
0100
0010
0100
,
1000
1000
0010
0100
0001
0010
0001
0100
,
0001
0001
0100
0010
1000
0100
0010
0100
,
2100
0000
3100
0000
,
0102
0000
0103
0000
,
2100
0000
3100
0000
,
0102
0000
0103
0000
,
1000
0001
1000
0001
,
0100
0010
0100
0010
,
1000
0100
0001
0100
,
1000
0001
1001
0110
,
1001
1000
0100
1000
0100
1000
0100
1000
,
0001
0010
0001
0010
0001
0010
0001
0010
,
0001
1000
0001
1000
0001
1000
0001
1000
,
0010
0100
0010
0100
0010
0100
0010
0100
,
0010
1000
0010
1000
0010
1000
0010
1000
,
0001
0100
0001
0100
0001
0100
0001
0100
,
0001
0010
0001
0010
0001
0010
0001
0010
,
0100
1000
0100
1000
0100
1000
0100
1000
,
0001
0000
0000
0001
1000
0000
0000
1000
0010
0000
0000
0010
0100
0000
0000
0100
,
0010
0000
0000
0010
1000
0000
0000
1000
0100
0000
0000
0100
0010
0000
0000
0010
,
0001
0000
0000
0001
1000
0000
0000
1000
0010
0000
0000
0010
0100
0000
0000
0100
,
0001
0000
0000
0001
1000
0000
0000
1000
0010
0000
0000
0010
0100
0000
0000
0100
,
0001
0000
0000
0001
0010
0000
0000
0010
0100
0000
0000
0100
1000
0000
0000
1000
,
0100
0000
0000
0100
0010
0000
0000
0010
0001
0000
0000
0001
0010
0000
0000
0010
,
0100
0000
0000
0100
1000
0000
0000
1000
0100
0000
0000
0100
0001
0000
0000
0001
,
0100
1000
0100
1000
0100
0001
0100
1000
,
1002
0000
0000
0000
,
0000
0100
0100
0100
,
0203
0000
0000
0000
,
0010
0010
0010
0010
,
0302
0000
0000
0000
,
2000
0000
0000
3003
,
1000
1000
1000
1000
,
1000
0100
0010
0001
1000
0100
0010
0001
,
1000
0000
0000
1000
0010
0000
0000
0010
0100
0000
0000
0100
0001
0000
0000
0001
,
1000
0000
0000
1000
0100
0000
0000
0100
0010
0000
0000
0010
0001
0000
0000
0001
,
1000
0000
0000
1000
0100
0000
0000
0100
0001
0000
0000
0001
0100
0000
0000
0100
,
1000
0000
0000
1000
0010
0000
0000
0010
0001
0000
0000
0001
0010
0000
0000
0010
,
1000
0000
0000
1000
0001
0000
0000
0001
0100
0000
0000
0100
0010
0000
0000
0010
,
1000
0000
0000
1000
0100
0000
0000
0100
0010
0000
0000
0010
0001
0000
0000
0001
,
1000
0000
0000
1000
0010
0000
0000
0010
0100
0000
0000
0100
0001
0000
0000
0001
,
1000
0000
0000
1000
0010
0000
0000
0010
0100
0000
0000
0100
0001
0000
0000
0001
,
1000
0001
0000
0100
0000
0001
0000
0100
0001
1000
0020
0000
0000
0000
0000
0000
,
0000
0000
0000
0000
,
0000
0000
0000
0000
,
0030
0000
0000
0000
;

//---------------dance-single - ----------------
#NOTEDATA:;
#CHARTNAME:;
#STEPSTYPE:dance-single;
#DESCRIPTION:;
#CHARTSTYLE:;
#DIFFICULTY:Beginner;
#METER:2;
#RADARVALUES:0.142663,0.143400,0.000000,0.057773,0.000000,121.000000,121.000000,0.000000,7.000000,0.000000,0.000000,0.000000,0.000000,0.000000,0.142663,0.143400,0.000000,0.057773,0.000000,121.000000,121.000000,0.000000,7.000000,0.000000,0.000000,0.000000,0.000000,0.000000;
#CREDIT:;
#NOTES:
// measure 0
0000
0000
0000
0000
,  // measure 1
0000
0000
0000
0000
,  // measure 2
0000
0000
0000
0000
,  // measure 3
0000
0000
0000
0000
,  // measure 4
0001
0000
0100
0000
,  // measure 5
1000
0000
0100
0000
,  // measure 6
0010
0000
0001
0000
,  // measure 7
1000
0000
0001
0000
,  // measure 8
1000
1000
0000
0000
,  // measure 9
0001
0001
0000
0000
,  // measure 10
1000
1000
0000
0000
,  // measure 11
0001
0001
0000
0000
,  // measure 12
1000
0000
0010
0000
,  // measure 13
0100
0000
0001
0000
,  // measure 14
1000
0000
0001
0000
,  // measure 15
0001
0000
1000
0000
,  // measure 16
0010
0000
0100
0000
,  // measure 17
0010
0000
0100
0000
,  // measure 18
0001
0000
1000
0000
,  // measure 19
0001
0000
1000
0000
,  // measure 20
1000
1000
0000
0000
,  // measure 21
1000
1000
0000
0000
,  // measure 22
0001
0001
0000
0000
,  // measure 23
0001
0001
0000
0000
,  // measure 24
1000
0000
0100
0000
,  // measure 25
0010
0000
0001
0000
,  // measure 26
1000
0000
0100
0000
,  // measure 27
0010
0000
0001
0000
,  // measure 28
2000
0000
0000
0000
,  // measure 29
3000
0000
0000
0000
,  // measure 30
0002
0000
0000
0000
,  // measure 31
0003
0000
0000
0000
,  // measure 32
2000
0000
3000
0000
,  // measure 33
0002
0000
0003
0000
,  // measure 34
0200
0000
0300
0000
,  // measure 35
0020
0000
0030
0000
,  // measure 36
1000
0000
1000
0000
,  // measure 37
0001
0000
0001
0000
,  // measure 38
1000
0000
0001
0000
,  // measure 39
1000
0000
0001
0000
,  // measure 40
1000
0000
0001
0000
,  // measure 41
0100
0000
0010
0000
,  // measure 42
1000
0000
0001
0000
,  // measure 43
0100
0000
0010
0000
,  // measure 44
1000
1000
0000
0000
,  // measure 45
0001
0001
0000
0000
,  // measure 46
1000
1000
0000
0000
,  // measure 47
0001
0001
0000
0000
,  // measure 48
0100
0100
0000
0000
,  // measure 49
0010
0010
0000
0000
,  // measure 50
0100
0100
0000
0000
,  // measure 51
0010
0010
0000
0000
,  // measure 52
1000
0000
0010
0000
,  // measure 53
0001
0000
0010
0000
,  // measure 54
1000
0000
0100
0000
,  // measure 55
0001
0000
0100
0000
,  // measure 56
1000
0000
1000
0000
,  // measure 57
0001
0000
0001
0000
,  // measure 58
1000
0000
0001
0000
,  // measure 59
1000
0000
0001
0000
,  // measure 60
1000
1000
0000
0000
,  // measure 61
0001
0001
0000
0000
,  // measure 62
0100
0100
0000
0000
,  // measure 63
0010
0010
0000
0000
,  // measure 64
1000
1000
0000
0000
,  // measure 65
0001
0001
0000
0000
,  // measure 66
0100
0100
0000
0000
,  // measure 67
0010
0010
0000
0000
,  // measure 68
0100
0100
0200
0000
,  // measure 69
0000
0000
0300
0000
;
