#TITLE:TOBIRA WO AKETE;
#SUBTITLE:~OPEN THE DOOR~;
#ARTIST:ANZA;
#TITLETRANSLIT:;
#SUBTITLETRANSLIT:;
#ARTISTTRANSLIT:;
#GENRE:;
#CREDIT:;
#BANNER:TOBIRA WO AKETE.png;
#BACKGROUND:;
#LYRICSPATH:;
#CDTITLE:;
#MUSIC:Tobira wo Akete.ogg;
#OFFSET:-0.460000;
#SAMPLESTART:41.439995;
#SAMPLELENGTH:15.000000;
#SELECTABLE:YES;
#BPMS:0.000000=124.399994
;
#STOPS:
;
#BGCHANGES:;
#KEYSOUNDS:;
#ATTACKS:;

//---------------dance-single - ----------------
#NOTES:
     dance-single:
     :
     Hard:
     7:
     0.391899,0.510380,0.306228,0.204152,0.146734,215.000000,191.000000,24.000000,16.000000,0.000000,0.000000,0.391899,0.510380,0.306228,0.204152,0.146734,215.000000,191.000000,24.000000,16.000000,0.000000,0.000000:
0000
0000
0000
0000
,
0000
0000
0000
0000
,
0000
0000
0000
0000
,
0000
0000
0000
0000
,
0000
0101
1010
0101
,
0001
0010
0100
1000
0100
0010
0001
0000
,
1000
0100
0010
0001
0010
0100
1000
0000
,
1000
0000
0000
1000
0000
0000
1000
0000
1000
0000
0000
0000
0110
0000
0000
0000
,
1000
0010
1000
0100
1000
0010
1000
0000
,
0001
0000
0000
0001
0000
0000
0001
0000
0001
0000
0000
0000
0110
0000
0000
0000
,
0001
0010
0001
0100
0001
0010
0001
0000
,
1000
0000
0000
1000
0000
0000
1000
0000
1000
0000
0000
0000
1001
0000
0000
0000
,
1000
0001
1000
0010
1000
0100
1000
0010
,
1000
0001
1000
0100
1000
0010
1000
0000
,
1002
0000
0100
0103
,
1002
0000
0000
1000
0000
0000
2000
0000
0000
0000
0000
0000
3003
0000
0000
0000
,
2001
0000
0000
0001
0000
0000
0001
0000
0000
0000
0100
0000
0100
0000
0200
0000
,
0000
0000
0000
0000
,
0300
0000
0001
0000
0001
0000
0001
3000
,
0001
0000
0000
0100
0000
0000
0001
0000
0100
0000
0000
0000
1001
0000
0000
0000
,
1000
0000
0000
0100
0000
0000
1000
0000
0100
0000
0000
0000
1002
0000
0000
0000
,
0100
0010
0100
1003
,
1000
0000
0000
0100
0000
0000
0010
0000
0100
0000
0000
1000
0000
0000
0010
0000
,
0100
0000
0000
0010
0000
0000
1000
0000
0100
0000
0010
0000
0001
0000
1000
0000
,
0001
0000
0000
0100
0000
0000
0001
0000
0010
0000
0001
0000
0100
0000
0001
0000
,
1000
0000
1001
0000
0110
0010
0100
0010
,
1000
0000
0000
0100
0000
0000
1000
0000
0010
0000
0000
0100
0000
0000
0001
0000
,
0010
0000
0000
0001
0000
0000
0100
0000
0001
0000
1000
0000
0010
0000
1000
0000
,
2200
0000
3300
0022
0000
0000
0033
0000
,
1001
0110
1001
1100
,
1000
0000
0001
1000
0000
0001
1000
0000
0001
0000
1000
0001
0000
1000
0001
0000
,
0100
0000
0010
0100
0000
0010
0100
0000
0010
0000
0100
0000
0010
0000
0100
0000
,
0001
0000
0000
1000
0000
0000
0001
0000
0010
0000
0100
0000
1000
0000
0100
0000
,
0010
0000
0011
0000
1100
1000
0100
0010
,
0001
0000
0000
0001
0000
0000
0002
0000
0100
0000
0100
0000
0103
0000
0000
0000
,
1000
0000
0000
1000
0000
0000
2000
0000
0100
0000
0100
0000
3100
0000
0000
0000
,
0000
1000
0100
0010
0001
0010
0200
2000
,
0000
0000
0000
3300
,
0110
1001
0012
0100
,
2000
0000
0000
0000
,
3003
0000
0000
0000
;

//---------------dance-single - ----------------
#NOTES:
     dance-single:
     :
     Medium:
     4:
     0.260658,0.331747,0.191392,0.548658,0.063797,143.000000,128.000000,15.000000,43.000000,0.000000,0.000000,0.260658,0.331747,0.191392,0.548658,0.063797,143.000000,128.000000,15.000000,43.000000,0.000000,0.000000:
0000
0000
0000
0000
,
0000
0000
0000
0000
,
0000
0000
0000
0000
,
0000
0000
0000
0000
,
0000
1001
0110
1000
,
1000
0001
1000
0001
2000
0000
3000
0000
,
0001
1000
0001
1000
0002
0000
0003
0000
,
1000
0000
0000
1000
0000
0000
1000
0000
1000
0000
0000
0000
0000
0000
0000
0000
,
1000
0100
0010
0001
,
0001
0000
0000
0001
0000
0000
0001
0000
0001
0000
0000
0000
0000
0000
0000
0000
,
0001
0010
0100
1000
,
1000
0000
0000
1000
0000
0000
1000
0000
1000
0000
0000
0000
0000
0000
0000
0000
,
1000
0001
0100
0010
,
1000
0100
0010
0001
,
2002
3003
0110
1001
,
1002
0000
0000
1000
0000
0000
2000
0000
0000
0000
0000
0000
3003
0000
0000
0000
,
2001
0000
0000
0001
0000
0000
0001
0000
0000
0000
0100
0000
0100
0000
0200
0000
,
0000
0000
0000
0000
,
0000
0000
0000
0000
0000
0000
0000
3300
,
0001
0000
0000
0001
0000
0000
0002
0000
0000
0000
0000
0000
0003
0000
0000
0000
,
1000
0000
0000
1000
0000
0000
2000
0000
0000
0000
0000
0000
3000
0000
0000
0000
,
1002
0100
0020
0033
,
2000
3002
0203
0320
,
2030
3200
0320
0032
,
0203
0302
2003
3020
,
0130
0110
1001
0110
,
1002
2003
3200
0320
,
0230
2300
3020
0230
,
0302
0203
0320
2030
,
3200
2300
3010
1001
,
1000
0000
0000
1000
0000
0000
1000
0000
0001
0000
0000
0001
0000
0000
0001
0000
,
0100
0000
0000
0100
0000
0000
0100
0000
0010
0000
0000
0000
1000
0000
0000
0000
,
0100
0001
0010
1000
,
0100
0001
0010
1000
,
0002
0000
0100
0103
,
2000
0000
0100
3100
,
1000
0100
0001
0010
,
2000
0000
0000
0000
,
3000
1001
0100
0010
,
2002
0000
0000
0000
,
3003
0000
0000
0000
;

//---------------dance-single - ----------------
#NOTES:
     dance-single:
     :
     Easy:
     2:
     0.160405,0.255190,0.089316,0.472101,0.000000,88.000000,81.000000,7.000000,37.000000,0.000000,0.000000,0.160405,0.255190,0.089316,0.472101,0.000000,88.000000,81.000000,7.000000,37.000000,0.000000,0.000000:
0000
0000
0000
0000
,
0000
0000
0000
0000
,
0000
0000
0000
0000
,
0000
0000
0000
0000
,
0000
0000
0000
0000
,
1000
1000
2000
3000
,
0001
0001
0002
0003
,
2000
0000
3000
0000
,
1000
0100
0010
0001
,
0002
0000
0003
0000
,
0001
0010
0100
1000
,
2000
0000
3000
0000
,
1000
0001
0100
0010
,
1000
0100
0010
0001
,
2002
3003
0000
0000
,
2002
0000
0000
3003
,
0220
0000
0000
0330
,
2002
0000
0000
0000
,
0000
0000
0000
3003
,
0002
0000
0000
0003
,
2000
0000
0000
3000
,
0001
1000
0001
1000
,
2000
0000
3002
0000
,
0203
0000
0320
0000
,
1030
0100
0010
0001
,
0010
0100
1000
0100
,
0020
0000
0032
0000
,
0203
0000
0320
0000
,
2030
0000
3200
0000
,
1300
0010
0100
0001
,
2000
0000
3020
0000
,
0230
0000
0302
0000
,
2003
0000
3002
0000
,
0103
0100
0100
0100
,
2002
0000
0000
3003
,
0220
0000
0000
0330
,
1000
0001
1000
0001
,
1000
0100
0010
0001
,
0000
0100
0100
0100
,
2002
0000
0000
0000
,
3003
0000
0000
0000
;

//---------------dance-single - ----------------
#NOTES:
     dance-single:
     :
     Beginner:
     1:
     0.102076,0.204152,0.012759,0.114835,0.000000,56.000000,55.000000,1.000000,9.000000,0.000000,0.000000,0.102076,0.204152,0.012759,0.114835,0.000000,56.000000,55.000000,1.000000,9.000000,0.000000,0.000000:
// measure 0
0000
0000
0000
0000
,  // measure 1
0000
0000
0000
0000
,  // measure 2
0000
0000
0000
0000
,  // measure 3
0000
0000
0000
0000
,  // measure 4
0000
0000
0000
0000
,  // measure 5
2000
0000
3000
0000
,  // measure 6
0002
0000
0003
0000
,  // measure 7
1000
1000
0000
0000
,  // measure 8
1000
0000
0010
0000
,  // measure 9
0001
0001
0000
0000
,  // measure 10
0001
0000
0100
0000
,  // measure 11
1000
1000
0000
0000
,  // measure 12
1000
0000
0100
0000
,  // measure 13
0010
0000
0001
0000
,  // measure 14
1000
0000
0001
0000
,  // measure 15
1000
1000
1000
0000
,  // measure 16
0001
0001
0001
0000
,  // measure 17
2002
0000
0000
0000
,  // measure 18
0000
0000
0000
3003
,  // measure 19
0001
0001
0001
0000
,  // measure 20
1000
1000
1000
0000
,  // measure 21
0000
0000
0000
0000
,  // measure 22
1000
0000
1000
0000
,  // measure 23
1000
0000
1000
0000
,  // measure 24
2000
0000
0000
0000
,  // measure 25
3000
0000
0000
0000
,  // measure 26
0001
0000
0001
0000
,  // measure 27
0001
0000
0001
0000
,  // measure 28
0002
0000
0000
0000
,  // measure 29
0003
0000
0000
0000
,  // measure 30
0100
0000
0100
0000
,  // measure 31
0100
0000
0100
0000
,  // measure 32
0200
0000
0000
0000
,  // measure 33
0300
0000
0000
0000
,  // measure 34
0010
0000
0010
0000
,  // measure 35
0010
0000
0010
0000
,  // measure 36
0020
0000
0000
0000
,  // measure 37
0030
0000
0000
0000
,  // measure 38
0000
0100
0100
0100
,  // measure 39
0200
0000
0000
0000
,  // measure 40
0300
0000
0000
0000
;
