#TITLE:Starry Eyed;
#SUBTITLE:;
#ARTIST:Ellie Goulding;
#TITLETRANSLIT:;
#SUBTITLETRANSLIT:;
#ARTISTTRANSLIT:;
#GENRE:;
#CREDIT:;
#BANNER:;
#BACKGROUND:;
#LYRICSPATH:;
#CDTITLE:;
#MUSIC:Starry Eyed.ogg;
#OFFSET:-0.106000;
#SAMPLESTART:36.839001;
#SAMPLELENGTH:15.050000;
#SELECTABLE:YES;
#DISPLAYBPM:150.000000;
#BPMS:0.000000=150.000000
;
#STOPS:
;
#BGCHANGES:;
#KEYSOUNDS:;
#ATTACKS:;

//---------------dance-single - ----------------
#NOTES:
     dance-single:
     :
     Hard:
     8:
     0.557102,0.550988,0.237975,0.337770,0.234136,508.000000,477.000000,31.000000,44.000000,0.000000,0.000000,0.557102,0.550988,0.237975,0.337770,0.234136,508.000000,477.000000,31.000000,44.000000,0.000000,0.000000:
0000
0000
0000
0000
,
0000
0000
0000
0000
,
0000
0000
0000
0000
,
0000
0000
0000
0000
,
1000
0110
0110
0001
,
1000
0100
1000
0100
1000
0100
1000
0000
,
0001
0100
0001
0100
0001
0100
0001
0000
,
1000
0010
0000
0001
0010
0000
1010
0000
,
0011
1001
0110
1001
,
1000
0100
0010
0001
1000
0001
1001
0000
,
0001
0100
0001
0100
0010
1000
0010
1000
,
0001
0010
0001
0010
0100
1000
0100
1000
,
0010
1000
0010
1000
0001
0010
0001
0010
,
0100
1000
0100
1000
0001
1000
0001
1000
,
0010
0100
0010
0100
0001
1000
0001
1000
,
0100
1000
0100
1000
0001
0010
0001
0010
,
0001
0100
0001
0100
0010
1000
0010
1000
,
0100
1000
0100
1000
0001
0010
0001
0010
,
0001
1000
0001
1000
0001
1000
0001
1000
,
0010
0100
0010
0100
0010
0100
0010
0100
,
0001
0010
0100
1000
0001
0010
0100
1000
,
0001
0010
0100
1000
1001
0000
0110
0000
,
1002
0100
0100
0103
,
1000
0000
0000
1000
0001
0000
0000
0001
0100
0000
0000
0100
0010
0000
0000
0010
,
1000
0000
0000
1000
0100
0000
0000
0100
0010
0000
0000
0010
0001
0000
0000
0001
,
0100
0000
0000
0100
0010
0000
0000
0010
1000
0000
0000
1000
0100
0000
0000
0100
,
1000
0000
0000
1000
0001
0000
0000
0001
0100
0000
0000
0100
0001
0000
0000
0001
,
0010
0000
0000
0010
0001
0000
0000
0001
1000
0000
0000
1000
0100
0000
0000
0100
,
1000
0000
0000
1000
0010
0000
0000
0010
0100
0000
0000
0100
0001
0000
0000
0001
,
1000
0000
0000
1000
0010
0000
0000
0010
0100
0000
0000
0100
0010
0000
0000
0010
,
1000
0000
0000
1000
0001
0000
0000
0001
0100
0000
0000
0100
0001
0000
0000
0001
,
1000
0100
1000
0000
1100
0000
1001
0000
,
1100
0000
0001
0100
0001
1000
0010
1000
,
0010
0100
0001
0000
0101
0000
1001
0000
,
0101
0000
0001
1000
0100
1000
0001
1000
,
0100
1000
0010
0000
1010
0000
0110
0000
,
1010
0000
0010
0100
0001
0010
0001
0001
,
0100
0001
1000
0100
1000
0010
0100
0100
,
0001
1000
0100
1000
0010
0100
0001
0010
,
0002
0203
0320
2030
,
3200
2300
3020
0230
,
0302
2003
3020
0230
,
0302
0203
0320
2030
,
3200
0320
0230
2300
,
3002
0203
0320
0230
,
0302
0023
0032
2003
,
3200
2300
3020
0230
,
0310
0000
1000
0010
1000
0000
0010
0000
0100
0000
0001
0000
0010
0000
0001
0000
,
1000
0100
1000
0010
0100
0001
0100
0010
,
1000
0100
1000
0010
0100
0001
0010
0001
,
0100
0001
0010
0001
1000
0100
1000
0010
,
0100
0010
1000
0100
1000
0010
0100
0001
,
0010
0001
0100
0010
1000
0100
1000
0010
,
0100
0001
0010
0001
0100
0010
1000
0010
,
0100
0010
1000
0001
0100
0010
1000
0001
,
1000
0100
0010
0001
1000
0100
0010
0001
,
2002
0000
3000
0200
,
0000
0000
0300
0000
1000
1000
1000
0000
,
1000
0010
2000
0000
,
0000
0000
0000
0003
0100
0100
0100
0000
,
0020
0000
0030
0002
,
0000
0000
3000
0000
0100
0100
0100
0000
,
0000
0010
0000
0010
0020
0000
0000
0000
,
0000
0000
0030
0000
1000
0000
1003
0020
,
2000
0000
0000
3030
,
1000
0000
0000
1000
0100
0000
0000
0100
0010
0000
0000
0010
0001
0000
0000
0001
,
0100
0000
0000
0100
0010
0000
0000
0010
1000
0000
0000
1000
0100
0000
0000
0100
,
1000
0000
0000
1000
0001
0000
0000
0001
0100
0000
0000
0100
0001
0000
0000
0001
,
0010
0000
0000
0010
0001
0000
0000
0001
1000
0000
0000
1000
0100
0000
0000
0100
,
1000
0000
0000
1000
0010
0000
0000
0010
0100
0000
0000
0100
0001
0000
0000
0001
,
1000
0000
0000
1000
0010
0000
0000
0010
0100
0000
0000
0100
0010
0000
0000
0010
,
1000
0000
0000
1000
0001
0000
0000
0001
0100
0000
0000
0100
0001
0000
0000
0001
,
1000
0100
1000
0000
1100
0000
1001
0000
,
1100
0000
0001
0100
0001
1000
0010
1000
,
0010
0100
0001
0000
0101
0000
1001
0000
,
0101
0000
0001
1000
0100
1000
0001
1000
,
0100
1000
0010
0000
1010
0000
0110
0000
,
1010
0000
0010
0100
0001
0010
0001
0001
,
0100
0001
1000
0100
1000
0010
0100
0100
,
0220
0000
0000
0330
;

//---------------dance-single - ----------------
#NOTES:
     dance-single:
     :
     Medium:
     7:
     0.448533,0.520378,0.383830,0.345447,0.000000,409.000000,359.000000,50.000000,45.000000,0.000000,0.000000,0.448533,0.520378,0.383830,0.345447,0.000000,409.000000,359.000000,50.000000,45.000000,0.000000,0.000000:
0000
0000
0000
0000
,
0000
0000
0000
0000
,
0000
0000
0000
0000
,
0000
0000
0000
0000
,
0000
0110
0110
0000
,
1000
0100
1000
0100
1000
0000
1000
0000
,
0001
0100
0001
0100
0001
0000
0001
0000
,
1000
0001
0010
1001
,
0100
1001
0110
1001
,
1000
0100
0010
0001
1000
0000
1001
0000
,
0001
0100
0001
0000
1000
0010
1000
0000
,
0001
0010
0001
0000
1000
0100
1000
0000
,
0010
1000
0010
0000
1000
0010
1000
0000
,
0100
1000
0100
0000
1000
0001
1000
0000
,
0010
0100
0010
0000
1000
0001
1000
0000
,
0100
1000
0100
0000
1000
0010
1000
0000
,
0001
0100
0001
0000
1000
0010
1000
0000
,
0100
1000
0100
0000
0001
0010
0001
0000
,
0000
0011
1100
0000
,
1000
0001
1000
0001
,
0100
0100
0100
0100
,
0001
0010
0100
1000
0001
0000
0110
0000
,
1002
0100
0100
0103
,
1000
0001
0100
0101
,
0001
1000
0100
1100
,
1000
0001
0100
0101
,
0001
1000
0100
1100
,
1000
0001
0100
0110
,
0001
1000
0100
0110
,
1000
0100
0010
0011
,
0001
0010
0100
1100
,
1000
0100
1000
0000
1100
0000
1001
0000
,
1100
0000
0001
0100
0001
1000
0010
1000
,
0010
0100
0001
0000
0101
0000
1001
0000
,
0101
0000
0001
1000
0100
1000
0001
1000
,
0100
1000
0010
0000
1010
0000
0110
0000
,
1010
0000
0010
0100
0001
0010
0001
0000
,
0100
0001
1000
0100
1000
0010
0100
0000
,
0001
1000
0100
1000
0010
0100
0001
0000
,
0002
0203
0320
2030
,
3200
2300
3020
0230
,
0302
2003
3020
0230
,
0302
0203
0320
2030
,
3200
0320
0230
2300
,
3002
0203
0320
0230
,
0302
0023
0032
2003
,
3200
2300
3020
0230
,
0320
0000
1030
0010
1000
0010
1000
0000
,
0001
0100
0001
0100
0001
0100
0001
0000
,
1000
0100
1000
0100
1000
0100
1000
0000
,
0001
0010
0001
0010
0001
0010
0001
0000
,
0100
0010
0100
0010
0100
0010
0100
0000
,
0001
0010
0001
0010
0001
0010
0001
0000
,
1000
0100
1000
0100
1000
0100
1000
0000
,
0010
0100
0010
0100
,
1001
0110
1001
0110
,
2002
0000
3000
0200
,
0000
0000
0300
0000
1000
1000
1000
0000
,
1000
0010
2000
0000
,
0000
0000
0000
0003
0100
0100
0100
0000
,
0020
0000
0030
0002
,
0000
0000
3000
0000
0100
0100
0100
0000
,
0000
0010
0000
0010
0020
0000
0000
0000
,
0000
0000
0030
0000
1000
0000
1003
0020
,
2000
0000
0000
3030
,
0001
1000
0100
1100
,
1000
0001
0100
0101
,
0001
1000
0100
1100
,
1000
0001
0100
0110
,
0001
1000
0100
0110
,
1000
0100
0010
0011
,
0001
0010
0100
1100
,
1000
0100
1000
0000
1100
0000
1001
0000
,
1100
0000
0001
0100
0001
1000
0010
1000
,
0010
0100
0001
0000
0101
0000
1001
0000
,
0101
0000
0001
1000
0100
1000
0001
1000
,
0100
1000
0010
0000
1010
0000
0110
0000
,
1010
0000
0010
0100
0001
0010
0001
0000
,
0100
0001
1000
0100
1000
0010
0100
0000
,
2002
0000
0000
3003
;

//---------------dance-single - ----------------
#NOTES:
     dance-single:
     :
     Easy:
     4:
     0.320224,0.428546,0.345447,0.230298,0.000000,292.000000,247.000000,45.000000,30.000000,0.000000,0.000000,0.320224,0.428546,0.345447,0.230298,0.000000,292.000000,247.000000,45.000000,30.000000,0.000000,0.000000:
0000
0000
0000
0000
,
0000
0000
0000
0000
,
0000
0000
0000
0000
,
0000
0000
0000
0000
,
0000
0110
0110
0000
,
1000
1000
1000
1000
,
0001
0001
0001
0001
,
1000
0001
0010
1001
,
0100
1001
0110
1001
,
1000
0010
1000
1001
,
0001
0001
1000
1000
,
0001
0001
1000
1000
,
0010
0010
1000
1000
,
0100
0100
1000
1000
,
0010
0010
1000
1000
,
0100
0100
1000
1000
,
0001
0001
1000
1000
,
0001
0001
0100
0100
,
0000
0011
1100
0000
,
1000
0001
1000
0001
,
0100
0100
0100
0100
,
0001
0100
0010
1000
,
2002
0000
0000
3003
,
1000
0001
0100
0101
,
0001
1000
0100
1100
,
1000
0001
0100
0101
,
0001
1000
0100
1100
,
1000
0001
0100
0110
,
0001
1000
0100
0110
,
1000
0100
0010
0011
,
0001
0010
0100
1100
,
1000
1000
1100
1000
,
1100
0001
0001
0010
,
0010
0001
0101
0001
,
0101
0001
0100
0001
,
0100
0010
1010
0010
,
1010
0010
0001
0001
,
0100
1000
1000
0100
,
0001
0100
0010
0001
,
0002
0000
0023
0000
,
0230
0000
2300
0000
,
3002
0000
2003
0000
,
3020
0000
0230
0000
,
0302
0000
0023
0000
,
0230
0000
2300
0000
,
3002
0000
2003
0000
,
3020
0000
0230
0000
,
0310
1001
1000
1000
,
0001
0001
0001
0001
,
1000
1000
1000
1000
,
0001
0001
0001
0001
,
0100
0100
0100
0100
,
0010
0010
0010
0010
,
0100
0100
0100
0100
,
0010
0010
0010
0010
,
1001
0100
0100
0100
,
2002
0000
0000
0000
,
0000
0000
3003
0000
,
0220
0000
0000
0000
,
0000
0000
0330
0000
,
2200
0000
0000
0000
,
0000
0000
3300
0000
,
0022
0000
0000
0000
,
0000
0000
0033
0000
,
0220
0000
0330
0000
,
0001
1000
0100
1100
,
1000
0001
0100
0101
,
0001
1000
0100
1100
,
1000
0001
0100
0110
,
0001
1000
0100
0110
,
1000
0100
0010
0011
,
0001
0010
0100
1100
,
1000
1000
1100
1000
,
1100
0001
0001
0010
,
0010
0001
0101
0001
,
0101
1000
0100
1000
,
0100
0010
1010
0010
,
0110
0100
0001
0001
,
0100
0010
1000
0100
,
2002
0000
0000
3003
;

//---------------dance-single - ----------------
#NOTES:
     dance-single:
     :
     Beginner:
     3:
     0.151339,0.214273,0.023030,0.138179,0.000000,138.000000,135.000000,3.000000,18.000000,0.000000,0.000000,0.151339,0.214273,0.023030,0.138179,0.000000,138.000000,135.000000,3.000000,18.000000,0.000000,0.000000:
// measure 0
0000
0000
0000
0000
,  // measure 1
0000
0000
0000
0000
,  // measure 2
0000
0000
0000
0000
,  // measure 3
0000
0000
0000
0000
,  // measure 4
0000
0100
0100
0000
,  // measure 5
1000
1000
1000
0000
,  // measure 6
0001
0001
0001
0000
,  // measure 7
1000
0000
0010
0000
,  // measure 8
0100
0000
0010
0000
,  // measure 9
1000
0000
0001
0000
,  // measure 10
0001
0001
0000
0000
,  // measure 11
1000
1000
0000
0000
,  // measure 12
0010
0010
0000
0000
,  // measure 13
0100
0100
0000
0000
,  // measure 14
0010
0010
0000
0000
,  // measure 15
0100
0100
0000
0000
,  // measure 16
0001
0001
0000
0000
,  // measure 17
1000
1000
0000
0000
,  // measure 18
0000
0010
0010
0000
,  // measure 19
1000
0000
1000
0000
,  // measure 20
0100
0000
0100
0000
,  // measure 21
0010
0000
0010
0000
,  // measure 22
0002
0000
0003
0000
,  // measure 23
1000
0000
0100
0000
,  // measure 24
0001
0000
0100
0000
,  // measure 25
1000
0000
0100
0000
,  // measure 26
0001
0000
0100
0000
,  // measure 27
1000
0000
0100
0000
,  // measure 28
0001
0000
0100
0000
,  // measure 29
1000
0000
0010
0000
,  // measure 30
0001
0000
0100
0000
,  // measure 31
1000
0000
1000
0000
,  // measure 32
0100
0000
0001
0000
,  // measure 33
0010
0000
0001
0000
,  // measure 34
0001
0000
0100
0000
,  // measure 35
0100
0000
0010
0000
,  // measure 36
0010
0000
0001
0000
,  // measure 37
0100
0000
1000
0000
,  // measure 38
0001
0000
0010
0000
,  // measure 39
0002
0000
0003
0000
,  // measure 40
0200
0000
0300
0000
,  // measure 41
0002
0000
0003
0000
,  // measure 42
0020
0000
0030
0000
,  // measure 43
2000
0000
3000
0000
,  // measure 44
0200
0000
0300
0000
,  // measure 45
2000
0000
3000
0000
,  // measure 46
0020
0000
0030
0000
,  // measure 47
0010
0000
1000
0000
,  // measure 48
0001
0000
0001
0000
,  // measure 49
1000
0000
1000
0000
,  // measure 50
0001
0000
0001
0000
,  // measure 51
0100
0000
0100
0000
,  // measure 52
0010
0000
0010
0000
,  // measure 53
0100
0000
0100
0000
,  // measure 54
0010
0000
0010
0000
,  // measure 55
0200
0000
0300
0000
,  // measure 56
2002
0000
0000
0000
,  // measure 57
0000
0000
3003
0000
,  // measure 58
0220
0000
0000
0000
,  // measure 59
0000
0000
0330
0000
,  // measure 60
2000
0000
0000
0000
,  // measure 61
0000
0000
3000
0000
,  // measure 62
0002
0000
0000
0000
,  // measure 63
0000
0000
0000
0000
,  // measure 64
0003
0000
0000
0000
,  // measure 65
0001
0000
0100
0000
,  // measure 66
1000
0000
0100
0000
,  // measure 67
0001
0000
0100
0000
,  // measure 68
1000
0000
0100
0000
,  // measure 69
0001
0000
0100
0000
,  // measure 70
1000
0000
0010
0000
,  // measure 71
0001
0000
0100
0000
,  // measure 72
1000
1000
1000
0000
,  // measure 73
0001
0001
0001
0000
,  // measure 74
0010
0010
0010
0000
,  // measure 75
0100
0100
0100
0000
,  // measure 76
0010
0010
0010
0000
,  // measure 77
0100
0100
0100
0000
,  // measure 78
0001
0000
1000
0000
,  // measure 79
2002
0000
0000
3003
;
