#VERSION:0.83;
#TITLE:Special One;
#SUBTITLE:;
#ARTIST:kors k feat. Suzuyo Miyamoto;
#TITLETRANSLIT:;
#SUBTITLETRANSLIT:;
#ARTISTTRANSLIT:;
#GENRE:;
#ORIGIN:;
#CREDIT:;
#BANNER:Special One.png;
#BACKGROUND:Special One-bg.png;
#PREVIEWVID:;
#JACKET:Special One-jacket.png;
#CDIMAGE:;
#DISCIMAGE:;
#LYRICSPATH:;
#CDTITLE:;
#MUSIC:Special One.ogg;
#OFFSET:0.000000;
#SAMPLESTART:63.275002;
#SAMPLELENGTH:15.000000;
#SELECTABLE:YES;
#BPMS:0.000=128.000;
#STOPS:;
#DELAYS:;
#WARPS:;
#TIMESIGNATURES:0.000=4=4;
#TICKCOUNTS:0.000=4;
#COMBOS:0.000=1;
#SPEEDS:0.000=1.000=0.000=0;
#SCROLLS:0.000=1.000;
#FAKES:;
#LABELS:0.000=Song Start;
#BGCHANGES:;
#KEYSOUNDS:;
#ATTACKS:
;

//---------------dance-single - XLev450X----------------
#NOTEDATA:;
#CHARTNAME:XLev450X;
#STEPSTYPE:dance-single;
#DESCRIPTION:XLev450X;
#CHARTSTYLE:;
#DIFFICULTY:Beginner;
#METER:1;
#RADARVALUES:0.060948,0.121204,0.019393,0.000000,0.000000,44.000000,42.000000,2.000000,0.000000,0.000000,0.000000,0.000000,0.000000,0.000000,0.060948,0.121204,0.019393,0.000000,0.000000,44.000000,42.000000,2.000000,0.000000,0.000000,0.000000,0.000000,0.000000,0.000000;
#CREDIT:XLev450X;
#NOTES:
// measure 0
0000
0000
0000
0000
,  // measure 1
0000
0000
0000
0000
,  // measure 2
0000
0000
0000
0000
,  // measure 3
0000
0000
0000
0000
,  // measure 4
0000
0000
0000
0000
,  // measure 5
0000
0000
0000
0000
,  // measure 6
0000
0000
0000
0000
,  // measure 7
0000
0000
0000
0000
,  // measure 8
0000
0000
0000
0000
,  // measure 9
0001
0000
0000
0000
,  // measure 10
0001
0000
0000
0000
,  // measure 11
0001
0000
0000
0000
,  // measure 12
0000
0000
0000
0000
,  // measure 13
1000
0000
0000
0000
,  // measure 14
1000
0000
0000
0000
,  // measure 15
1000
0000
0000
0000
,  // measure 16
0000
0000
0000
0000
,  // measure 17
0010
0000
0000
0000
,  // measure 18
0100
0000
0000
0000
,  // measure 19
0010
0000
0000
0000
,  // measure 20
0000
0000
0000
0000
,  // measure 21
0001
0000
0000
0000
,  // measure 22
0010
0000
0000
0000
,  // measure 23
0001
0000
0000
0000
,  // measure 24
0000
0000
0000
0000
,  // measure 25
1000
0000
0000
0000
,  // measure 26
0100
0000
0000
0000
,  // measure 27
1000
0000
0000
0000
,  // measure 28
0000
0000
0000
0000
,  // measure 29
0010
0000
0000
0000
,  // measure 30
1000
0000
0000
0000
,  // measure 31
0010
0000
0000
0000
,  // measure 32
0000
0000
0000
0000
,  // measure 33
1001
0000
0000
0000
,  // measure 34
0001
0001
0000
0000
,  // measure 35
1000
1000
0000
0000
,  // measure 36
0010
0010
0000
0000
,  // measure 37
0100
0100
0000
0000
,  // measure 38
0001
0000
0000
0000
,  // measure 39
0001
0000
0000
0000
,  // measure 40
1000
0000
0000
0000
,  // measure 41
0000
0000
0000
0000
,  // measure 42
0100
0100
0000
0000
,  // measure 43
0010
0010
0000
0000
,  // measure 44
1000
1000
0000
0000
,  // measure 45
0001
0001
0000
0000
,  // measure 46
0010
0000
0000
0000
,  // measure 47
0010
0000
0000
0000
,  // measure 48
0100
0000
0000
0000
,  // measure 49
0000
0000
0000
0000
,  // measure 50
1001
0000
0000
0000
;

//---------------dance-single - XLev450X----------------
#NOTEDATA:;
#CHARTNAME:XLev450X;
#STEPSTYPE:dance-single;
#DESCRIPTION:XLev450X;
#CHARTSTYLE:;
#DIFFICULTY:Easy;
#METER:3;
#RADARVALUES:0.144059,0.197805,0.029089,0.058178,0.000000,104.000000,101.000000,3.000000,6.000000,0.000000,0.000000,0.000000,0.000000,0.000000,0.144059,0.197805,0.029089,0.058178,0.000000,104.000000,101.000000,3.000000,6.000000,0.000000,0.000000,0.000000,0.000000,0.000000;
#CREDIT:XLev450X;
#NOTES:
0000
0000
0000
0000
,
0000
0000
0000
0000
,
0000
0000
0000
0000
,
0000
0000
0000
0000
,
0000
0000
0000
0000
,
0000
0000
0000
0000
,
0000
0000
0000
0000
,
0000
0000
0000
0000
,
0000
0000
0000
0000
,
0010
0000
0001
0000
,
1000
0000
0010
0000
,
0100
0000
0001
0000
,
1000
0000
0000
0000
,
0010
0000
0001
0000
,
1000
0000
0010
0000
,
0100
0000
0001
0000
,
2002
0000
0000
3003
,
0001
0000
1000
0001
,
1000
0000
0010
0100
,
0010
0000
0001
0010
,
0001
0000
0000
0000
,
1000
0000
0100
0010
,
0100
0000
0001
0010
,
0001
0000
1000
0001
,
1000
0000
0000
0000
,
0001
0000
0010
0000
,
0001
0000
0100
0000
,
1000
0000
0100
0000
,
0001
0000
0000
0000
,
0010
0000
1000
0000
,
0001
0000
0100
0000
,
1000
0000
0001
0000
,
0010
0000
0000
0000
,
2002
0000
0000
3003
,
0010
0001
1000
0100
,
0001
0010
0100
0000
,
0001
1000
0010
1000
,
0100
0001
0010
0000
,
0001
0001
0100
0000
,
1000
1000
0010
0000
,
1000
0001
1000
0000
,
0010
0001
0010
0000
,
0010
1000
0100
0001
,
0100
0010
1000
0000
,
0001
0010
0001
0000
,
0010
1000
0010
0000
,
0100
0100
0001
0000
,
1000
1000
0010
0000
,
0001
1000
0001
0000
,
0010
0100
0010
0000
,
2002
0000
0000
0000
,
3003
0000
0000
0000
;

//---------------dance-single - XLev450X----------------
#NOTEDATA:;
#CHARTNAME:XLev450X;
#STEPSTYPE:dance-single;
#DESCRIPTION:XLev450X;
#CHARTSTYLE:;
#DIFFICULTY:Medium;
#METER:5;
#RADARVALUES:0.252104,0.346158,0.019393,0.058178,0.009696,182.000000,180.000000,2.000000,6.000000,0.000000,0.000000,0.000000,0.000000,0.000000,0.252104,0.346158,0.019393,0.058178,0.009696,182.000000,180.000000,2.000000,6.000000,0.000000,0.000000,0.000000,0.000000,0.000000;
#CREDIT:XLev450X;
#NOTES:
0000
0000
0000
0000
,
0000
0000
0000
0000
,
0000
0000
0000
0000
,
0000
0000
0000
0000
,
0000
0000
0000
0000
,
0000
0000
0000
0000
,
0000
0000
0000
0000
,
0000
0000
0000
0000
,
0000
0000
0000
0000
,
0001
1000
0010
0100
,
0001
0000
1000
0000
0001
1000
0001
0000
,
0010
1000
0100
0001
,
0010
0000
0100
0000
0001
0010
0001
0000
,
0001
1000
0001
0000
0010
1000
0010
0000
,
0010
0100
0010
0000
0001
0000
1000
0000
,
0001
1000
0001
0000
0010
1000
0010
0000
,
0002
0000
1000
0000
1000
0000
2000
3003
,
0001
0000
1000
0000
0010
1000
0010
0100
,
0001
0000
0001
0000
1000
0001
1000
0000
,
0010
0100
0001
0000
,
0010
1000
0010
0000
,
0001
0000
0001
0000
1000
0010
1000
0000
,
0100
0001
0100
0000
,
0010
1000
0001
1000
,
0010
1000
0010
0000
0001
0010
0001
0000
,
0001
1000
0001
0000
,
0010
0100
0010
0000
,
1000
0010
1000
0000
,
0001
0010
0001
0000
,
0100
0000
0100
0000
0001
0000
0000
0000
1000
0000
0000
1000
0000
0000
0010
0000
,
0100
0010
0001
1000
,
0001
0010
0001
0000
0100
0001
0100
0000
,
0001
0000
0000
1000
0000
0000
0001
0000
0010
0000
0000
0000
0100
0000
0000
0000
,
2002
0000
0000
3003
,
0010
0000
0001
0000
1000
0001
1000
0000
,
0010
0000
0100
0000
0001
0010
0001
0000
,
0001
0100
0010
1000
,
0001
1000
0001
0000
0010
1000
0010
0000
,
0001
1000
0100
0000
,
0001
0100
0010
0000
,
0001
0010
0001
0000
0001
1000
0001
0000
,
1000
0100
0001
0000
,
0010
0010
1000
0001
,
0100
1000
0010
0000
,
0001
0100
1000
0001
,
1000
0001
1000
0000
0010
1000
0010
0000
,
0001
0100
0010
0000
,
0001
1000
0100
0001
,
0010
0001
0010
0000
0010
1000
0010
0000
,
0001
0000
1000
0000
0001
1000
0100
0010
,
2002
0000
0000
0000
,
3003
0000
0000
0000
;

//---------------dance-single - XLev450X----------------
#NOTEDATA:;
#CHARTNAME:XLev450X;
#STEPSTYPE:dance-single;
#DESCRIPTION:XLev450X;
#CHARTSTYLE:;
#DIFFICULTY:Hard;
#METER:7;
#RADARVALUES:0.318593,0.370884,0.029089,0.058178,0.024241,230.000000,227.000000,3.000000,6.000000,0.000000,0.000000,0.000000,0.000000,0.000000,0.318593,0.370884,0.029089,0.058178,0.024241,230.000000,227.000000,3.000000,6.000000,0.000000,0.000000,0.000000,0.000000,0.000000;
#CREDIT:XLev450X;
#NOTES:
0000
0000
0000
0000
,
0000
0000
0000
0000
,
0000
0000
0000
0000
,
0000
0000
0000
0000
,
0000
0000
0000
0000
,
0000
0000
0000
0000
,
0000
0000
0000
0000
,
0000
0000
0000
0000
,
0000
0000
0000
0000
,
0001
0010
0001
0000
0010
1000
0010
0000
,
0001
0100
0001
0100
0010
1000
0001
0000
,
1000
0001
1000
0000
0010
1000
0010
0000
,
0010
0100
0010
0001
0010
1000
0001
0000
,
0001
0000
1000
0000
0010
1000
0010
0000
,
0001
0000
0100
0000
0001
0010
0001
0000
,
1000
0000
0001
0000
1000
0001
1000
0000
,
0001
0000
0000
0000
0100
0000
0000
1000
0000
0000
0100
0000
0000
1000
0000
0000
,
0001
0000
1000
0000
0001
1000
0001
0000
,
0010
1000
0010
0000
0001
0010
0001
0000
,
0100
0000
1000
0000
0001
1000
0001
0000
,
0010
0000
0100
0000
0001
1000
0010
0100
,
0001
0000
0001
0000
0010
1000
0010
0000
,
0001
0000
0100
0000
0010
0100
0010
0000
,
0001
0000
1000
0000
0001
1000
0001
0000
,
1002
0000
0000
0000
1000
1000
2000
3003
,
1000
0000
0001
0000
0010
1000
0010
0000
,
0001
0000
0100
0000
0001
0010
0001
0000
,
1000
0010
0100
1000
,
0010
1000
0010
0000
0001
0010
0001
0000
,
0100
0000
0000
0000
0010
0000
0000
0000
1000
0000
0000
0001
0000
0000
1000
0000
,
0001
1000
0010
0000
0010
0001
0010
0000
,
0001
0000
1000
0000
0001
0100
0001
0100
,
1000
0000
0000
0001
0000
0000
0100
0000
0001
0000
1000
0000
0010
0000
1000
0000
,
1002
0000
0000
0000
0000
0000
0000
0000
0000
0000
0000
0000
0000
0000
0000
0000
1000
0000
0000
0000
1000
0000
0000
0000
1000
0000
0000
0000
2000
3003
0000
0000
,
0001
1000
0001
0000
0010
0100
0010
0000
,
0001
0010
0001
1000
0001
0100
0001
0000
,
1000
0001
1000
0000
0010
1000
0010
0000
,
0001
0000
0100
0000
1000
1000
0001
0000
,
0100
0010
0100
0000
0010
0000
1000
0000
,
0001
0010
0001
0000
1000
0000
0010
0000
,
0100
0001
0100
0000
1000
0001
1000
0000
,
0001
0000
1000
0000
0001
1000
0010
1000
,
0010
0001
0100
1000
,
0010
1000
0010
0000
0100
0000
0001
0000
,
0001
0001
0100
0000
0010
0010
1000
0000
,
0001
0000
1000
0000
0010
1000
0100
0010
,
0001
1000
0001
1000
,
0100
0010
0100
0000
0001
0010
0001
0000
,
1000
0000
0001
0000
1000
0010
1000
0100
,
0001
0000
0000
0000
1000
0000
0000
0001
0010
0000
1000
0000
0100
0000
0010
0000
,
2002
0000
0000
0000
,
3003
0000
0000
0000
;
