#TITLE:Space Cowboy;
#SUBTITLE:(David Morales Classic Radio Edit);
#ARTIST:Jamiroquai;
#TITLETRANSLIT:;
#SUBTITLETRANSLIT:;
#ARTISTTRANSLIT:;
#GENRE:;
#CREDIT:;
#BANNER:Space Cowboy (David Morales Classic Radio Edit).png;
#BACKGROUND:;
#LYRICSPATH:;
#CDTITLE:;
#MUSIC:Space Cowboy (David Morales Classic Radio Edit).ogg;
#OFFSET:-0.100000;
#SAMPLESTART:39.540024;
#SAMPLELENGTH:15.000000;
#SELECTABLE:YES;
#BPMS:0.000000=118.600189
;
#STOPS:
;
#BGCHANGES:;
#KEYSOUNDS:;
#ATTACKS:;

//---------------dance-single - ----------------
#NOTES:
     dance-single:
     :
     Hard:
     8:
     0.477115,0.567961,0.388350,0.145631,0.271845,344.000000,304.000000,40.000000,15.000000,0.000000,0.000000,0.477115,0.567961,0.388350,0.145631,0.271845,344.000000,304.000000,40.000000,15.000000,0.000000,0.000000:
0000
0000
0000
0000
,
0000
0000
0000
0000
,
0000
0000
0000
0000
,
0000
0000
0000
0000
0000
0000
0000
0000
0000
0000
0000
0000
0000
0000
0000
1000
,
0001
0100
0000
0000
0100
0000
0000
0100
0000
0000
0100
0000
0000
0100
0000
0000
,
0000
0010
0000
0000
0010
0000
0000
0010
0000
0000
0010
0000
0000
0010
0000
0000
,
0000
1000
0000
0000
1000
0000
0000
1000
0000
0000
1000
0000
0000
1000
0000
0000
,
0000
0001
0000
0000
0001
0000
0000
0001
0000
0000
0001
0000
0001
0000
0001
0000
,
0100
0000
0101
0000
0001
0010
0001
0000
,
1000
0000
1100
0000
1000
0100
1000
0000
,
0010
0000
1010
0000
0010
1000
0010
0000
,
0100
0000
0101
0000
0100
0001
0100
0000
,
0001
0000
1001
0000
0001
1000
0001
0000
,
1000
0000
1010
0000
0010
1000
0010
0000
,
0100
0000
0110
0000
0100
0010
0100
0000
,
0010
0000
1010
0000
1000
0010
1000
0000
,
1000
0100
0010
0001
0001
0010
0100
1000
,
1000
0100
0010
0001
0001
0010
0100
1000
,
1000
0001
0100
0010
0100
0001
0010
0100
,
1000
0100
0010
0100
1000
0010
0100
0010
,
2000
0000
0001
0000
3001
0100
0001
0100
,
0101
0000
0011
0000
1100
0100
1000
0010
,
0110
0000
0101
0000
0011
0001
1000
0100
,
1100
0000
2001
0000
0010
0010
3010
0000
,
1001
0000
0102
0000
0010
0010
0013
0000
,
0101
0000
2010
0000
0100
0100
3100
0000
,
1000
0100
0010
0001
0010
0100
1000
0000
,
1001
0000
0110
0000
1001
0000
0001
0100
,
0001
0100
0000
0100
0001
0000
0000
0001
0100
0001
0000
0001
1000
0000
0000
0000
,
1000
0001
0000
0001
0100
0010
0100
0001
0000
0001
1000
0100
0020
0000
0001
0000
,
0031
0100
0010
1000
0100
1000
0010
0100
,
0001
0010
0001
0100
0010
1000
0100
1000
,
1000
0001
0000
0001
0100
0000
0100
0000
0100
0010
0000
0010
1000
0000
1000
0000
,
1000
0100
0000
0100
0010
0000
0010
0000
0010
0100
1000
0100
0010
0100
1000
0000
,
1000
0001
0000
0001
0100
0000
0100
0000
0100
0010
0000
0010
0100
0000
0100
0000
,
0100
0001
0000
0001
1000
0000
1000
0000
1000
0001
0100
0010
0100
0001
0010
0001
,
0100
0001
0000
0001
0010
0000
0010
0000
0010
0001
0000
0001
1000
0000
1000
0000
,
1000
0100
0000
0100
1000
0000
1000
0000
1000
0010
0100
0010
1000
0010
0100
0010
,
1000
0100
0000
0100
1000
0000
1000
0000
1000
0001
0000
0001
0010
0000
0010
0000
,
0010
0001
0100
0010
1000
0100
1000
0001
,
1001
0000
0201
0000
0010
0010
0310
0000
,
1010
0000
0102
0000
1000
1000
1003
0000
,
1001
0000
2010
0000
0100
0100
3100
0000
,
1001
0000
0012
0000
0100
0100
0103
0000
,
1001
0000
2010
0000
0100
0100
3100
0000
,
1001
0000
0012
0000
0100
0100
0103
0000
,
0101
0000
2100
0000
0001
0001
3001
0000
,
0110
0000
1020
0000
0100
0100
0130
0000
,
2002
0000
0000
3003
;

//---------------dance-single - ----------------
#NOTES:
     dance-single:
     :
     Medium:
     6:
     0.374480,0.402306,0.368932,0.155340,0.000000,270.000000,232.000000,38.000000,16.000000,0.000000,0.000000,0.374480,0.402306,0.368932,0.155340,0.000000,270.000000,232.000000,38.000000,16.000000,0.000000,0.000000:
0000
0000
0000
0000
,
0000
0000
0000
0000
,
0000
0000
0000
0000
,
0000
0000
0000
0000
,
1001
0000
0100
0000
0001
0001
0100
0000
,
1001
0000
0100
0000
1000
1000
0100
0000
,
1100
0000
1000
0000
0100
0010
0001
0000
,
0011
0000
0001
0000
0010
0100
1000
0000
,
0100
0000
1001
0000
0001
0010
0001
0000
,
1000
0000
1100
0000
1000
0100
1000
0000
,
0010
0000
1010
0000
0010
1000
0010
0000
,
0100
0000
0101
0000
0100
0001
0100
0000
,
0001
0000
1001
0000
0001
1000
0001
0000
,
1000
0000
1010
0000
0010
1000
0010
0000
,
0100
0000
0110
0000
0100
0010
0100
0000
,
0010
0000
1010
0000
1000
0010
1000
0000
,
1000
0100
0010
0000
0001
0010
0100
0000
,
1000
0100
0010
0000
0001
0010
0100
0000
,
1000
0001
0100
0000
0001
1000
0100
0000
,
1000
0001
0100
0000
0001
1000
0100
0000
,
1000
0000
2001
0000
0001
0001
3001
0000
,
0001
0000
0012
0000
0100
0100
0103
0000
,
0100
0000
0201
0000
0010
0010
0310
0000
,
0010
0000
2001
0000
0010
0010
3010
0000
,
0010
0000
0102
0000
0010
0010
0013
0000
,
0001
0000
2100
0000
0001
0001
3001
0000
,
1000
0100
0010
0000
0001
0010
0100
0000
,
1001
0110
1001
0000
,
1000
1000
1000
0000
0001
0001
0001
0000
,
1000
1000
1000
0000
0001
0001
0001
0000
,
1000
0100
0010
0001
1000
0100
0010
0001
,
0001
0010
0100
1000
0001
0010
0100
1000
,
1000
0000
1001
0000
0001
1000
0001
0000
,
0001
0000
1001
0000
0001
1000
0001
0000
,
0100
0000
0110
0000
0100
0010
0100
0000
,
0010
0000
0110
0000
0010
0100
0010
0000
,
1000
0000
1100
0000
1000
0100
1000
0000
,
0001
0000
0011
0000
0001
0010
0001
0000
,
1000
0000
1010
0000
0010
1000
0010
0000
,
0001
0000
0101
0000
0001
0100
0001
0000
,
0001
0000
0201
0000
0010
0010
0310
0000
,
0010
0000
0102
0000
1000
1000
1003
0000
,
1000
0000
2010
0000
0100
0100
3100
0000
,
1000
0000
0102
0000
0010
0010
0013
0000
,
0001
0000
2010
0000
0100
0100
3100
0000
,
1000
0000
0012
0000
0100
0100
0103
0000
,
0100
0000
2001
0000
0010
0010
3010
0000
,
0010
0000
1020
0000
0100
0100
0130
0000
,
2002
0000
0000
3003
;

//---------------dance-single - ----------------
#NOTES:
     dance-single:
     :
     Easy:
     4:
     0.294036,0.283981,0.339806,0.155340,0.000000,212.000000,177.000000,35.000000,16.000000,0.000000,0.000000,0.294036,0.283981,0.339806,0.155340,0.000000,212.000000,177.000000,35.000000,16.000000,0.000000,0.000000:
0000
0000
0000
0000
,
0000
0000
0000
0000
,
0000
0000
0000
0000
,
0000
0000
0000
0000
,
1001
0100
0001
0100
,
1001
0100
1000
0100
,
1100
1000
0100
0010
,
0011
0001
0010
0100
,
1000
1001
0001
0001
,
1000
1100
1000
1000
,
0010
1010
0010
0010
,
0100
0101
0100
0100
,
0001
1001
0001
0001
,
1000
1010
0010
0010
,
0100
0110
0100
0100
,
0010
1010
1000
1000
,
1000
0010
0001
0100
,
1000
0010
0001
0100
,
1000
0100
0001
0100
,
1000
0100
0001
0100
,
1000
2001
0001
3001
,
0001
0012
0100
0103
,
0100
0201
0010
0310
,
0010
2001
0010
3010
,
0010
0102
0010
0013
,
0001
2100
0001
3001
,
1000
0010
0001
0100
,
1000
0010
0001
0100
,
1000
1000
0001
0001
,
1000
1000
0001
0001
,
1000
0010
1000
0010
,
0100
0001
0100
0001
,
1000
1001
0001
0100
,
0001
1001
1000
0100
,
1000
1001
0100
0010
,
1000
1010
0100
0001
,
0100
0101
1000
0001
,
0100
0101
0001
1000
,
0010
1010
0010
1000
,
0001
0101
0001
1000
,
0001
0201
0010
0310
,
0010
0102
1000
1003
,
1000
2010
0100
3100
,
1000
0102
0010
0013
,
0001
2001
0100
3100
,
1000
0012
0100
0103
,
0100
2001
0010
3010
,
0010
1020
0100
0130
,
2002
0000
0000
3003
;

//---------------dance-single - ----------------
#NOTES:
     dance-single:
     :
     Beginner:
     2:
     0.142857,0.163107,0.000000,0.000000,0.000000,103.000000,103.000000,0.000000,0.000000,0.000000,0.000000,0.142857,0.163107,0.000000,0.000000,0.000000,103.000000,103.000000,0.000000,0.000000,0.000000,0.000000:
// measure 0
0000
0000
0000
0000
,  // measure 1
0000
0000
0000
0000
,  // measure 2
0000
0000
0000
0000
,  // measure 3
0000
0000
0000
0000
,  // measure 4
0001
0000
0001
0000
,  // measure 5
1000
0000
1000
0000
,  // measure 6
0100
0000
0100
0000
,  // measure 7
0010
0000
0010
0000
,  // measure 8
1000
0000
0001
0000
,  // measure 9
1000
0000
1000
0000
,  // measure 10
0010
0000
0010
0000
,  // measure 11
0100
0000
0100
0000
,  // measure 12
0001
0000
0001
0000
,  // measure 13
1000
0000
0010
0000
,  // measure 14
0100
0000
0100
0000
,  // measure 15
0010
0000
1000
0000
,  // measure 16
1000
0000
0001
0000
,  // measure 17
1000
0000
0001
0000
,  // measure 18
1000
0000
0001
0000
,  // measure 19
1000
0000
0001
0000
,  // measure 20
1000
0000
0001
0001
,  // measure 21
0001
0000
0100
0100
,  // measure 22
0100
0000
0010
0010
,  // measure 23
0010
0000
0010
0010
,  // measure 24
0010
0000
0001
0001
,  // measure 25
0001
0000
1000
1000
,  // measure 26
1000
0000
0001
0001
,  // measure 27
0001
0000
0000
0000
,  // measure 28
1000
1000
0000
0000
,  // measure 29
1000
1000
0000
0000
,  // measure 30
0001
0001
0000
0000
,  // measure 31
0001
0001
0000
0000
,  // measure 32
0100
0100
0000
0000
,  // measure 33
0100
0100
0000
0000
,  // measure 34
0010
0010
0000
0000
,  // measure 35
0010
0010
0000
0000
,  // measure 36
1000
1000
0000
0000
,  // measure 37
0001
0001
0000
0000
,  // measure 38
1000
1000
0000
0000
,  // measure 39
0001
0001
0000
0000
,  // measure 40
0001
0000
0010
0010
,  // measure 41
0010
0000
1000
1000
,  // measure 42
1000
0000
0100
0100
,  // measure 43
0100
0000
0010
0010
,  // measure 44
0010
0000
0100
0100
,  // measure 45
0100
0000
0001
0001
,  // measure 46
0001
0000
1000
1000
,  // measure 47
1000
0000
0100
0100
,  // measure 48
0100
0000
0000
0000
;
