#VERSION:0.83;
#TITLE:Someday my prince will come!;
#SUBTITLE:;
#ARTIST:Groove Unchant to Yokorii;
#TITLETRANSLIT:;
#SUBTITLETRANSLIT:;
#ARTISTTRANSLIT:;
#GENRE:;
#ORIGIN:;
#CREDIT:;
#BANNER:Someday my prince will come!.png;
#BACKGROUND:;
#PREVIEWVID:;
#JACKET:Someday my prince will come!-jacket.png;
#CDIMAGE:;
#DISCIMAGE:;
#LYRICSPATH:;
#CDTITLE:;
#MUSIC:Someday my prince will come!.ogg;
#OFFSET:-0.440000;
#SAMPLESTART:62.139969;
#SAMPLELENGTH:14.999999;
#SELECTABLE:YES;
#BPMS:0.000=198.340,
128.000=99.180,
166.000=198.340;
#STOPS:;
#DELAYS:;
#WARPS:;
#TIMESIGNATURES:0.000=4=4;
#TICKCOUNTS:0.000=4;
#COMBOS:0.000=1;
#SPEEDS:0.000=1.000=0.000=0;
#SCROLLS:0.000=1.000;
#FAKES:;
#LABELS:0.000=Song Start;
#BGCHANGES:;
#KEYSOUNDS:;
#ATTACKS:
;

//---------------dance-single - ----------------
#NOTEDATA:;
#CHARTNAME:;
#STEPSTYPE:dance-single;
#DESCRIPTION:;
#CHARTSTYLE:;
#DIFFICULTY:Hard;
#METER:8;
#RADARVALUES:0.600933,0.908315,0.057232,0.343390,0.104925,441.000000,435.000000,6.000000,36.000000,0.000000,0.000000,0.000000,0.000000,0.000000,0.600933,0.908315,0.057232,0.343390,0.104925,441.000000,435.000000,6.000000,36.000000,0.000000,0.000000,0.000000,0.000000,0.000000;
#CREDIT:;
#NOTES:
0000
0000
0000
0000
,
0000
0000
0000
0000
,
0000
0000
0000
0000
,
0000
0000
0000
0000
,
2000
0000
0000
3010
0100
0000
0000
0000
,
0002
0000
0000
0103
0010
0000
0000
0000
,
2000
0000
0000
3010
0100
0000
0000
0000
,
0002
0000
0000
0103
0010
0000
0000
0000
,
2000
0000
0000
3100
0010
0000
0000
0000
,
0002
0000
0000
0013
0100
0000
0000
0000
,
2000
0000
0000
3100
0010
0000
0000
0001
,
0100
0002
1000
0000
2000
0000
3003
0000
,
1000
0000
0001
0100
0001
0100
0010
0000
,
0010
1000
0010
1000
0100
0000
1000
0000
,
0100
0000
1000
0010
1000
0010
0100
0000
,
0001
0100
0001
0100
0010
0000
1000
0000
,
0100
0000
1000
0010
1000
0010
0100
0000
,
0001
0100
0001
0100
0010
0000
1000
0000
,
0010
0000
0100
0001
0010
0001
0100
0000
,
0010
1000
0100
1000
0010
0000
0100
0000
,
0001
0000
0010
0001
0010
0100
1000
0000
,
0001
0010
0100
1000
0100
0000
1000
0000
,
0010
0000
0100
0001
0100
0001
0010
0000
,
0100
1000
0100
1000
0010
0000
0100
0000
,
0001
0000
0010
0001
0100
0001
0010
0000
,
0100
1000
0010
1000
0100
0000
1000
0000
,
0010
0000
1000
0100
0010
0100
1000
0000
,
0001
0010
0100
0010
0001
0000
1000
0000
,
0010
0100
0001
1000
,
0010
0100
0001
1000
,
1000
0100
0010
0001
,
1000
0001
2002
3003
,
1000
0000
1000
0100
1000
0000
0010
0000
0100
0000
0001
0010
0001
0000
0100
0000
,
0010
1000
0010
0100
0001
0010
0001
1000
,
0100
1000
0100
1000
0100
0000
1000
0000
0010
0100
0010
0100
0010
0000
0100
0000
,
0001
0010
0001
0010
0001
0000
0100
0000
0010
1000
0010
1000
0010
0000
1000
0000
,
0100
0000
1000
0000
0010
0000
0100
0000
0010
1000
0010
0000
0100
0001
0100
0000
,
0010
1000
0010
0000
0100
0001
0100
0000
0010
0000
1000
0000
0100
0000
0010
0000
,
0001
1000
1001
0001
1000
0001
0010
0100
,
1000
0000
0110
0000
0001
0000
0110
0000
1000
0100
1000
0000
0010
0000
0100
0000
,
0001
0000
0000
0010
0000
0000
0001
0000
0000
0000
0000
0000
1000
0000
0000
0000
0000
0000
0010
0000
0000
0000
0000
0000
1000
0000
0000
0000
0100
0000
0000
0000
0010
0000
0000
0000
0001
0000
0000
1000
0000
0000
0001
0000
0000
1000
0000
0000
,
0010
0100
0010
0100
0001
0000
1001
0000
1000
0000
0100
0000
1000
0000
0010
0000
,
0100
0001
0010
0001
0100
0010
1000
0100
,
1000
0010
0100
0001
0010
0001
1000
0001
,
1000
0001
0100
0010
0100
0010
1000
0100
,
2000
0000
3002
0000
0103
0001
0100
0001
,
0010
0001
0100
0001
1000
0001
1000
0010
,
1000
0010
0100
0010
1000
0100
1000
0100
,
0010
0001
0010
0001
1000
0001
1000
0001
,
2000
0000
3002
0000
0103
0001
0100
0001
,
1000
0010
1000
0010
1000
0100
1000
0100
,
0010
0001
0010
0001
1000
0001
1000
0001
,
0100
0010
0100
0010
1000
0100
0010
0001
,
2000
0000
3020
0000
0130
0001
0100
0001
,
0010
0001
0010
0001
1000
0100
1000
0100
,
1000
0010
1000
0010
0200
0000
0000
0000
,
0000
0000
0001
0001
,
0001
0000
0001
0000
0301
0100
0001
0100
,
0010
1000
0010
1000
0002
0000
2003
0000
,
3020
0000
0230
0000
0310
1000
0010
1000
,
0001
0100
0001
0100
0020
0000
2030
0000
,
3200
0000
0320
0000
0031
0010
0001
0010
,
0100
1000
0100
1000
0020
0000
2030
0000
,
3002
0000
0203
0000
0310
1000
0001
0100
,
0010
1000
0001
0100
0020
0000
2030
0000
,
3200
0000
0320
0000
0031
0000
0001
0100
,
0000
0100
0010
0000
0010
1000
0000
1000
,
0100
1000
0100
1000
0100
0000
0100
1000
,
0000
1000
0010
0000
0010
0100
0000
0100
,
0001
0100
0001
0100
0001
0000
0001
0010
,
0000
0010
0001
0000
0001
1000
0000
1000
,
0100
1000
0100
1000
0100
0000
0100
1000
,
0000
1000
0010
0000
2002
0000
0000
0000
,
0000
3003
0000
0000
;

//---------------dance-single - ----------------
#NOTEDATA:;
#CHARTNAME:;
#STEPSTYPE:dance-single;
#DESCRIPTION:;
#CHARTSTYLE:;
#DIFFICULTY:Medium;
#METER:6;
#RADARVALUES:0.476931,0.593898,0.333852,0.620010,0.000000,350.000000,315.000000,35.000000,65.000000,0.000000,0.000000,0.000000,0.000000,0.000000,0.476931,0.593898,0.333852,0.620010,0.000000,350.000000,315.000000,35.000000,65.000000,0.000000,0.000000,0.000000,0.000000,0.000000;
#CREDIT:;
#NOTES:
0000
0000
0000
0000
,
0000
0000
0000
0000
,
0000
0000
0000
0000
,
0000
0000
0000
0000
,
2000
0000
0000
3010
0100
0000
0000
0000
,
0002
0000
0000
0103
0010
0000
0000
0000
,
2000
0000
0000
3010
0100
0000
0000
0000
,
0002
0000
0000
0103
0010
0000
0000
0000
,
2000
0000
0000
3100
0010
0000
0000
0000
,
0002
0000
0000
0013
0100
0000
0000
0000
,
2000
0000
0000
3100
0010
0000
0000
0000
,
0002
1000
2000
3003
,
1000
0201
0001
0310
,
2010
0010
3100
1000
,
0010
1020
1000
0130
,
0201
0001
0310
0100
,
0010
1020
1000
0130
,
0201
0001
0310
1000
,
0001
0102
0010
0103
,
2010
0100
3010
1000
,
0001
0012
0010
1003
,
2001
0100
3100
1000
,
0001
0102
0100
1003
,
2100
0100
3010
0010
,
0100
1002
0100
1003
,
2100
0001
3100
1000
,
0010
1020
0100
1030
,
0201
0010
0301
1000
,
0010
0100
0001
1000
,
0010
0100
0001
1000
,
1000
0100
0010
0001
,
1000
0001
2002
3003
,
1000
1000
1000
0010
0100
0001
0001
0100
,
0010
1000
0010
0100
0001
0010
0001
1000
,
0100
0100
0100
1000
0010
0010
0010
0100
,
0001
0001
0001
0100
0010
0010
0010
1000
,
0100
1000
0010
0100
0010
0010
0100
0100
,
0010
0010
0100
0100
0010
1000
0100
0010
,
0001
1000
1000
0001
1000
0001
0010
0100
,
1000
0100
0001
0100
1000
1000
0010
0100
,
0001
0001
1000
0010
2000
0000
3200
0000
,
0320
0032
1003
0201
,
0001
0310
2010
0010
,
3100
1000
0010
1020
,
1000
0130
0201
0001
,
0310
0100
0010
1020
,
1000
0130
0201
0001
,
0310
1000
0001
0102
,
0010
0103
2010
0100
,
3010
1000
0001
0012
,
0010
1003
2001
0100
,
3100
1000
0001
0102
,
0100
1003
2100
0100
,
3010
0010
0100
1002
,
0100
1003
2100
0001
,
3100
1000
0010
1020
,
0100
1030
0201
0010
,
0301
0000
1001
0000
0001
0100
0001
0000
,
1000
0010
1000
0000
0002
0000
2003
0000
,
3020
0000
0230
0000
0310
1000
0010
0000
,
0100
0001
0100
0000
0020
0000
2030
0000
,
3200
0000
0320
0000
0031
0010
0001
0000
,
0100
0001
0100
0000
0020
0000
2030
0000
,
3002
0000
0203
0000
0310
1000
0001
0000
,
0100
0001
1000
0000
0020
0000
2030
0000
,
3200
0000
0320
0000
0031
0000
0001
0100
,
0000
0100
0010
0000
0010
1000
0000
1000
,
0100
0000
0100
0000
0100
0000
0100
1000
,
0000
1000
0010
0000
0010
0100
0000
0100
,
0001
0000
0001
0000
0001
0000
0001
0010
,
0000
0010
0001
0000
0001
1000
0000
1000
,
0100
0000
0100
0000
0100
0000
0100
1000
,
0000
1000
0010
0000
2002
0000
0000
0000
,
0000
3003
0000
0000
;

//---------------dance-single - ----------------
#NOTEDATA:;
#CHARTNAME:;
#STEPSTYPE:dance-single;
#DESCRIPTION:;
#CHARTSTYLE:;
#DIFFICULTY:Easy;
#METER:3;
#RADARVALUES:0.245279,0.349352,0.009539,0.600933,0.000000,180.000000,179.000000,1.000000,63.000000,0.000000,0.000000,0.000000,0.000000,0.000000,0.245279,0.349352,0.009539,0.600933,0.000000,180.000000,179.000000,1.000000,63.000000,0.000000,0.000000,0.000000,0.000000,0.000000;
#CREDIT:;
#NOTES:
0000
0000
0000
0000
,
0000
0000
0000
0000
,
0000
0000
0000
0000
,
0000
0000
0000
0000
,
2000
0000
3100
0000
,
0002
0000
0013
0000
,
2000
0000
3100
0000
,
0002
0000
0013
0000
,
2000
0000
3010
0000
,
0002
0000
0103
0000
,
2000
0000
3010
0000
,
0002
0000
2000
3003
,
2000
0000
0001
3000
,
0020
0000
0100
0030
,
2000
0000
0001
3000
,
0002
0000
0010
0003
,
2000
0000
0100
3000
,
0002
0000
0010
0003
,
0200
0000
0010
0300
,
0020
0000
0100
0030
,
2000
0000
0010
3000
,
0002
0000
0100
0003
,
2000
0000
0010
3000
,
0002
0000
0010
0003
,
2000
0000
0100
3000
,
0002
0000
0100
0003
,
2000
0000
0100
3000
,
0002
0000
0100
0003
,
1000
0000
0001
0000
,
0010
0000
0100
0000
,
1000
0000
0100
0000
,
0010
0000
0001
0000
,
1000
1000
0100
0000
,
0010
0010
0001
0000
,
0100
0100
0010
0000
,
1000
1000
0010
0000
,
1000
0010
0010
0100
,
0010
0000
0010
1000
,
0001
0000
1000
0010
,
1000
0000
1000
0010
,
1000
0000
2000
3200
,
0320
0032
2003
0000
,
0001
3000
0020
0000
,
0100
0030
2000
0000
,
0001
3000
0002
0000
,
0010
0003
2000
0000
,
0100
3000
0002
0000
,
0010
0003
0200
0000
,
0010
0300
0020
0000
,
0100
0030
2000
0000
,
0010
3000
0002
0000
,
0100
0003
2000
0000
,
0010
3000
0002
0000
,
0010
0003
2000
0000
,
0100
3000
0002
0000
,
0100
0003
2000
0000
,
0100
3000
0002
0000
,
0100
0003
0001
0001
,
1000
1000
0002
2003
,
3020
0230
0310
0010
,
0100
0100
0020
2030
,
3200
0320
0031
0001
,
0100
0100
0020
2030
,
3002
0203
0310
0100
,
0001
1000
0020
2030
,
3200
0320
0031
0001
,
0100
0010
0010
1000
,
0100
0100
0100
0100
,
1000
0010
0010
0100
,
0001
0001
0001
0001
,
0010
0001
0001
1000
,
0100
0100
0100
0100
,
1000
0010
2002
0000
,
0000
3003
0000
0000
;

//---------------dance-single - ----------------
#NOTEDATA:;
#CHARTNAME:;
#STEPSTYPE:dance-single;
#DESCRIPTION:;
#CHARTSTYLE:;
#DIFFICULTY:Beginner;
#METER:2;
#RADARVALUES:0.167607,0.208180,0.000000,0.000000,0.000000,123.000000,123.000000,0.000000,0.000000,0.000000,0.000000,0.000000,0.000000,0.000000,0.167607,0.208180,0.000000,0.000000,0.000000,123.000000,123.000000,0.000000,0.000000,0.000000,0.000000,0.000000,0.000000,0.000000;
#CREDIT:;
#NOTES:
// measure 0
0000
0000
0000
0000
,  // measure 1
0000
0000
0000
0000
,  // measure 2
0000
0000
0000
0000
,  // measure 3
0000
0000
0000
0000
,  // measure 4
1000
0000
0100
0000
,  // measure 5
0001
0000
0010
0000
,  // measure 6
1000
0000
0100
0000
,  // measure 7
0001
0000
0010
0000
,  // measure 8
1000
0000
0010
0000
,  // measure 9
0001
0000
0100
0000
,  // measure 10
1000
0000
0010
0000
,  // measure 11
0001
0000
0100
0000
,  // measure 12
1000
0000
0000
0000
,  // measure 13
0010
0000
0000
0000
,  // measure 14
1000
0000
0000
0000
,  // measure 15
0001
0000
0000
0000
,  // measure 16
1000
0000
0000
0000
,  // measure 17
0001
0000
0000
0000
,  // measure 18
0100
0000
0000
0000
,  // measure 19
0010
0000
0000
0000
,  // measure 20
1000
0000
0000
0000
,  // measure 21
0001
0000
0000
0000
,  // measure 22
1000
0000
0000
0000
,  // measure 23
0001
0000
0000
0000
,  // measure 24
1000
0000
0000
0000
,  // measure 25
0001
0000
0000
0000
,  // measure 26
1000
0000
0000
0000
,  // measure 27
0001
0000
0000
0000
,  // measure 28
1000
0000
0001
0000
,  // measure 29
0010
0000
0100
0000
,  // measure 30
1000
0000
0100
0000
,  // measure 31
0010
0000
0001
0000
,  // measure 32
1000
0000
0100
0000
,  // measure 33
0010
0000
0001
0000
,  // measure 34
0100
0000
0010
0000
,  // measure 35
1000
0000
0010
0000
,  // measure 36
0100
0000
0001
0000
,  // measure 37
1000
0000
0010
0000
,  // measure 38
0100
0000
0001
0000
,  // measure 39
1000
0000
0001
0000
,  // measure 40
1000
0000
0001
0000
,  // measure 41
1000
1000
1000
0000
,  // measure 42
0001
0000
0010
0000
,  // measure 43
0100
0000
1000
0000
,  // measure 44
0001
0000
0001
0000
,  // measure 45
0010
0000
1000
0000
,  // measure 46
0100
0000
0001
0000
,  // measure 47
0010
0000
0100
0000
,  // measure 48
0010
0000
0010
0000
,  // measure 49
0100
0000
1000
0000
,  // measure 50
0010
0000
0001
0000
,  // measure 51
0100
0000
1000
0000
,  // measure 52
0010
0000
0001
0000
,  // measure 53
0010
0000
1000
0000
,  // measure 54
0100
0000
0001
0000
,  // measure 55
0100
0000
1000
0000
,  // measure 56
0001
0000
0100
0000
,  // measure 57
0000
0000
0001
0001
,  // measure 58
0000
0000
1000
1000
,  // measure 59
0000
0000
0010
0010
,  // measure 60
0000
0000
0100
0100
,  // measure 61
0000
0000
0001
0001
,  // measure 62
0000
0000
0100
0100
,  // measure 63
0000
0000
0010
0010
,  // measure 64
0000
0000
1000
1000
,  // measure 65
0000
0000
0001
0001
,  // measure 66
0000
0000
0010
0010
,  // measure 67
0000
0000
0100
0100
,  // measure 68
0000
0000
1000
1000
,  // measure 69
0000
0000
0001
0001
,  // measure 70
0000
0000
1000
1000
,  // measure 71
0000
0000
0010
0010
,  // measure 72
0000
0000
0100
0100
;
