#VERSION:0.83;
#TITLE:Shake It;
#SUBTITLE:;
#ARTIST:METRO STATION;
#TITLETRANSLIT:;
#SUBTITLETRANSLIT:;
#ARTISTTRANSLIT:;
#GENRE:;
#ORIGIN:;
#CREDIT:;
#BANNER:;
#BACKGROUND:;
#PREVIEWVID:;
#JACKET:Shake It-jacket.png;
#CDIMAGE:;
#DISCIMAGE:;
#LYRICSPATH:;
#CDTITLE:;
#MUSIC:Shake It.ogg;
#OFFSET:-0.983839;
#SAMPLESTART:45.152096;
#SAMPLELENGTH:14.999998;
#SELECTABLE:YES;
#BPMS:0.000=149.940;
#STOPS:;
#DELAYS:;
#WARPS:;
#TIMESIGNATURES:0.000=4=4;
#TICKCOUNTS:0.000=4;
#COMBOS:0.000=1;
#SPEEDS:0.000=1.000=0.000=0;
#SCROLLS:0.000=1.000;
#FAKES:;
#LABELS:0.000=Song Start;
#BGCHANGES:;
#KEYSOUNDS:;
#ATTACKS:
;

//---------------dance-single - ----------------
#NOTEDATA:;
#CHARTNAME:;
#STEPSTYPE:dance-single;
#DESCRIPTION:;
#CHARTSTYLE:;
#DIFFICULTY:Hard;
#METER:8;
#RADARVALUES:0.523304,0.572019,0.165006,0.330011,0.027501,333.000000,318.000000,15.000000,30.000000,0.000000,0.000000,0.000000,0.000000,0.000000,0.523304,0.572019,0.165006,0.330011,0.027501,333.000000,318.000000,15.000000,30.000000,0.000000,0.000000,0.000000,0.000000,0.000000;
#CREDIT:;
#NOTES:
0000
0000
0000
0000
,
0000
0000
0000
0000
,
0000
0000
0000
0000
,
0000
0000
0000
0000
,
1000
1000
2000
0000
3001
0002
0000
0103
,
0200
0000
0310
0010
0020
0000
0130
0000
,
0001
0001
0002
0000
1003
2000
0000
3010
,
0020
0000
0130
0100
0200
0000
0301
0000
,
1000
1000
2000
0000
3010
0020
0000
0130
,
0200
0000
0301
0001
0002
0000
0103
0000
,
0010
0010
0020
0000
1030
2000
0000
3100
,
0200
0000
0000
0000
0310
0000
0001
0000
0010
0000
0001
1000
0100
1000
0100
1000
,
0100
1000
0010
0100
0001
0010
0001
1000
,
0010
1000
0100
1000
0010
0000
0101
0000
,
0001
1000
0100
1000
0010
0000
0110
0000
,
0100
0001
0010
0001
0100
0000
0101
0000
,
0001
1000
0010
1000
0100
1000
0001
0100
,
0001
0100
0010
1000
0010
0000
1100
0000
,
1000
0010
0100
0001
0100
0000
0101
0000
,
0001
1000
0100
1000
0010
0000
1100
0000
,
1000
0100
1000
0100
0010
0001
0010
0001
,
0100
0001
0100
0001
1000
0010
1000
0010
,
1000
0001
1000
0001
0100
0010
0100
0010
,
1000
0100
0001
0100
1000
0100
0001
0100
,
1000
0100
0010
0001
0010
0100
1000
0100
,
1000
0010
0100
0001
1000
0010
0100
0001
,
1000
0100
0010
0001
0010
0100
1000
0100
,
0010
0001
0100
0010
1000
0001
0100
0010
,
1000
0100
1000
0000
1100
0000
0001
0100
,
0001
0100
0001
0000
0101
0000
1000
0010
,
1000
0010
1000
0000
1010
0000
0001
0010
,
0001
0010
0001
0000
0011
0000
1000
0010
,
1000
0100
1000
0000
1001
0000
0001
0100
,
0001
0010
0001
0000
1001
0000
0001
1000
,
0100
0010
0001
1000
0100
0010
0001
1000
,
0100
0000
0010
0000
0001
0000
1000
0000
0100
0000
0010
0000
0001
1000
0001
1000
,
0002
0000
0100
0000
0100
0000
0103
0200
,
0000
0010
0000
0010
0320
0000
1030
0000
,
2000
0000
0001
0000
0001
0000
3001
0002
,
0000
0100
0000
0100
0203
0000
0310
0000
,
0020
0000
1000
0000
1000
0000
1030
0002
,
0000
0100
0000
1003
0020
0000
0230
0000
,
0302
0000
0010
0000
0010
0000
0013
0002
,
0000
2003
0000
3100
0020
0000
0032
0000
,
1003
0001
0100
0001
1000
0001
0100
0001
,
1000
0010
1000
0001
1000
0010
1000
0001
,
0010
0001
0100
0001
0010
0001
0100
0001
,
1000
0010
1000
0100
1000
0010
1000
0100
,
1000
0010
1000
0010
0100
0001
0100
0001
,
1000
0001
1000
0001
0100
0010
0100
0010
,
1000
0100
0010
0001
1000
0100
0010
0001
,
1000
0100
0010
0001
1001
0000
0110
0000
,
1001
0000
0000
0000
;

//---------------dance-single - ----------------
#NOTEDATA:;
#CHARTNAME:;
#STEPSTYPE:dance-single;
#DESCRIPTION:;
#CHARTSTYLE:;
#DIFFICULTY:Medium;
#METER:6;
#RADARVALUES:0.383442,0.457616,0.231008,0.341012,0.000000,244.000000,223.000000,21.000000,31.000000,0.000000,0.000000,0.000000,0.000000,0.000000,0.383442,0.457616,0.231008,0.341012,0.000000,244.000000,223.000000,21.000000,31.000000,0.000000,0.000000,0.000000,0.000000,0.000000;
#CREDIT:;
#NOTES:
0000
0000
0000
0000
,
0000
0000
0000
0000
,
0000
0000
0000
0000
,
0000
0000
0000
0000
,
1000
0100
2000
0000
3002
0000
0000
0203
,
0000
0320
0000
0130
,
0001
1000
0002
0000
2003
0000
0000
3020
,
0000
0230
0000
0301
,
1000
0010
2000
0000
3020
0000
0000
0230
,
0000
0302
0000
0103
,
0010
0100
0020
0000
2030
0000
0000
3200
,
0000
0320
0001
0031
,
1001
0100
0001
1000
,
0010
1000
0100
0100
,
1000
0010
0100
0100
,
0001
0010
0100
0100
,
1000
0010
0100
0001
,
1000
0010
0100
0100
,
0001
1000
0010
0010
,
1000
0001
0100
0100
,
0010
1000
0100
0010
,
0001
0100
0010
1000
,
0100
0100
0100
0100
,
1000
0010
0100
0001
,
0001
0110
0001
0001
,
1000
0110
1000
1000
,
0001
1100
1000
0101
,
1001
0100
0100
1001
,
1000
0100
1000
0000
1100
0000
0001
0100
,
0001
0100
0001
0000
0101
0000
1000
0010
,
1000
0010
1000
0000
1010
0000
0001
0010
,
0001
0010
0001
0000
0011
0000
1000
0010
,
1000
0100
1000
0000
1001
0000
0001
0100
,
0001
0010
0001
0000
1001
0000
0001
1000
,
0100
0000
1001
0000
1001
0000
0100
0010
,
0100
0010
0100
0000
1001
0000
0110
0000
,
1002
0000
0100
0000
0100
0000
0103
0200
,
0000
0010
0000
0010
0320
0000
1030
0000
,
2000
0000
0001
0000
0001
0000
3001
0002
,
0000
0100
0000
0100
0203
0000
0310
0000
,
0020
0000
1000
0000
1000
0000
1030
0002
,
0000
0100
0000
1003
0020
0000
0230
0000
,
0302
0000
0010
0000
0010
0000
0013
0002
,
0000
2003
0000
3100
0020
0000
0032
0000
,
1003
0001
0100
0000
1000
0001
0100
0000
,
0001
0010
0001
0000
0001
0010
0001
0000
,
0010
0001
0100
0000
0010
0001
0100
0000
,
0001
0010
0001
0000
0001
0010
0001
0000
,
1000
0010
1000
0000
0100
0001
0100
0000
,
0001
0100
0001
0000
0001
0010
0001
0000
,
1000
0100
0010
0000
0001
0010
0100
0000
,
1000
0100
0010
0000
1001
0000
0110
0000
,
1001
0000
0000
0000
;

//---------------dance-single - ----------------
#NOTEDATA:;
#CHARTNAME:;
#STEPSTYPE:dance-single;
#DESCRIPTION:;
#CHARTSTYLE:;
#DIFFICULTY:Easy;
#METER:4;
#RADARVALUES:0.331583,0.429015,0.264009,0.286010,0.000000,211.000000,187.000000,24.000000,26.000000,0.000000,0.000000,0.000000,0.000000,0.000000,0.331583,0.429015,0.264009,0.286010,0.000000,211.000000,187.000000,24.000000,26.000000,0.000000,0.000000,0.000000,0.000000,0.000000;
#CREDIT:;
#NOTES:
0000
0000
0000
0000
,
0000
0000
0000
0000
,
0000
0000
0000
0000
,
0000
0000
0000
0000
,
1000
0000
2000
0000
3002
0000
0000
0203
,
0000
0320
0000
0130
,
0001
0000
0002
0000
2003
0000
0000
3020
,
0000
0230
0000
0301
,
1000
0000
2000
0000
3020
0000
0000
0230
,
0000
0302
0000
0103
,
1001
0110
1001
0100
,
0001
1000
0001
1001
,
1001
0100
0001
1000
,
0010
1000
0100
0100
,
1000
0010
0100
0100
,
0001
0010
0100
0100
,
1000
0010
0100
0001
,
1000
0010
0100
0100
,
0001
1000
0010
0010
,
1000
0001
0100
0100
,
0010
1000
0100
0010
,
0001
0100
0010
1000
,
0100
0100
0100
0100
,
1000
0010
0100
0001
,
0001
0110
0001
0001
,
1000
0110
1000
1000
,
0001
1100
1000
0101
,
1001
0100
0100
1001
,
1000
0100
1100
0001
,
0100
0001
0101
1000
,
0010
1000
1010
0001
,
0010
0001
0011
1000
,
0100
1000
1001
0001
,
0100
0001
1001
0001
,
0100
1001
1001
0100
,
1001
0100
1001
0110
,
1002
0100
0100
0103
,
0200
0010
0320
1030
,
2000
0001
0001
3002
,
0100
0100
0203
0010
,
0320
1000
1000
1030
,
2000
0010
3020
0230
,
0302
0010
0010
0013
,
0002
0100
0023
0032
,
1003
1000
1000
1000
,
0001
0001
0001
0001
,
0100
0100
0100
0100
,
0010
0010
0010
0010
,
1000
1000
0001
0001
,
0100
0100
0010
0010
,
1000
0001
0100
0010
,
1000
0001
0100
0010
,
1001
0000
0000
0000
;

//---------------dance-single - ----------------
#NOTEDATA:;
#CHARTNAME:;
#STEPSTYPE:dance-single;
#DESCRIPTION:;
#CHARTSTYLE:;
#DIFFICULTY:Beginner;
#METER:3;
#RADARVALUES:0.180720,0.286010,0.154005,0.000000,0.000000,115.000000,101.000000,14.000000,0.000000,0.000000,0.000000,0.000000,0.000000,0.000000,0.180720,0.286010,0.154005,0.000000,0.000000,115.000000,101.000000,14.000000,0.000000,0.000000,0.000000,0.000000,0.000000,0.000000;
#CREDIT:;
#NOTES:
// measure 0
0000
0000
0000
0000
,  // measure 1
0000
0000
0000
0000
,  // measure 2
0000
0000
0000
0000
,  // measure 3
0000
0000
0000
0000
,  // measure 4
1000
0000
0001
0000
,  // measure 5
0100
0000
0010
0000
,  // measure 6
0001
0000
1000
0000
,  // measure 7
0010
0000
0100
0000
,  // measure 8
1000
0000
0010
0000
,  // measure 9
0100
0000
0001
0000
,  // measure 10
0000
1001
1001
0000
,  // measure 11
0001
0000
1000
0000
,  // measure 12
0001
0000
0001
0000
,  // measure 13
0010
0000
0100
0000
,  // measure 14
1000
0000
0100
0000
,  // measure 15
0001
0000
0100
0000
,  // measure 16
1000
0000
0100
0000
,  // measure 17
1000
0000
0100
0000
,  // measure 18
0001
0000
0010
0000
,  // measure 19
1000
0000
0100
0000
,  // measure 20
0010
0000
0100
0000
,  // measure 21
0001
0000
0010
0000
,  // measure 22
0100
0000
0100
0000
,  // measure 23
1000
0000
0100
0000
,  // measure 24
0001
0000
0001
0000
,  // measure 25
1000
0000
1000
0000
,  // measure 26
0001
0000
1000
0000
,  // measure 27
0001
0000
1000
0000
,  // measure 28
1000
0000
1001
0000
,  // measure 29
0001
0000
1001
0000
,  // measure 30
0010
0000
0110
0000
,  // measure 31
0100
0000
0110
0000
,  // measure 32
1000
0000
1001
0000
,  // measure 33
0001
0000
1001
0000
,  // measure 34
0000
1001
1001
0000
,  // measure 35
0000
0000
0110
0110
,  // measure 36
0110
0000
0100
0000
,  // measure 37
0100
0000
0010
0000
,  // measure 38
1000
0000
0001
0000
,  // measure 39
0100
0000
0100
0000
,  // measure 40
0010
0000
1000
0000
,  // measure 41
1000
0000
0010
0000
,  // measure 42
0001
0000
0010
0000
,  // measure 43
0001
0000
0010
0000
,  // measure 44
1000
1000
1000
0000
,  // measure 45
0001
0001
0001
0000
,  // measure 46
0100
0100
0100
0000
,  // measure 47
0010
0010
0010
0000
,  // measure 48
1000
1000
0000
0000
,  // measure 49
0010
0010
0000
0000
,  // measure 50
0100
0100
0000
0000
,  // measure 51
0001
0001
0000
0000
,  // measure 52
1001
0000
0000
0000
;
