#TITLE:Seaside Romance;
#SUBTITLE:;
#ARTIST:Misery;
#TITLETRANSLIT:;
#SUBTITLETRANSLIT:;
#ARTISTTRANSLIT:;
#GENRE:;
#CREDIT:;
#BANNER:Seaside Romance.png;
#BACKGROUND:;
#LYRICSPATH:;
#CDTITLE:;
#MUSIC:Seaside Romance.ogg;
#OFFSET:-0.020000;
#SAMPLESTART:45.019970;
#SAMPLELENGTH:13.999999;
#SELECTABLE:YES;
#BPMS:0.000000=128.000214
;
#STOPS:
;
#BGCHANGES:;
#KEYSOUNDS:;
#ATTACKS:;

//---------------dance-single - ----------------
#NOTES:
     dance-single:
     :
     Hard:
     8:
     0.481431,0.534697,0.095982,0.255951,0.165302,316.000000,307.000000,9.000000,24.000000,0.000000,0.000000,0.481431,0.534697,0.095982,0.255951,0.165302,316.000000,307.000000,9.000000,24.000000,0.000000,0.000000:
0000
0000
0000
0000
,
0000
0000
0000
0000
,
0000
0000
0000
0000
,
0000
0000
0000
0000
,
0010
0000
0000
0010
0000
0000
0010
0000
1000
0000
0000
1000
0000
0000
1000
0000
,
0001
0000
0000
0001
0000
0000
0001
0000
0100
0000
0010
0000
0100
0000
0010
0000
,
1000
0100
1000
0000
0001
0100
0001
0000
,
1000
0100
1000
0000
0001
0100
0001
0000
,
2000
0001
0001
3002
0100
0100
0203
0010
,
0320
1000
1000
2030
0100
3100
0200
1000
,
1300
0001
0100
0001
,
0010
0001
1000
0100
,
2000
0001
0001
3002
0010
0010
0023
0001
,
0032
0100
0100
0203
0010
0010
0320
1000
,
1030
0010
0100
0001
,
0100
0010
0100
0001
,
0002
1000
1000
2003
0010
0010
3020
0100
,
0230
0001
0001
0302
1000
1000
2003
0100
,
3100
1000
0010
0100
,
0010
1000
0100
1000
,
0020
1000
1000
2030
0100
3100
0200
1000
,
2300
0010
0010
3020
0100
0100
0230
0001
,
0301
0010
0001
1000
,
0010
1000
0100
1000
,
1000
0001
1000
0010
0100
0010
1000
0000
,
0001
1000
0010
0100
0001
0010
0001
0000
,
1000
0100
0010
0100
1000
0010
0100
0000
,
0001
0100
0010
0100
0001
0010
0001
0000
,
1000
0010
0100
0010
1000
0100
1100
0000
,
0001
0100
0010
0100
0001
0010
0011
0000
,
0001
1000
0010
1000
0100
1000
1100
0000
,
0001
0100
0001
0010
0001
0100
0101
0000
,
1000
0000
0100
1000
0000
0100
1000
0000
0010
0000
0100
0001
0000
0100
0001
0000
,
0100
0000
0010
1000
0000
0010
1000
0000
0100
0000
0010
0001
0000
0010
0001
0000
,
1000
0000
0010
1000
0000
0010
0100
0000
0010
0000
1000
0001
0000
0100
0001
0000
,
1000
0000
0010
0100
0000
0001
0100
0000
0001
0000
0010
0001
0000
0100
0001
0000
,
1000
0000
0100
1000
0000
0010
1000
0000
0001
0000
0100
0001
0000
0010
0001
0000
,
1000
0000
0010
1000
0000
0010
0100
0000
0001
0000
0100
0001
0000
0010
0001
0000
,
1000
0000
0100
1000
0000
0010
1000
0000
0010
0000
0100
0001
0000
0100
0001
0000
,
0100
0001
0100
0001
1000
0010
1000
1010
,
1000
1000
1000
0000
0001
0001
0001
0000
,
1000
1000
1000
0000
0001
0001
0001
0000
,
0100
0100
0100
0000
0010
0010
0010
0000
,
0100
0100
0100
0000
0010
0010
0010
0000
,
1000
0100
0010
0100
1000
0010
0100
0000
,
0001
0010
0100
0010
0001
0100
0010
0000
,
1001
0100
0010
0100
0010
0100
1001
0000
,
0110
1000
0001
1000
0001
1000
0110
0000
;

//---------------dance-single - ----------------
#NOTES:
     dance-single:
     :
     Medium:
     5:
     0.324509,0.356465,0.010665,0.298609,0.074652,213.000000,212.000000,1.000000,28.000000,0.000000,0.000000,0.324509,0.356465,0.010665,0.298609,0.074652,213.000000,212.000000,1.000000,28.000000,0.000000,0.000000:
0000
0000
0000
0000
,
0000
0000
0000
0000
,
0000
0000
0000
0000
,
0000
0000
0000
0000
,
0010
0010
0010
0000
1000
1000
1000
0000
,
0001
0001
0001
0000
0100
0100
0100
0000
,
0010
0000
1000
0000
0001
0100
0001
0000
,
1000
0000
1000
0000
0001
0100
0001
0000
,
2000
0000
0000
3002
0000
0000
0203
0000
,
0320
0000
0000
2030
0000
3000
0200
0000
,
1300
0001
0100
0001
,
0010
0001
1000
0100
,
2000
0000
0000
3002
0000
0000
0023
0000
,
0032
0000
0000
0203
0000
0000
0320
0000
,
1030
0010
0100
0001
,
0100
0010
0100
0001
,
0002
0000
0000
2003
0000
0000
3020
0000
,
0230
0000
0000
0302
0000
0000
2003
0000
,
3100
1000
0010
0100
,
0010
1000
0100
1000
,
0020
0000
0000
2030
0000
3000
0200
0000
,
2300
0000
0000
3020
0000
0000
0230
0000
,
0301
0010
0001
1000
,
0010
1000
0100
1000
,
1000
0001
1000
0000
0010
0100
0001
0000
,
0001
1000
0010
0000
0100
0010
1000
0000
,
1000
0100
0010
0000
0001
0010
0100
0000
,
1000
0100
0010
0000
0001
0010
0100
0000
,
1000
0010
0100
0000
0001
0100
0010
0000
,
1000
0100
0010
0000
0001
0010
0100
0000
,
1000
0010
0100
0000
0001
0100
0010
0000
,
1000
0100
0010
0000
0001
0100
0010
0000
,
1000
0000
0000
1000
0000
0000
1000
0000
0001
0000
0000
0001
0000
0000
0001
0000
,
1000
0000
0000
1000
0000
0000
1000
0000
0001
0000
0000
0001
0000
0000
0001
0000
,
0100
0000
0000
0100
0000
0000
0100
0000
0010
0000
0000
0010
0000
0000
0010
0000
,
0100
0000
0000
0100
0000
0000
0100
0000
0010
0000
0000
0010
0000
0000
0010
0000
,
1000
0000
0000
1000
0000
0000
1000
0000
0001
0000
0000
0001
0000
0000
0001
0000
,
1000
0000
0000
1000
0000
0000
1000
0000
0001
0000
0000
0001
0000
0000
0001
0000
,
0100
0000
0000
0100
0000
0000
0100
0000
0010
0000
0000
0010
0000
0000
0010
0000
,
0200
0320
2030
3002
,
1003
1000
0001
0001
,
1000
1000
0001
0001
,
0100
0100
0010
0010
,
0100
0100
0010
0010
,
1000
0100
0010
0000
0001
0010
0100
0000
,
1000
0010
0100
0000
0001
0100
0010
0000
,
1000
0100
0010
0000
0001
0010
0100
0000
,
1000
0001
1000
0001
0100
0000
1001
0000
;

//---------------dance-single - ----------------
#NOTES:
     dance-single:
     :
     Easy:
     4:
     0.280327,0.305541,0.085317,0.394591,0.000000,184.000000,176.000000,8.000000,37.000000,0.000000,0.000000,0.280327,0.305541,0.085317,0.394591,0.000000,184.000000,176.000000,8.000000,37.000000,0.000000,0.000000:
// measure 0
0000
0000
0000
0000
,  // measure 1
0000
0000
0000
0000
,  // measure 2
0000
0000
0000
0000
,  // measure 3
0000
0000
0000
0000
,  // measure 4
0010
0010
1000
1000
,  // measure 5
0001
0001
0100
0100
,  // measure 6
0010
1000
0001
0001
,  // measure 7
1000
1000
0001
1001
,  // measure 8
2000
3002
0013
0200
,  // measure 9
0320
0031
1000
0200
,  // measure 10
1300
0001
0100
0001
,  // measure 11
0010
0001
1000
0100
,  // measure 12
2000
3002
0010
0023
,  // measure 13
0032
0100
0103
0020
,  // measure 14
1030
0010
0100
0001
,  // measure 15
0100
0010
0100
0001
,  // measure 16
0002
2003
0010
3020
,  // measure 17
0230
0302
1000
2003
,  // measure 18
3100
1000
0010
0100
,  // measure 19
0010
1000
0100
1000
,  // measure 20
0020
2030
3100
0200
,  // measure 21
2300
0001
3001
0200
,  // measure 22
0301
0010
0001
1000
,  // measure 23
0010
1000
0100
1000
,  // measure 24
1000
1001
0010
0001
,  // measure 25
0001
0010
1001
1000
,  // measure 26
1000
0010
1001
0100
,  // measure 27
1001
0010
0001
0100
,  // measure 28
1001
0100
0001
0010
,  // measure 29
1001
0010
0001
0100
,  // measure 30
1001
0100
1000
1000
,  // measure 31
1000
0010
0001
0010
,  // measure 32
2000
0001
3002
1000
,  // measure 33
2003
0001
3002
0100
,  // measure 34
0203
0010
0320
0100
,  // measure 35
0230
0010
0320
1000
,  // measure 36
2030
0001
3002
1000
,  // measure 37
2003
0001
3002
0100
,  // measure 38
0203
0010
0320
0100
,  // measure 39
0230
0010
0320
1000
,  // measure 40
1030
1000
0001
0001
,  // measure 41
1000
1000
0001
0001
,  // measure 42
0100
0100
0010
0010
,  // measure 43
0100
0100
0010
0010
,  // measure 44
1000
0010
0001
0100
,  // measure 45
1000
0100
0001
0010
,  // measure 46
1000
0010
0001
0100
,  // measure 47
1000
0100
0001
0010
;

//---------------dance-single - ----------------
#NOTES:
     dance-single:
     :
     Beginner:
     1:
     0.121881,0.125976,0.000000,0.085317,0.000000,80.000000,80.000000,0.000000,8.000000,0.000000,0.000000,0.121881,0.125976,0.000000,0.085317,0.000000,80.000000,80.000000,0.000000,8.000000,0.000000,0.000000:
// measure 0
0000
0000
0000
0000
,  // measure 1
0000
0000
0000
0000
,  // measure 2
0000
0000
0000
0000
,  // measure 3
0000
0000
0000
0000
,  // measure 4
0010
0010
0000
0000
,  // measure 5
0001
0001
0000
0000
,  // measure 6
0100
0100
0000
0000
,  // measure 7
1000
1000
0000
0000
,  // measure 8
1000
0000
0010
0000
,  // measure 9
0010
0000
1000
0000
,  // measure 10
1000
0000
0001
0000
,  // measure 11
0010
0000
0001
0000
,  // measure 12
1000
0000
0010
0000
,  // measure 13
0001
0000
0100
0000
,  // measure 14
1000
0000
0100
0000
,  // measure 15
0001
0000
0100
0000
,  // measure 16
0001
0000
0010
0000
,  // measure 17
0100
0000
1000
0000
,  // measure 18
0100
0000
0010
0000
,  // measure 19
0010
0000
1000
0000
,  // measure 20
0010
0000
1000
0000
,  // measure 21
1000
0000
0001
0000
,  // measure 22
0001
0000
0100
0000
,  // measure 23
0010
0000
1000
0000
,  // measure 24
1000
0000
0010
0000
,  // measure 25
0001
0000
0001
0000
,  // measure 26
1000
0000
1000
0000
,  // measure 27
0001
0000
0001
0000
,  // measure 28
1000
0000
0001
0000
,  // measure 29
1000
0000
0001
0000
,  // measure 30
1000
0000
0001
0000
,  // measure 31
1000
0000
0001
0000
,  // measure 32
2000
0000
3000
0000
,  // measure 33
0002
0000
0003
0000
,  // measure 34
0200
0000
0300
0000
,  // measure 35
0020
0000
0030
0000
,  // measure 36
2000
0000
3000
0000
,  // measure 37
0002
0000
0003
0000
,  // measure 38
0200
0000
0300
0000
,  // measure 39
0020
0000
0030
0000
,  // measure 40
1000
1000
0000
0000
,  // measure 41
1000
1000
0000
0000
,  // measure 42
0100
0100
0000
0000
,  // measure 43
0100
0100
0000
0000
,  // measure 44
0010
0010
0000
0000
,  // measure 45
0010
0010
0000
0000
,  // measure 46
0001
0001
0000
0000
,  // measure 47
0001
0001
0000
0000
;
