#VERSION:0.83;
#TITLE:SHOOTING STAR;
#SUBTITLE:;
#ARTIST:MoriHime;
#TITLETRANSLIT:SHOOTING☆STAR;
#SUBTITLETRANSLIT:;
#ARTISTTRANSLIT:;
#GENRE:;
#ORIGIN:;
#CREDIT:;
#BANNER:SHOOTING STAR.png;
#BACKGROUND:;
#PREVIEWVID:;
#JACKET:;
#CDIMAGE:;
#DISCIMAGE:;
#LYRICSPATH:;
#CDTITLE:;
#MUSIC:SHOOTING STAR.ogg;
#OFFSET:-0.020000;
#SAMPLESTART:61.339951;
#SAMPLELENGTH:15.000000;
#SELECTABLE:YES;
#BPMS:0.000=180.000;
#STOPS:;
#DELAYS:;
#WARPS:;
#TIMESIGNATURES:0.000=4=4;
#TICKCOUNTS:0.000=4;
#COMBOS:0.000=1;
#SPEEDS:0.000=1.000=0.000=0;
#SCROLLS:0.000=1.000;
#FAKES:;
#LABELS:0.000=Song Start;
#BGCHANGES:;
#KEYSOUNDS:;
#ATTACKS:
;

//---------------dance-single - ----------------
#NOTEDATA:;
#CHARTNAME:;
#STEPSTYPE:dance-single;
#DESCRIPTION:;
#CHARTSTYLE:;
#DIFFICULTY:Hard;
#METER:10;
#RADARVALUES:0.838347,0.901590,0.276897,0.142915,0.339422,657.000000,626.000000,31.000000,16.000000,0.000000,0.000000,0.000000,0.000000,0.000000,0.838347,0.901590,0.276897,0.142915,0.339422,657.000000,626.000000,31.000000,16.000000,0.000000,0.000000,0.000000,0.000000,0.000000;
#CREDIT:;
#NOTES:
0000
0000
0000
0000
,
0000
0000
0000
0000
,
0000
0000
0000
0000
,
0000
0000
0000
0000
,
1200
0001
0001
0301
,
0201
1000
1000
1300
,
1000
0001
0100
0010
1000
0100
0010
0001
,
1002
0100
0000
0003
2001
0100
0000
3000
,
1000
0000
0010
1000
0010
0000
0100
0000
0010
0000
0100
0000
0001
0000
0010
0000
,
0001
0000
0100
0001
0100
0000
0001
0000
0010
0000
0001
0000
1000
0000
0010
0000
,
1000
0000
0010
0100
0010
0000
1000
0000
0001
0000
0100
0000
0010
0000
0100
0000
,
0010
0000
1000
0001
1000
0000
0001
0000
0010
0000
0001
0000
0100
0000
0010
0000
,
1000
0000
0001
1000
0001
0000
1000
0000
0100
0000
0010
0000
0100
0000
1000
0000
,
0001
0000
0100
0010
0100
0000
0001
0000
0010
0000
0100
0000
0010
0000
0001
0000
,
0100
0000
0010
1000
0010
0000
1000
0000
0100
0000
1000
0000
0010
0000
0100
0000
,
0001
0000
0100
0001
0100
0000
0010
0000
1000
0000
0100
0000
1000
0000
0010
0000
,
1000
0000
0001
0100
0001
0000
1000
0000
0010
0000
0100
0000
0001
0000
0100
0000
,
0010
0000
1000
0001
1000
0000
0001
0000
0010
0000
0100
0000
1000
0000
0001
0000
,
0010
0000
0100
1000
0100
0000
1000
0000
0010
0000
0100
0000
0001
0000
1000
0000
,
0010
0000
0100
0010
0100
0000
0001
0000
1000
0000
0010
0000
0100
0000
0001
0000
,
1000
0000
0100
1000
0100
0000
1000
0000
0010
0000
0100
0000
0001
0000
0010
0000
,
0001
0000
0100
0001
0100
0000
0010
0000
1000
0000
0010
0000
0100
0000
0010
0000
,
1000
0000
0001
0100
0001
0000
1000
0000
0010
0000
1000
0000
0100
0000
1000
0000
,
0001
0000
0100
0010
0100
0000
0001
0000
0010
0000
0001
0000
0100
0000
0001
0000
,
1001
0100
0000
1001
0100
0000
1001
0100
,
0000
1001
0100
0000
1001
0100
1001
0000
,
2001
0001
0100
3001
,
1002
0010
1000
0103
,
2001
0001
0100
3010
,
1002
0100
0010
0103
,
2001
0010
0100
3001
,
0012
0100
1000
0103
,
2001
0010
0100
3001
,
1002
0000
0000
0000
1003
0000
0000
0000
0100
0001
0100
0001
1000
0010
1000
0010
,
1000
0001
0100
0001
1000
0010
1000
0100
,
1000
0010
0100
0010
1000
0010
0100
0010
,
1000
0100
0010
0100
1000
0100
0010
0100
,
1000
0001
0100
0010
0100
0001
0100
0010
,
0100
0001
0010
0100
0010
0001
0010
0100
,
0010
0001
1000
0100
0010
0001
1000
0100
,
0010
0001
1000
0010
0100
0001
1000
0010
,
0100
0001
0100
0001
0100
0001
1001
0000
,
1000
0100
1100
0000
0001
0100
0101
0000
,
1000
0100
1100
0000
0001
0100
0101
0000
,
1000
0100
0010
0001
1000
0100
0010
0001
,
0001
0100
0001
0100
0010
1000
0010
2000
0002
0000
0000
0000
3003
0000
0000
0000
,
1000
0000
0100
1000
0100
0000
1000
0100
1000
0000
0001
0100
0001
0000
0100
0001
,
0100
0000
0010
1000
0010
0000
1000
0010
1000
0000
0001
0100
0001
0000
0100
0001
,
0100
0001
0100
0001
1000
0010
1000
0010
,
1000
0100
1000
0100
0010
0001
0010
0001
,
0100
0000
0010
1000
0010
0000
1000
0010
1000
0000
0100
1000
0100
0000
1000
0100
,
1000
0000
0001
0010
0001
0000
0100
0001
0100
0000
0001
0010
0001
0000
0100
0010
,
0100
0001
1000
0100
1000
0001
0100
0001
,
1000
0010
1000
0001
0010
0001
0010
0100
,
1000
0000
0100
1000
0100
0000
1000
0010
1000
0000
0001
0100
0001
0000
0100
0010
,
0100
0000
0001
1000
0001
0000
1000
0100
1000
0000
0010
1000
0010
0000
0100
0001
,
0100
0010
0100
0010
1000
0001
1000
0001
,
1000
0100
0010
0001
1000
0100
0010
0001
,
0100
0000
0001
0100
0001
0000
1000
0010
1000
0000
0001
0100
0001
0000
1000
0100
,
1000
0000
0001
0010
0001
0000
1000
0100
1000
0000
0010
1000
0010
0000
0100
0001
,
0100
0010
1000
0010
0100
0010
1000
0010
,
0100
0000
0001
0000
0010
0000
0100
0000
0010
0001
0010
0001
0010
0100
0010
0001
,
1000
0000
0010
1000
0010
0000
0100
0000
0010
0000
0100
0000
0001
0000
0010
0000
,
0001
0000
0100
0001
0100
0000
0001
0000
0010
0000
0001
0000
1000
0000
0010
0000
,
1000
0000
0010
0100
0010
0000
1000
0000
0001
0000
0100
0000
0010
0000
0100
0000
,
0010
0000
1000
0001
1000
0000
0001
0000
0010
0000
0001
0000
0100
0000
0010
0000
,
1000
0000
0001
1000
0001
0000
1000
0000
0100
0000
0010
0000
0100
0000
1000
0000
,
0001
0000
0100
0010
0100
0000
0001
0000
0010
0000
0100
0000
0010
0000
0001
0000
,
0100
0000
0010
1000
0010
0000
1000
0000
0100
0000
1000
0000
0010
0000
0100
0000
,
0001
0000
0100
0001
0100
0000
0010
0000
1000
0000
0100
0000
1000
0000
0010
0000
,
1000
0000
0001
0100
0001
0000
1000
0000
0010
0000
0100
0000
0001
0000
0100
0000
,
0010
0000
1000
0001
1000
0000
0001
0000
0010
0000
0100
0000
1000
0000
0001
0000
,
0010
0000
0100
1000
0100
0000
1000
0000
0010
0000
0100
0000
0001
0000
1000
0000
,
0010
0000
0100
0010
0100
0000
0001
0000
1000
0000
0010
0000
0100
0000
0001
0000
,
1000
0000
0100
1000
0100
0000
1000
0000
0010
0000
0100
0000
0001
0000
0010
0000
,
0001
0000
0100
0001
0100
0000
0010
0000
1000
0000
0010
0000
0100
0000
0010
0000
,
1000
0000
0001
0100
0001
0000
1000
0000
0010
0000
1000
0000
0100
0000
1000
0000
,
0001
0000
0100
0010
0100
0000
0001
0000
0010
0000
0001
0000
0100
0000
0001
0000
,
1001
0100
0000
1001
0100
0000
1001
0100
,
0000
1001
0100
0000
1001
0100
1001
0110
,
2002
0000
0000
3003
;

//---------------dance-single - ----------------
#NOTEDATA:;
#CHARTNAME:;
#STEPSTYPE:dance-single;
#DESCRIPTION:;
#CHARTSTYLE:;
#DIFFICULTY:Medium;
#METER:8;
#RADARVALUES:0.578038,0.613081,0.473404,0.196508,0.000000,453.000000,400.000000,53.000000,22.000000,0.000000,0.000000,0.000000,0.000000,0.000000,0.578038,0.613081,0.473404,0.196508,0.000000,453.000000,400.000000,53.000000,22.000000,0.000000,0.000000,0.000000,0.000000,0.000000;
#CREDIT:;
#NOTES:
0000
0000
0000
0000
,
0000
0000
0000
0000
,
0000
0000
0000
0000
,
0000
0000
0000
0000
,
2001
0000
3100
0000
,
1002
0000
0103
0000
,
0220
0330
2002
3003
,
2000
0200
0000
3300
0002
0200
0000
0303
,
1000
0010
1000
0000
0010
0100
0001
0000
,
1000
0100
1000
0000
0010
0100
0010
0000
,
1000
0010
0100
0000
0001
0100
0010
0000
,
1000
0010
1000
0000
0010
0100
0001
0000
,
1000
0001
1000
0000
0010
0100
0010
0000
,
0100
0010
0100
0000
0001
1000
0001
0000
,
1000
0010
1000
0000
0001
0100
0001
0000
,
0001
0010
0001
0000
1000
0100
1000
0000
,
1000
0001
0100
0000
0001
1000
0100
0000
,
1000
0001
0100
0000
0001
1000
0100
0000
,
1000
0001
0100
0000
0001
1000
0100
0000
,
1000
0001
0100
0000
0001
1000
0100
0000
,
1000
0100
1000
0000
0001
0100
0001
0000
,
1000
0100
1000
0000
0001
0100
0001
0000
,
1000
0010
1000
0000
0001
0010
0001
0000
,
1000
0010
1000
0000
0001
0010
0001
0000
,
1000
0100
0000
0001
0100
0000
1000
0100
,
0000
0001
0100
0000
1000
0100
1000
0000
,
2001
0001
0100
3001
,
1002
0010
1000
0103
,
2001
0001
0100
3010
,
1002
0100
0010
0103
,
2001
0010
0100
3001
,
0012
0100
1000
0103
,
2001
0010
0100
3001
,
1002
0000
1000
0000
1003
0001
0010
0100
,
1000
0100
1100
1100
,
0001
0100
0101
0101
,
1000
0010
1010
1010
,
0001
0010
0011
0011
,
1000
0101
0001
1100
,
1000
0101
0001
1100
,
1010
0101
0001
1000
,
0011
1100
1000
0001
,
1000
0100
1000
0000
0001
0100
0001
0000
,
1000
0100
1000
0000
0001
0100
0001
0000
,
1000
0100
0010
0001
1000
0100
0010
0001
,
2002
0000
0000
3003
,
1000
0001
0100
0001
1000
0000
1001
0000
,
0001
1000
0100
1000
0001
0000
1001
0000
,
1000
0100
0010
0001
1000
0000
1001
0000
,
0001
0010
0100
1000
0001
0000
1001
0000
,
1000
0100
1000
0100
1000
0000
1100
0000
,
0001
0100
0001
0100
0001
0000
0101
0000
,
1000
0010
1000
0010
1000
0000
1010
0000
,
0001
0010
0001
0010
0001
0000
0011
0000
,
1000
0100
0010
0100
1000
0000
1010
0000
,
0001
0010
0100
0010
0001
0000
0101
0000
,
1000
0010
0100
0010
1000
0000
1100
0000
,
0001
0100
0010
0100
0001
0000
0011
0000
,
1000
0101
0001
1100
,
1000
0101
0001
1100
,
1000
0101
1010
0101
,
0011
1100
0011
1001
,
1000
0010
1000
0000
0010
0100
0001
0000
,
1000
0100
1000
0000
0010
0100
0010
0000
,
1000
0010
0100
0000
0001
0100
0010
0000
,
1000
0010
1000
0000
0010
0100
0001
0000
,
1000
0001
1000
0000
0010
0100
0010
0000
,
0100
0010
0100
0000
0001
1000
0001
0000
,
1000
0010
1000
0000
0001
0100
0001
0000
,
0001
0010
0001
0000
1000
0100
1000
0000
,
1000
0001
0100
0000
0001
1000
0100
0000
,
1000
0001
0100
0000
0001
1000
0100
0000
,
1000
0001
0100
0000
0001
1000
0100
0000
,
1000
0001
0100
0000
0001
1000
0100
0000
,
1000
0100
1000
0000
0001
0100
0001
0000
,
1000
0100
1000
0000
0001
0100
0001
0000
,
1000
0010
1000
0000
0001
0010
0001
0000
,
1000
0010
1000
0000
0001
0010
0001
0000
,
1000
0100
0000
0001
0100
0000
1000
0100
,
0000
0001
0100
0000
1000
0001
1000
0000
,
2002
0000
0000
3003
;

//---------------dance-single - ----------------
#NOTEDATA:;
#CHARTNAME:;
#STEPSTYPE:dance-single;
#DESCRIPTION:;
#CHARTSTYLE:;
#DIFFICULTY:Easy;
#METER:6;
#RADARVALUES:0.469576,0.540954,0.696709,0.196508,0.000000,368.000000,290.000000,78.000000,22.000000,0.000000,0.000000,0.000000,0.000000,0.000000,0.469576,0.540954,0.696709,0.196508,0.000000,368.000000,290.000000,78.000000,22.000000,0.000000,0.000000,0.000000,0.000000,0.000000;
#CREDIT:;
#NOTES:
// measure 0
0000
0000
0000
0000
,  // measure 1
0000
0000
0000
0000
,  // measure 2
0000
0000
0000
0000
,  // measure 3
0000
0000
0000
0000
,  // measure 4
2001
0000
3100
0000
,  // measure 5
1002
0000
0103
0000
,  // measure 6
0220
0330
2002
3003
,  // measure 7
2200
0000
0000
3300
0202
0000
0000
0303
,  // measure 8
1000
1000
0010
1001
,  // measure 9
0001
0001
0010
1001
,  // measure 10
1000
0100
0001
0110
,  // measure 11
0001
1000
0010
0110
,  // measure 12
1000
1000
0010
0110
,  // measure 13
0100
0100
0001
0110
,  // measure 14
1000
1000
0001
1001
,  // measure 15
0001
0001
1000
1001
,  // measure 16
1000
0100
0001
0100
,  // measure 17
1000
0100
0001
0100
,  // measure 18
1000
0100
0001
0100
,  // measure 19
1000
0100
0001
0100
,  // measure 20
1000
1000
0001
0001
,  // measure 21
1000
1000
0001
0001
,  // measure 22
1000
1000
0001
0001
,  // measure 23
1000
1000
0001
0001
,  // measure 24
1100
0000
0000
0101
0000
0000
1010
0000
,  // measure 25
0000
0011
0000
0000
1001
0000
0100
0000
,  // measure 26
2001
0001
0100
3001
,  // measure 27
1002
0010
1000
0103
,  // measure 28
2001
0001
0100
3010
,  // measure 29
1002
0100
0010
0103
,  // measure 30
2001
0010
0100
3001
,  // measure 31
0012
0100
1000
0103
,  // measure 32
2001
0010
0100
3001
,  // measure 33
1002
1000
1000
1003
,  // measure 34
1000
0100
1100
1100
,  // measure 35
0001
0100
0101
0101
,  // measure 36
1000
0010
1010
1010
,  // measure 37
0001
0010
0011
0011
,  // measure 38
1000
0101
0001
1100
,  // measure 39
1000
0101
0001
1100
,  // measure 40
1010
0101
0001
1000
,  // measure 41
0011
1100
1000
0001
,  // measure 42
1000
1000
0001
0001
,  // measure 43
1000
1000
0001
0001
,  // measure 44
1000
0010
0100
0001
,  // measure 45
2002
0000
0000
3003
,  // measure 46
1000
0100
1000
1001
,  // measure 47
0001
0100
0001
1001
,  // measure 48
1000
0010
1000
1001
,  // measure 49
0001
0100
0001
1001
,  // measure 50
1000
1000
1000
1100
,  // measure 51
0001
0001
0001
0101
,  // measure 52
1000
1000
1000
1010
,  // measure 53
0001
0001
0001
0011
,  // measure 54
1000
0010
1000
1010
,  // measure 55
0001
0100
0001
0101
,  // measure 56
1000
0100
1000
1100
,  // measure 57
0001
0010
0001
0011
,  // measure 58
1000
0101
0001
1100
,  // measure 59
1000
0101
0001
1100
,  // measure 60
1000
0101
1000
0101
,  // measure 61
0001
1100
0001
1100
,  // measure 62
1000
1000
0010
1001
,  // measure 63
0001
0001
0010
1001
,  // measure 64
1000
0100
0001
0110
,  // measure 65
0001
1000
0010
0110
,  // measure 66
1000
1000
0010
0110
,  // measure 67
0100
0100
0001
0110
,  // measure 68
1000
1000
0001
1001
,  // measure 69
0001
0001
1000
1001
,  // measure 70
1000
0100
0001
0100
,  // measure 71
1000
0100
0001
0100
,  // measure 72
1000
0100
0001
0100
,  // measure 73
1000
0100
0001
0100
,  // measure 74
1000
1000
0001
0001
,  // measure 75
1000
1000
0001
0001
,  // measure 76
1000
1000
0001
0001
,  // measure 77
1000
1000
0001
0001
,  // measure 78
1100
0000
0000
0101
0000
0000
1010
0000
,  // measure 79
0000
0011
0000
0000
1001
0000
0100
0000
,  // measure 80
2002
0000
0000
3003
;

//---------------dance-single - ----------------
#NOTEDATA:;
#CHARTNAME:;
#STEPSTYPE:dance-single;
#DESCRIPTION:;
#CHARTSTYLE:;
#DIFFICULTY:Beginner;
#METER:2;
#RADARVALUES:0.192679,0.216382,0.044661,0.053593,0.000000,151.000000,146.000000,5.000000,6.000000,0.000000,0.000000,0.000000,0.000000,0.000000,0.192679,0.216382,0.044661,0.053593,0.000000,151.000000,146.000000,5.000000,6.000000,0.000000,0.000000,0.000000,0.000000,0.000000;
#CREDIT:;
#NOTES:
// measure 0
0000
0000
0000
0000
,  // measure 1
0000
0000
0000
0000
,  // measure 2
0000
0000
0000
0000
,  // measure 3
0000
0000
0000
0000
,  // measure 4
1001
0000
0000
0000
,  // measure 5
1001
0000
0000
0000
,  // measure 6
0110
0000
0000
0000
,  // measure 7
0110
0000
0000
0000
,  // measure 8
1000
1000
0000
0000
,  // measure 9
0001
0001
0000
0000
,  // measure 10
1000
1000
0000
0000
,  // measure 11
0001
0001
0000
0000
,  // measure 12
1000
1000
0000
0000
,  // measure 13
0100
0100
0000
0000
,  // measure 14
0010
0010
0000
0000
,  // measure 15
0001
0001
0000
0000
,  // measure 16
1000
1000
0000
0000
,  // measure 17
0100
0100
0000
0000
,  // measure 18
0010
0010
0000
0000
,  // measure 19
0001
0001
0000
0000
,  // measure 20
1000
1000
0000
0000
,  // measure 21
0001
0001
0000
0000
,  // measure 22
0100
0100
0000
0000
,  // measure 23
0010
0010
0000
0000
,  // measure 24
2000
0000
3000
0000
,  // measure 25
0002
0000
0003
0000
,  // measure 26
0001
0000
0100
0000
,  // measure 27
1000
0000
1000
0000
,  // measure 28
0001
0000
0100
0000
,  // measure 29
1000
0000
0010
0000
,  // measure 30
0001
0000
0100
0000
,  // measure 31
0010
0000
1000
0000
,  // measure 32
0001
0000
0100
0000
,  // measure 33
1000
1000
1000
0000
,  // measure 34
1000
0000
1000
0000
,  // measure 35
0001
0000
0001
0000
,  // measure 36
1000
0000
1000
0000
,  // measure 37
0001
0000
0001
0000
,  // measure 38
1000
0000
0001
0000
,  // measure 39
1000
0000
0001
0000
,  // measure 40
1000
0000
0001
0000
,  // measure 41
0001
0000
1000
0000
,  // measure 42
1000
1000
0000
0000
,  // measure 43
0001
0001
0000
0000
,  // measure 44
0100
0100
0000
0000
,  // measure 45
0010
0010
0000
0000
,  // measure 46
1000
0000
1000
0000
,  // measure 47
0001
0000
0001
0000
,  // measure 48
1000
0000
1000
0000
,  // measure 49
0001
0000
0001
0000
,  // measure 50
1000
0000
1000
0000
,  // measure 51
0001
0000
0001
0000
,  // measure 52
1000
0000
1000
0000
,  // measure 53
0001
0000
0001
0000
,  // measure 54
1000
0000
1000
0000
,  // measure 55
0001
0000
0001
0000
,  // measure 56
1000
0000
1000
0000
,  // measure 57
0001
0000
0001
0000
,  // measure 58
1000
0000
0001
0000
,  // measure 59
1000
0000
0001
0000
,  // measure 60
1000
0000
1000
0000
,  // measure 61
0001
0000
0001
0000
,  // measure 62
1000
1000
0000
0000
,  // measure 63
0001
0001
0000
0000
,  // measure 64
1000
1000
0000
0000
,  // measure 65
0001
0001
0000
0000
,  // measure 66
0100
0100
0000
0000
,  // measure 67
0010
0010
0000
0000
,  // measure 68
0100
0100
0000
0000
,  // measure 69
0010
0010
0000
0000
,  // measure 70
1000
1000
0000
0000
,  // measure 71
0001
0001
0000
0000
,  // measure 72
1000
1000
0000
0000
,  // measure 73
0001
0001
0000
0000
,  // measure 74
1000
1000
0000
0000
,  // measure 75
0100
0100
0000
0000
,  // measure 76
0010
0010
0000
0000
,  // measure 77
0001
0001
0000
0000
,  // measure 78
2000
0000
3000
0000
,  // measure 79
0002
0000
0003
0000
,  // measure 80
2002
0000
0000
3003
;
