#TITLE:SAKURA KAGETSU;
#SUBTITLE:;
#ARTIST:AKITO;
#TITLETRANSLIT:;
#SUBTITLETRANSLIT:;
#ARTISTTRANSLIT:;
#GENRE:;
#CREDIT:;
#BANNER:SAKURAKAGETSU.png;
#BACKGROUND:SAKURAKAGETSU-bg.png;
#LYRICSPATH:;
#CDTITLE:;
#MUSIC:SAKURAKAGETSU.mp3;
#OFFSET:-0.060000;
#SAMPLESTART:97.419914;
#SAMPLELENGTH:15.000000;
#SELECTABLE:YES;
#BPMS:0.000000=138.000000
;
#STOPS:
;
#BGCHANGES:;
#KEYSOUNDS:;
#ATTACKS:;

//---------------dance-single - ----------------
#NOTES:
     dance-single:
     :
     Hard:
     8:
     0.531703,0.566550,0.157375,0.165244,0.055081,473.000000,453.000000,20.000000,21.000000,0.000000,0.000000,0.531703,0.566550,0.157375,0.165244,0.055081,473.000000,453.000000,20.000000,21.000000,0.000000,0.000000:
0000
0000
0000
0000
,
0000
0000
0000
0000
,
0000
0000
0000
0000
,
0000
0000
0000
0000
,
0001
0000
0010
0100
2000
0000
0000
0000
,
3010
0100
0001
0000
0100
0000
0100
0000
,
0000
0000
0001
0010
0001
0000
1000
0000
,
2002
0000
0000
3003
,
1000
0100
1000
0010
0100
0001
0010
0001
,
0100
0010
1000
0010
0100
0001
0010
0001
,
0100
0010
1000
0100
1000
0001
0100
0001
,
1000
0010
1000
0010
0100
0001
0100
0001
,
1000
0100
1000
1000
0001
0100
0001
0001
,
1000
0010
1000
1000
0001
0010
0001
0001
,
1000
0100
0010
0001
1000
0001
0100
0010
,
1000
0100
0010
0100
1000
0001
0010
0100
,
0020
0000
0000
0000
0000
0000
0001
0001
,
0032
0000
0000
0000
0000
0000
1000
1000
,
2003
0000
0000
3001
0010
0100
1000
0100
,
0010
0001
0010
0100
2000
0000
0000
0000
,
3001
0100
0001
0100
0010
1000
0010
1000
,
0100
1000
0100
1000
0001
0010
0001
0010
,
0001
0010
0100
1000
0001
0010
0100
1000
,
0001
0010
0100
0010
0001
0100
0010
0100
,
0001
0100
0001
0000
0100
0000
0001
0000
1000
0000
0010
0000
1000
0000
0100
0000
,
1000
0100
1000
0000
0010
0000
0100
0000
0001
0000
0100
0000
0010
0000
0100
0000
,
0001
0010
0001
0000
1000
0000
0100
0000
1000
0000
0010
0000
0100
0000
0010
0000
,
1000
0100
1000
0000
0010
0000
0100
0000
0001
0000
0100
0000
0010
0000
1000
0000
,
0001
0100
0001
0000
1000
0000
0100
0000
1000
0000
0010
0000
0100
0000
0001
0000
,
0100
0001
0100
0000
0010
0000
1000
0000
0100
0000
1000
0000
0010
0000
0100
0000
,
0001
0100
0001
0000
1000
0000
0100
0000
0010
0000
0100
0000
1000
0000
0010
0000
,
0100
0010
0100
0000
0010
0000
1000
0000
0010
0000
0100
0000
0001
0000
0010
0000
,
0001
1000
0001
0000
1000
0000
0010
0000
1000
0000
0010
0000
0100
0000
0001
0000
,
1000
0010
1000
0000
0100
0000
1000
0000
0010
0000
0100
0000
0001
0000
0010
0000
,
0001
0100
0001
0000
0100
0000
0010
0000
1000
0000
0010
0000
0100
0000
0010
0000
,
1000
0100
1000
0000
0010
0000
0100
0000
0010
0000
1000
0000
0010
0000
0100
0000
,
0002
0000
0000
0000
0103
0010
0100
0010
,
2000
0000
0000
0000
3010
0100
0010
0100
,
0002
0000
0000
0000
0103
0010
0100
0010
,
2000
0000
0000
0000
3001
0010
0100
1000
,
0001
0100
0001
1000
0001
0100
0001
0001
,
1000
0100
1000
0001
1000
0100
1000
1000
,
0001
0010
0001
1000
0001
0010
0001
0001
,
1000
0010
1000
0001
1000
0010
1000
1000
,
1002
0000
0100
0100
0100
0000
0103
0000
,
2001
0000
0100
0100
0100
0000
3100
0000
,
1002
0000
0100
0100
0100
0000
0103
0000
,
2001
0000
0100
0100
0100
0000
3100
0000
,
1000
0100
1000
1000
1000
0000
1001
0000
,
0001
0100
0001
0001
0001
0000
1001
0000
,
1000
0010
1000
1000
1000
0000
1001
0000
,
0001
0010
0001
0001
0001
0000
1001
0000
,
1000
0100
0010
0100
1000
0000
1100
0000
,
0001
0010
0100
0010
0001
0000
0011
0000
,
1000
0010
0100
0010
1000
0000
1010
0000
,
0001
0100
0010
0100
0001
0000
0101
0000
,
1000
0100
0010
0100
1000
0100
0010
0001
,
0010
0100
0010
0001
0010
0100
1000
0100
,
0010
0100
1000
0100
0010
0001
0010
0100
,
0010
0001
0010
0100
1000
0010
0100
0010
,
1000
0100
0010
0001
0100
0010
0100
0001
,
0010
0100
1000
0010
0100
0010
1000
0100
,
0010
0001
0100
0010
0100
0001
0010
0100
,
1000
0100
1000
0000
0100
0000
0010
0000
0001
0010
0001
0000
0010
0000
0100
0000
,
2100
0100
0100
0100
,
3200
0010
0010
0010
,
0320
0001
0001
0001
,
0032
1000
1000
1000
,
1003
0000
0001
0100
0001
0000
1001
0000
,
1000
0010
1000
0000
1010
0000
1001
0000
,
0101
0000
0001
0100
0001
0000
0101
0000
,
2002
0000
0000
0000
,
3003
0000
0000
0000
;

//---------------dance-single - ----------------
#NOTES:
     dance-single:
     :
     Medium:
     6:
     0.386693,0.396585,0.236062,0.330487,0.000000,344.000000,314.000000,30.000000,42.000000,0.000000,0.000000,0.386693,0.396585,0.236062,0.330487,0.000000,344.000000,314.000000,30.000000,42.000000,0.000000,0.000000:
0000
0000
0000
0000
,
0000
0000
0000
0000
,
0000
0000
0000
0000
,
0000
0000
0000
0000
,
0001
1000
2002
3003
,
0001
0100
0001
0000
0100
0000
0100
0000
,
0000
0001
1001
1000
,
2002
0000
0000
3003
,
1000
0001
1000
0000
0001
1000
0001
0000
,
1000
0101
0001
1100
,
0001
0100
0001
0000
1000
0100
1000
0000
,
1000
1100
0001
0101
,
1000
0010
1000
0000
0001
0010
0001
0000
,
1000
1010
0001
0011
,
1000
0010
1000
0000
0001
0010
0001
0000
,
1000
0011
0001
1010
,
0020
0000
0000
0000
,
0230
0000
0000
0000
,
0302
0000
0000
0000
,
2003
0000
0000
0000
,
3001
0100
0001
0000
0010
0000
0010
0000
,
0100
1000
0100
0000
0010
0000
0010
0000
,
0001
0010
0100
0000
0100
0010
0001
0000
,
0001
0100
0001
0100
0001
0000
1001
0000
,
0002
0000
0103
0001
1000
0010
1000
0000
,
2000
0000
3010
0100
0001
0100
0010
0000
,
0020
0000
1030
0100
1000
0010
0100
0000
,
0200
0000
0310
0100
0010
0100
0001
0000
,
0002
0000
1003
0100
1000
0010
0100
0000
,
0200
0000
0310
1000
0100
1000
0001
0000
,
0002
0000
1003
0100
0010
0100
1000
0000
,
2000
0000
3010
1000
0010
0100
0001
0000
,
0002
0000
1003
0010
1000
0010
0100
0000
,
0200
0000
0310
0100
0010
0100
0001
0000
,
0002
0000
0103
0010
1000
0010
0100
0000
,
0200
0000
0310
0100
0010
1000
0001
0000
,
0002
0000
0000
0000
0103
0010
0100
0010
,
2000
0000
0000
0000
3010
0100
0010
0100
,
0002
0000
0000
0000
0103
0010
0100
0010
,
2000
0000
0000
0000
3001
0001
0001
0000
,
1001
0000
0001
1000
0001
0100
0002
0000
,
1003
0000
1000
0001
1000
0100
2000
0000
,
3001
0000
0001
1000
0001
0010
0002
0000
,
1003
0000
1000
0001
1000
0010
2000
0000
,
3002
0100
0100
0103
,
2000
0100
0100
3100
,
0002
0100
0100
0103
,
2000
0100
0100
3100
,
1000
0100
1000
0000
1000
0000
1001
0000
,
0001
0100
0001
0000
0001
0000
1001
0000
,
1000
0010
1000
0000
1000
0000
1001
0000
,
0001
0010
0001
0000
0001
0000
1001
0000
,
1000
0100
0010
0000
0100
0000
1100
0000
,
0001
0010
0100
0000
0010
0000
0011
0000
,
1000
0010
0100
0000
0010
0000
1010
0000
,
0001
0100
0010
0000
0100
0000
0101
0000
,
1000
0100
0010
0000
0010
0100
1000
0000
,
1001
0000
0010
0100
0010
0000
0100
0000
,
0001
0100
0001
0000
0010
0001
0010
0000
,
0001
0010
0100
0000
0100
0010
0001
0000
,
1001
0000
1000
0001
1000
0000
1001
0000
,
0010
0100
0010
0000
0100
0000
0101
0000
,
0001
0100
0001
0000
0100
0000
0010
0000
,
1000
0100
0010
0001
,
2002
0000
0000
0003
,
3200
0010
0020
0030
,
0320
0001
0002
0003
,
0032
1000
2000
3000
,
1003
0001
0001
1001
,
1000
1000
1000
1001
,
0001
0001
0001
0101
,
2002
0000
0000
0000
,
3003
0000
0000
0000
;

//---------------dance-single - ----------------
#NOTES:
     dance-single:
     :
     Easy:
     4:
     0.267537,0.339930,0.094425,0.299012,0.000000,238.000000,226.000000,12.000000,38.000000,0.000000,0.000000,0.267537,0.339930,0.094425,0.299012,0.000000,238.000000,226.000000,12.000000,38.000000,0.000000,0.000000:
0000
0000
0000
0000
,
0000
0000
0000
0000
,
0000
0000
0000
0000
,
0000
0000
0000
0000
,
1000
1000
2000
3000
,
0001
0001
0002
0003
,
1000
0001
1000
0001
,
2002
0000
0000
3003
,
1000
1000
0001
0001
,
1000
0100
0001
0100
,
1000
0001
1000
1000
,
1000
0100
0001
0100
,
1000
1000
0001
0001
,
1000
0010
0001
0010
,
1000
1000
0001
0001
,
1000
0010
0001
0010
,
0020
0000
0000
0000
,
0230
0000
0000
0000
,
0302
0000
0000
0000
,
2003
0000
0000
0000
,
3001
0001
0010
0010
,
0100
0100
1000
1000
,
0001
0100
0010
1000
,
0001
1000
0001
1000
,
0002
0103
0010
1000
,
2000
3010
0100
0010
,
0020
1030
1000
0100
,
0200
0310
0010
0001
,
0002
1003
1000
0100
,
0200
0310
0001
0001
,
0002
1003
0010
1000
,
2000
3010
0010
0100
,
0002
1003
1000
0100
,
0200
0310
0010
0001
,
0002
0103
0010
0100
,
0200
0310
1000
0001
,
0002
0000
0103
0010
,
2000
0000
3010
0100
,
0002
0000
0103
0010
,
2000
0000
3001
0001
,
1001
0001
0001
0002
,
1003
1000
1000
2000
,
3010
0010
0010
0020
,
0130
0100
0100
0200
,
0302
0100
0100
0003
,
2000
0100
0100
3000
,
0002
0100
0100
0003
,
2000
0100
0100
3000
,
1000
1000
1000
1001
,
0001
0001
0001
1001
,
1000
1000
1000
0110
,
0001
0001
0001
0110
,
1000
0010
0100
1001
,
0001
0100
0010
1001
,
1000
0100
0010
1001
,
0001
0010
0100
1001
,
1000
0010
0010
1000
,
0001
0010
0010
0100
,
1000
0001
0010
0010
,
0001
0100
0100
0001
,
0001
1000
1000
0001
,
0010
0010
0100
1000
,
0001
0001
0100
0010
,
1000
0100
0010
1001
,
2000
0000
0000
0000
,
3200
0000
0000
0000
,
0320
0000
0000
0000
,
0032
0000
0000
0000
,
1003
0000
0001
0000
,
0100
0000
0010
0000
,
1000
0000
0001
0000
,
2002
0000
0000
0000
,
3003
0000
0000
0000
;

//---------------dance-single - ----------------
#NOTES:
     dance-single:
     :
     Beginner:
     2:
     0.122528,0.198292,0.031475,0.094425,0.000000,109.000000,105.000000,4.000000,12.000000,0.000000,0.000000,0.122528,0.198292,0.031475,0.094425,0.000000,109.000000,105.000000,4.000000,12.000000,0.000000,0.000000:
// measure 0
0000
0000
0000
0000
,  // measure 1
0000
0000
0000
0000
,  // measure 2
0000
0000
0000
0000
,  // measure 3
0000
0000
0000
0000
,  // measure 4
1000
0000
1000
0000
,  // measure 5
0001
0000
0001
0000
,  // measure 6
1000
0000
0001
0000
,  // measure 7
2002
0000
0000
3003
,  // measure 8
1000
0000
0001
0000
,  // measure 9
1000
0000
0001
0000
,  // measure 10
1000
0000
0001
0000
,  // measure 11
1000
0000
0001
0000
,  // measure 12
1000
0000
0001
0000
,  // measure 13
1000
0000
0001
0000
,  // measure 14
1000
0000
0001
0000
,  // measure 15
1000
0000
0001
0000
,  // measure 16
2000
0000
0000
0000
,  // measure 17
3000
0000
0000
0000
,  // measure 18
0002
0000
0000
0000
,  // measure 19
0003
0000
0000
0000
,  // measure 20
0001
0001
0000
0000
,  // measure 21
0100
0100
0000
0000
,  // measure 22
0010
0010
0000
0000
,  // measure 23
1000
1000
0000
0000
,  // measure 24
0001
0000
0000
0000
,  // measure 25
1000
0000
0000
0000
,  // measure 26
0010
0000
0000
0000
,  // measure 27
0100
0000
0000
0000
,  // measure 28
0001
0000
0000
0000
,  // measure 29
0100
0000
0000
0000
,  // measure 30
0001
0000
0000
0000
,  // measure 31
1000
0000
0000
0000
,  // measure 32
0001
0000
0000
0000
,  // measure 33
0100
0000
0000
0000
,  // measure 34
0001
0000
0000
0000
,  // measure 35
0100
0000
0000
0000
,  // measure 36
0002
0000
0003
0000
,  // measure 37
2000
0000
3000
0000
,  // measure 38
0020
0000
0030
0000
,  // measure 39
0200
0000
0300
0000
,  // measure 40
1001
0000
0001
0000
,  // measure 41
1000
0000
1000
0000
,  // measure 42
0010
0000
0010
0000
,  // measure 43
0100
0000
0100
0000
,  // measure 44
0001
0000
0100
0000
,  // measure 45
1000
0000
0010
0000
,  // measure 46
0001
0000
0100
0000
,  // measure 47
1000
0000
0010
0000
,  // measure 48
1000
1000
1000
0000
,  // measure 49
0001
0001
0001
0000
,  // measure 50
1000
1000
1000
0000
,  // measure 51
0001
0001
0001
0000
,  // measure 52
1000
0000
0100
0000
,  // measure 53
0001
0000
0010
0000
,  // measure 54
1000
0000
0010
0000
,  // measure 55
0001
0000
0100
0000
,  // measure 56
1000
0000
0010
0000
,  // measure 57
0001
0000
0010
0000
,  // measure 58
1000
0000
0010
0000
,  // measure 59
0001
0000
0100
0000
,  // measure 60
0001
0000
1000
0000
,  // measure 61
0010
0000
0100
0000
,  // measure 62
0001
0000
0100
0000
,  // measure 63
1000
0000
0010
0000
,  // measure 64
2000
0000
0000
0000
,  // measure 65
0000
0000
0000
0000
,  // measure 66
3000
0000
0000
0000
,  // measure 67
1001
0000
0000
0000
,  // measure 68
0002
0000
0000
0000
,  // measure 69
0000
0000
0000
0000
,  // measure 70
0003
0000
0000
0000
,  // measure 71
2002
0000
0000
0000
,  // measure 72
3003
0000
0000
0000
;
