#TITLE:Right About Now;
#SUBTITLE:(Gaudino & Jenna Remix);
#ARTIST:Mousse T. feat. Emma Lanford;
#TITLETRANSLIT:;
#SUBTITLETRANSLIT:;
#ARTISTTRANSLIT:;
#GENRE:;
#CREDIT:;
#BANNER:Right About Now (Gaudino & Jenna Remix).png;
#BACKGROUND:;
#LYRICSPATH:;
#CDTITLE:;
#MUSIC:Right About Now (Gaudino & Jenna Remix).ogg;
#OFFSET:-0.040000;
#SAMPLESTART:30.739944;
#SAMPLELENGTH:15.620000;
#SELECTABLE:YES;
#BPMS:0.000000=125.040276
;
#STOPS:
;
#BGCHANGES:;
#KEYSOUNDS:;
#ATTACKS:;

//---------------dance-single - ----------------
#NOTES:
     dance-single:
     :
     Hard:
     8:
     0.448888,0.530608,0.162859,0.316137,0.105379,328.000000,311.000000,17.000000,33.000000,0.000000,0.000000,0.448888,0.530608,0.162859,0.316137,0.105379,328.000000,311.000000,17.000000,33.000000,0.000000,0.000000:
0000
0000
0000
0000
,
0000
0000
0000
0000
,
0000
0000
0000
0000
,
0000
0000
0000
0000
,
1000
0000
0110
0000
1000
0010
0100
0001
,
1000
0010
0100
0001
1000
0001
1000
0000
,
0001
0000
0110
0000
0001
0010
0100
1000
,
0001
1000
0010
0100
0001
1000
0001
0000
,
1000
0001
2000
0000
3001
0001
0100
0100
,
0001
1000
0002
0000
0013
0010
0100
0100
,
1000
0010
2000
0000
3010
0010
0100
0100
,
0001
0100
0002
0000
0013
0010
0100
0100
,
1000
0010
2000
0000
3010
0010
0100
0100
,
0001
1000
0002
0000
0013
0010
0100
0100
,
1000
0010
2000
0000
3001
0001
0010
0010
,
0001
1000
0010
1000
0100
1000
0010
1000
,
0001
1000
0000
1000
0001
0000
0001
0100
0000
0100
0010
0000
0010
0000
1000
0000
,
0100
1000
0020
0000
0000
0000
0100
0100
,
0130
0000
1001
0000
1000
0001
1000
0001
,
0100
0010
0100
0010
1000
0100
0010
0001
,
0010
0001
0000
0001
0100
0000
0100
0010
0000
0010
1000
0000
1000
0000
0001
0000
,
0100
0001
0020
0000
0000
0000
0100
0100
,
0130
0000
1001
0000
0001
1000
0001
1000
,
0001
0010
0100
1000
0001
0010
0100
1000
,
1000
0000
0110
0000
1000
0010
0100
0001
,
1000
0010
0100
0001
1000
0001
1000
0000
,
0001
0000
0110
0000
0001
0010
0100
1000
,
0001
1000
0010
0100
0001
1000
0001
0000
,
1002
0100
1000
0103
,
2001
0100
0001
3100
,
2001
0010
0001
3010
,
1002
0010
1000
0013
,
2000
3200
0320
0032
,
2003
3002
0203
0320
,
2030
3002
0203
0320
,
1030
0100
1000
0100
1000
0010
1000
0010
1000
0001
0000
0000
,
0001
1000
0000
1000
0001
0000
0001
0100
0000
0100
0010
0000
0010
0000
1000
0000
,
0100
1000
0020
0000
0000
0000
0100
0100
,
0130
0000
1001
0000
1000
0001
1000
0001
,
0100
0010
0100
0010
1000
0100
0010
0001
,
0010
0001
0000
0001
0100
0000
0100
0010
0000
0010
1000
0000
1000
0000
0001
0000
,
0100
0001
0020
0000
0000
0000
0100
0100
,
0130
0000
1001
0000
0001
1000
0001
1000
,
0001
0010
0100
1000
0001
0010
0100
1000
,
0001
1000
0001
0100
0001
1000
0001
0001
,
1000
0001
1000
0100
1000
0001
1000
1000
,
0001
1000
0001
0010
0001
1000
0001
0001
,
1000
0100
0010
0001
0010
0100
1000
0000
,
1002
0100
0010
0103
,
2001
0100
0010
3100
,
1002
0010
0100
0013
,
2001
0010
0100
3010
,
2002
0000
0000
3003
;

//---------------dance-single - ----------------
#NOTES:
     dance-single:
     :
     Medium:
     5:
     0.347614,0.353739,0.162859,0.344877,0.000000,254.000000,237.000000,17.000000,36.000000,0.000000,0.000000,0.347614,0.353739,0.162859,0.344877,0.000000,254.000000,237.000000,17.000000,36.000000,0.000000,0.000000:
0000
0000
0000
0000
,
0000
0000
0000
0000
,
0000
0000
0000
0000
,
0000
0000
0000
0000
,
1000
0000
0110
0000
1000
0010
0100
0000
,
1000
0010
0100
0000
1000
0001
1000
0000
,
0001
0000
0110
0000
0001
0010
0100
0000
,
0001
1000
0010
0000
0001
1000
0001
0000
,
1000
0000
2000
0000
3001
0001
0100
0100
,
0001
0000
0002
0000
0013
0010
0100
0100
,
1000
0000
2000
0000
3010
0010
0100
0100
,
0001
0000
0002
0000
0013
0010
0100
0100
,
1000
0000
2000
0000
3010
0010
0100
0100
,
0001
0000
0002
0000
0013
0010
0100
0100
,
1000
0000
2000
0000
3001
0001
0010
0010
,
0001
0010
1000
0100
,
0001
0000
0001
0000
0001
0000
0001
1000
,
0100
1000
0020
0000
0000
0000
0100
0100
,
0130
0000
1001
0000
1000
0001
1000
0000
,
0010
0100
0010
0000
1000
0001
1000
0000
,
1000
0000
1000
0000
1000
0000
1000
0001
,
0100
0001
0020
0000
0000
0000
0100
0100
,
0130
1001
0001
1000
,
0001
0100
1000
0010
,
0010
0000
0110
0000
1000
0010
0100
0000
,
1000
0010
0100
0000
1000
0001
1000
0000
,
0001
0000
0110
0000
0001
0010
0100
0000
,
0001
1000
0010
0000
0001
1000
0001
0000
,
1002
0100
1000
0103
,
2001
0100
0001
3100
,
2001
0010
0001
3010
,
1002
0010
1000
0013
,
2000
3200
0320
0032
,
2003
3002
0203
0320
,
2030
3002
0203
0320
,
2030
3200
0320
0031
,
0001
0000
0001
0000
0001
0000
0001
1000
,
0100
1000
0020
0000
0000
0000
0100
0100
,
0130
0000
1001
0000
1000
0001
1000
0000
,
0010
0100
0010
0000
1000
0001
1000
0000
,
1000
0000
1000
0000
1000
0000
1000
0001
,
0100
0001
0020
0000
0000
0000
0100
0100
,
0130
1001
0001
1000
,
0001
0100
1000
0010
,
0001
0000
0001
0000
0001
0100
0001
0000
,
1000
0000
1000
0000
1000
0100
1000
0000
,
0001
0000
0001
0000
0001
0010
0001
0000
,
1000
0000
1000
0000
1000
0010
1000
0000
,
1002
0100
0010
0103
,
2001
0100
0010
3100
,
1002
0010
0100
0013
,
2001
0010
0100
3010
,
2002
0000
0000
3003
;

//---------------dance-single - ----------------
#NOTES:
     dance-single:
     :
     Easy:
     3:
     0.243604,0.252670,0.124539,0.316137,0.000000,178.000000,165.000000,13.000000,33.000000,0.000000,0.000000,0.243604,0.252670,0.124539,0.316137,0.000000,178.000000,165.000000,13.000000,33.000000,0.000000,0.000000:
0000
0000
0000
0000
,
0000
0000
0000
0000
,
0000
0000
0000
0000
,
0000
0000
0000
0000
,
1000
0100
1000
0100
,
1000
0100
1000
1000
,
0001
0010
0001
0010
,
0001
0010
0001
0001
,
1000
2000
3001
0100
,
0001
0002
0013
0100
,
1000
2000
3010
0100
,
0001
0002
0013
0100
,
1000
2000
3010
0100
,
0001
0002
0013
0100
,
1000
2000
3001
0010
,
0001
0010
1000
0100
,
0001
0001
0001
0001
,
0100
0020
0000
0100
,
0130
1001
1000
1000
,
0010
0010
1000
1000
,
1000
1000
1000
1000
,
0100
0020
0000
0100
,
0130
1001
0001
1000
,
0001
0100
1000
0010
,
0010
1000
1000
0100
,
1000
0100
1000
1000
,
0001
0010
0001
0010
,
0001
0010
0001
0001
,
2002
0000
0000
3003
,
0220
0000
0000
0330
,
2002
0000
0000
3003
,
0220
0000
0000
0330
,
2000
0000
3020
0000
,
0230
0000
0302
0000
,
2003
0000
3002
0000
,
0203
0000
0320
0000
,
1030
0001
0001
0001
,
0100
0020
0000
0100
,
0130
1001
1000
1000
,
0010
0010
1000
1000
,
1000
1000
1000
1000
,
0100
0020
0000
0100
,
0130
1001
0001
1000
,
0001
0100
1000
0010
,
0001
0001
0001
0001
,
1000
1000
1000
1000
,
0001
0001
0001
0001
,
1000
1000
1000
1000
,
1002
1000
1000
0003
,
2001
0001
0001
3000
,
0102
0100
0100
0003
,
2010
0010
0010
3000
,
2002
0000
0000
3003
;

//---------------dance-single - ----------------
#NOTES:
     dance-single:
     :
     Beginner:
     2:
     0.134119,0.202136,0.009580,0.057480,0.000000,98.000000,97.000000,1.000000,6.000000,0.000000,0.000000,0.134119,0.202136,0.009580,0.057480,0.000000,98.000000,97.000000,1.000000,6.000000,0.000000,0.000000:
// measure 0
0000
0000
0000
0000
,  // measure 1
0000
0000
0000
0000
,  // measure 2
0000
0000
0000
0000
,  // measure 3
0000
0000
0000
0000
,  // measure 4
1000
0000
1000
0000
,  // measure 5
1000
0000
1000
0000
,  // measure 6
0001
0000
0001
0000
,  // measure 7
0001
0000
0001
0000
,  // measure 8
1000
1000
0000
0000
,  // measure 9
0001
0001
0000
0000
,  // measure 10
1000
1000
0000
0000
,  // measure 11
0001
0001
0000
0000
,  // measure 12
0100
0100
0000
0000
,  // measure 13
0010
0010
0000
0000
,  // measure 14
0100
0100
0000
0000
,  // measure 15
0010
0010
0000
0000
,  // measure 16
0001
0001
0001
0000
,  // measure 17
0100
0000
0010
0000
,  // measure 18
0100
0000
1000
0000
,  // measure 19
0010
0000
1000
0000
,  // measure 20
1000
1000
1000
0000
,  // measure 21
0100
0000
0010
0000
,  // measure 22
0100
0000
0001
0000
,  // measure 23
0001
0000
1000
0000
,  // measure 24
0010
0010
0000
0000
,  // measure 25
0010
0010
0000
0000
,  // measure 26
0100
0100
0000
0000
,  // measure 27
0100
0100
0000
0000
,  // measure 28
0002
0000
0000
0000
,  // measure 29
0003
0000
0000
0000
,  // measure 30
2000
0000
0000
0000
,  // measure 31
3000
0000
0000
0000
,  // measure 32
0020
0000
0000
0000
,  // measure 33
0030
0000
0000
0000
,  // measure 34
0200
0000
0000
0000
,  // measure 35
0300
0000
0000
0000
,  // measure 36
1000
1000
1000
0000
,  // measure 37
0100
0000
0010
0000
,  // measure 38
0100
0000
0001
0000
,  // measure 39
0010
0000
0001
0000
,  // measure 40
0001
0001
0001
0000
,  // measure 41
0100
0000
0010
0000
,  // measure 42
0100
0000
0001
0000
,  // measure 43
0001
0000
1000
0000
,  // measure 44
0001
0001
0001
0000
,  // measure 45
1000
1000
1000
0000
,  // measure 46
0001
0001
0001
0000
,  // measure 47
1000
1000
1000
0000
,  // measure 48
0100
0100
0100
0000
,  // measure 49
0010
0010
0010
0000
,  // measure 50
0100
0100
0100
0000
,  // measure 51
0010
0010
0010
0000
,  // measure 52
2002
0000
0000
3003
;
