#TITLE:Pieces Of Me;
#SUBTITLE:(David Garcia & High Spies Remix Club Mix);
#ARTIST:Ashlee Simpson;
#TITLETRANSLIT:;
#SUBTITLETRANSLIT:;
#ARTISTTRANSLIT:;
#GENRE:;
#CREDIT:;
#BANNER:Pieces Of Me (David Garcia & High Spies Remix Club Mix).png;
#BACKGROUND:;
#LYRICSPATH:;
#CDTITLE:;
#MUSIC:Pieces Of Me (David Garcia & High Spies Remix Club Mix).ogg;
#OFFSET:-0.040000;
#SAMPLESTART:40.019981;
#SAMPLELENGTH:15.420000;
#SELECTABLE:YES;
#BPMS:0.000000=120.000130
;
#STOPS:
;
#BGCHANGES:;
#KEYSOUNDS:;
#ATTACKS:;

//---------------dance-single - ----------------
#NOTES:
     dance-single:
     :
     Hard:
     7:
     0.351936,0.457104,0.125102,0.259828,0.423423,256.000000,243.000000,13.000000,27.000000,0.000000,0.000000,0.351936,0.457104,0.125102,0.259828,0.423423,256.000000,243.000000,13.000000,27.000000,0.000000,0.000000:
0000
0000
0000
0000
,
0000
0000
0000
0000
,
0000
0000
0000
0000
,
0000
0000
0000
0000
,
1002
1000
1000
1003
,
2001
0001
0001
3001
,
0102
0100
0100
0103
,
2010
0000
0010
0000
0010
0000
3010
0010
,
1000
0010
1000
0010
0100
0001
0100
0001
,
0010
0001
0010
0001
1000
0100
1000
0100
,
1000
0010
1000
0010
0100
0001
0100
0001
,
1000
0001
1000
0001
0100
0001
0100
0001
,
1000
0100
1000
0100
1000
0010
1000
0010
,
0100
0010
0100
0010
0100
0001
0100
0001
,
0010
0001
0010
0001
1000
0100
1000
0100
,
1000
0100
0010
0001
1000
0100
0010
0001
,
0002
0000
0000
0000
0000
0000
0000
0000
1003
0001
0000
0100
0000
0010
0000
1000
,
0001
0000
0000
0000
0100
0000
0000
0000
0010
0000
0000
0000
1000
0100
0010
0001
,
1000
0001
1000
0001
0100
0010
0100
0010
,
1000
0100
0001
0100
1000
0010
0001
0010
,
2000
0000
0000
0000
0000
0000
0000
0000
0000
0000
0000
0000
0000
0000
0000
3001
,
0000
0001
0000
0001
0000
0100
0000
0100
0000
0100
0000
0010
0000
0010
0000
0010
,
0000
1000
0000
0100
0000
0010
0000
0100
0000
2000
0000
0000
0000
0001
0000
3001
,
0000
1000
0000
0010
0000
0100
0000
0001
0000
0002
0000
0000
0000
0000
0000
0000
,
2000
0000
0000
0000
0000
0000
0000
0000
0000
0000
0000
0000
3003
0000
0000
1000
,
0000
0100
0000
0010
0000
0100
0000
1000
0000
0010
0000
0100
0000
0010
0000
1000
,
0000
0001
0000
0100
0000
0010
0000
0100
0000
0001
0000
0000
0000
0000
0000
0000
,
0001
1000
0001
1000
0001
1000
0100
0000
,
1100
0100
0010
0001
,
0011
0010
0100
1000
,
2002
0000
0000
3003
,
0220
0000
0000
0330
,
2020
0000
0000
3030
,
0202
0000
0000
0303
,
0022
0000
0000
0033
,
2200
0000
0000
3300
,
1000
0001
1000
0001
0100
0010
0100
0010
,
1000
0100
0001
0100
1000
0010
0001
0010
,
2000
0000
0000
0000
0000
0000
0000
0000
0000
0000
0000
0000
0000
0000
0000
3001
,
0000
0001
0000
0001
0000
0100
0000
0100
0000
0100
0000
0010
0000
0010
0000
0010
,
0000
1000
0000
0100
0000
0010
0000
0100
0000
2000
0000
0000
0000
0001
0000
3001
,
0000
1000
0000
0010
0000
0100
0000
0001
0000
0002
0000
0000
0000
0000
0000
0000
,
2000
0000
0000
0000
0000
0000
0000
0000
0000
0000
0000
0000
3003
0000
0000
1000
,
0000
0100
0000
0010
0000
0100
0000
1000
0000
0010
0000
0100
0000
0010
0000
1000
,
0000
0001
0000
0100
0000
0010
0000
0100
0000
0001
0000
0000
0000
0000
0000
0000
,
1000
0001
1000
0001
1000
0001
0010
0000
,
2000
0000
0000
0000
0000
0000
0000
0000
0000
0000
0000
0000
3000
0000
0000
0001
,
0000
1000
0000
0100
0000
0010
0000
0001
0000
1000
0000
0000
0000
0000
0000
0000
,
0002
0000
0000
0000
0000
0000
0000
0000
0000
0000
0000
0000
0003
0000
0000
1000
,
0000
0001
0000
0010
0000
0100
0000
1000
0000
0001
0000
0000
0000
0000
0000
0000
,
1001
0000
0000
0000
;

//---------------dance-single - ----------------
#NOTES:
     dance-single:
     :
     Medium:
     5:
     0.237832,0.360872,0.153972,0.365683,0.192465,173.000000,157.000000,16.000000,38.000000,0.000000,0.000000,0.237832,0.360872,0.153972,0.365683,0.192465,173.000000,157.000000,16.000000,38.000000,0.000000,0.000000:
// measure 0
0000
0000
0000
0000
,  // measure 1
0000
0000
0000
0000
,  // measure 2
0000
0000
0000
0000
,  // measure 3
0000
0000
0000
0000
,  // measure 4
1002
1000
1000
1003
,  // measure 5
2001
0001
0001
3001
,  // measure 6
0102
0100
0100
0103
,  // measure 7
2010
0010
0010
3010
,  // measure 8
1000
0010
1000
0000
0001
0100
0001
0000
,  // measure 9
0010
0001
0010
0000
0100
1000
0100
0000
,  // measure 10
1000
0010
1000
0000
0001
0100
0001
0000
,  // measure 11
1000
0001
1000
0000
0001
0100
0001
0000
,  // measure 12
1000
0100
1000
0000
0010
1000
0010
0000
,  // measure 13
0100
0010
0100
0000
0001
0100
0001
0000
,  // measure 14
0010
0001
0010
0000
0100
1000
0100
0000
,  // measure 15
1000
0100
0010
0000
0010
0100
1000
0000
,  // measure 16
2002
0000
0000
3003
,  // measure 17
0220
0000
0000
0330
,  // measure 18
1000
0001
1000
0000
0001
1000
0001
0000
,  // measure 19
1000
0100
0001
0100
1000
0100
0001
0100
,  // measure 20
2000
0000
0000
0000
0000
0000
0000
0000
0000
0000
0000
0000
0000
0000
0000
3001
,  // measure 21
0000
0000
0000
0001
0000
0000
0000
0100
0000
0000
0000
0100
0000
0000
0000
0010
,  // measure 22
0000
0000
0000
0010
0000
0000
0000
0020
0000
0000
0000
0000
0000
0030
0000
0100
,  // measure 23
0000
0000
0000
0100
0000
0000
0000
0200
0000
0000
0000
0000
0000
0000
0000
0000
,  // measure 24
0302
0000
0000
0000
0000
0000
0000
0000
0000
0000
0000
0000
0000
0000
0000
1003
,  // measure 25
0000
0000
0000
1000
0000
0000
0000
0001
0000
0000
0000
0001
0000
0000
0000
0010
,  // measure 26
0000
0000
0000
0010
0000
0000
0000
0020
0000
0000
0000
0000
0000
0000
0000
0000
,  // measure 27
0031
1000
0001
1000
0001
1000
0100
0000
,  // measure 28
1100
0100
0010
0001
,  // measure 29
0011
0010
0100
1000
,  // measure 30
2002
0000
0000
3003
,  // measure 31
0220
0000
0000
0330
,  // measure 32
2020
0000
0000
3030
,  // measure 33
0202
0000
0000
0303
,  // measure 34
0022
0000
0000
0033
,  // measure 35
2200
0000
0000
3300
,  // measure 36
0220
0000
0000
0330
,  // measure 37
2002
0000
0000
3003
,  // measure 38
2000
0000
0000
0000
0000
0000
0000
0000
0000
0000
0000
0000
0000
0000
0000
3001
,  // measure 39
0000
0000
0000
0001
0000
0000
0000
0100
0000
0000
0000
0100
0000
0000
0000
0010
,  // measure 40
0000
0000
0000
0010
0000
0000
0000
0020
0000
0000
0000
0000
0000
0030
0000
0100
,  // measure 41
0000
0000
0000
0100
0000
0000
0000
0200
0000
0000
0000
0000
0000
0000
0000
0000
,  // measure 42
0302
0000
0000
0000
0000
0000
0000
0000
0000
0000
0000
0000
0000
0000
0000
1003
,  // measure 43
0000
0000
0000
1000
0000
0000
0000
0001
0000
0000
0000
0001
0000
0000
0000
0010
,  // measure 44
0000
0000
0000
0010
0000
0000
0000
0020
0000
0000
0000
0000
0000
0000
0000
0000
,  // measure 45
0031
1000
0001
1000
0001
1000
0010
0000
,  // measure 46
2000
0000
0000
0000
0000
0000
0000
0000
0000
0000
0000
0000
3000
0000
0000
0001
,  // measure 47
0000
0000
0000
0001
0000
0000
0000
0002
0000
0000
0000
0000
0000
0003
0000
0000
,  // measure 48
0002
0000
0000
0000
0000
0000
0000
0000
0000
0000
0000
0000
0003
0000
0000
1000
,  // measure 49
0000
0000
0000
1000
0000
0000
0000
2000
0000
0000
0000
0000
0000
0000
0000
0000
,  // measure 50
3001
0000
0000
0000
;

//---------------dance-single - ----------------
#NOTES:
     dance-single:
     :
     Easy:
     3:
     0.203463,0.288697,0.163595,0.269451,0.000000,148.000000,131.000000,17.000000,28.000000,0.000000,0.000000,0.203463,0.288697,0.163595,0.269451,0.000000,148.000000,131.000000,17.000000,28.000000,0.000000,0.000000:
0000
0000
0000
0000
,
0000
0000
0000
0000
,
0000
0000
0000
0000
,
0000
0000
0000
0000
,
0002
0000
0000
0003
,
2000
0000
0000
3000
,
0020
0000
0000
0030
,
0200
0000
0000
0300
,
1000
1000
0001
0001
,
0010
0010
0100
0100
,
1000
1000
0001
0001
,
1000
1000
0001
0001
,
1000
1000
0010
0010
,
0100
0100
0001
0001
,
0010
0010
0100
0100
,
1000
1000
0010
0010
,
2002
0000
0000
3003
,
0220
0000
0000
0330
,
1000
1000
0001
0001
,
1000
0100
0001
0010
,
2000
0000
0000
0000
,
3001
0100
0001
0100
,
0010
1000
0010
1000
,
0100
1000
0100
1000
,
0002
0000
0000
0000
0000
0000
0000
0000
0000
0000
0000
0000
0000
0000
0000
0003
,
1000
0010
1000
0010
,
0100
0001
0100
0001
,
1000
0010
1000
0010
,
1100
0100
0010
0001
,
0011
0010
0100
1000
,
2002
0000
0000
3003
,
0220
0000
0000
0330
,
2020
0000
0000
3030
,
0202
0000
0000
0303
,
0022
0000
0000
0033
,
2200
0000
0000
3300
,
0220
0000
0000
0330
,
2002
0000
0000
3003
,
2000
0000
0000
0000
,
3001
0100
0001
0100
,
0010
1000
0010
1000
,
0100
1000
0100
1000
,
0002
0000
0000
0000
0000
0000
0000
0000
0000
0000
0000
0000
0000
0000
0000
0003
,
1000
0010
1000
0010
,
0100
0001
0100
0001
,
1000
0010
1000
0010
,
1100
0100
0010
0001
,
0011
0010
0100
1000
,
1010
1000
0010
0100
,
0101
0001
1000
0010
,
1001
0000
0000
0000
;

//---------------dance-single - ----------------
#NOTES:
     dance-single:
     :
     Beginner:
     2:
     0.112729,0.168407,0.028870,0.153972,0.000000,82.000000,79.000000,3.000000,16.000000,0.000000,0.000000,0.112729,0.168407,0.028870,0.153972,0.000000,82.000000,79.000000,3.000000,16.000000,0.000000,0.000000:
0000
0000
0000
0000
,
0000
0000
0000
0000
,
0000
0000
0000
0000
,
0000
0000
0000
0000
,
0001
0001
0000
0000
,
1000
1000
0000
0000
,
0010
0010
0000
0000
,
0100
0100
0000
0000
,
1000
1000
0000
0000
,
0010
0010
0000
0000
,
1000
1000
0000
0000
,
0001
0001
0000
0000
,
0010
0010
0000
0000
,
0100
0100
0000
0000
,
0010
0010
0000
0000
,
1000
1000
0000
0000
,
2002
0000
3003
0000
,
0220
0000
0330
0000
,
1000
0000
0001
0000
,
1000
0000
0001
0000
,
2000
0000
0000
0000
,
3000
0000
0000
0000
,
0001
0001
0001
0000
,
1000
1000
1000
0000
,
0002
0000
0000
0000
,
0003
0000
0000
0000
,
0100
0100
0100
0000
,
0010
0010
0010
0000
,
1000
0000
0001
0000
,
1000
0000
0001
0000
,
2000
0000
0000
3000
,
0020
0000
0000
0030
,
0200
0000
0000
0300
,
0002
0000
0000
0003
,
0020
0000
0000
0030
,
0200
0000
0000
0300
,
2000
0000
0000
3000
,
0002
0000
0000
0003
,
2000
0000
0000
0000
,
3000
0000
0000
0000
,
1000
1000
1000
0000
,
0001
0001
0001
0000
,
0002
0000
0000
0000
0000
0000
0000
0000
0000
0000
0000
0000
0000
0000
0000
0003
,
0000
0000
0000
0000
,
0100
0100
0100
0000
,
0010
0010
0010
0000
,
1000
0000
0010
0000
,
0001
0000
0100
0000
,
1000
0000
0010
0000
,
0001
0000
0100
0000
,
1001
0000
0000
0000
;
