#VERSION:0.83;
#TITLE:Orbital Overload;
#SUBTITLE:;
#ARTIST:Epic Games;
#TITLETRANSLIT:;
#SUBTITLETRANSLIT:;
#ARTISTTRANSLIT:;
#GENRE:;
#ORIGIN:;
#CREDIT:;
#BANNER:Orbital Overload.png;
#BACKGROUND:;
#PREVIEWVID:;
#JACKET:Orbital Overload-jacket.png;
#CDIMAGE:;
#DISCIMAGE:;
#LYRICSPATH:;
#CDTITLE:;
#MUSIC:Orbital Overload.ogg;
#OFFSET:-0.280000;
#SAMPLESTART:49.439972;
#SAMPLELENGTH:15.000003;
#SELECTABLE:YES;
#BPMS:0.000=97.280;
#STOPS:;
#DELAYS:;
#WARPS:;
#TIMESIGNATURES:0.000=4=4;
#TICKCOUNTS:0.000=4;
#COMBOS:0.000=1;
#SPEEDS:0.000=1.000=0.000=0;
#SCROLLS:0.000=1.000;
#FAKES:;
#LABELS:0.000=Song Start;
#BGCHANGES:;
#KEYSOUNDS:;
#ATTACKS:
;

//---------------dance-single - ----------------
#NOTEDATA:;
#CHARTNAME:;
#STEPSTYPE:dance-single;
#DESCRIPTION:;
#CHARTSTYLE:;
#DIFFICULTY:Hard;
#METER:7;
#RADARVALUES:0.437124,0.476117,0.168889,0.099346,0.332810,308.000000,291.000000,17.000000,10.000000,0.000000,0.000000,0.000000,0.000000,0.000000,0.437124,0.476117,0.168889,0.099346,0.332810,308.000000,291.000000,17.000000,10.000000,0.000000,0.000000,0.000000,0.000000,0.000000;
#CREDIT:;
#NOTES:
0000
0000
0000
0000
,
0000
0000
0000
0000
,
0000
0000
0000
0000
,
0000
0000
0000
0000
0000
0000
0000
0000
0000
0000
0000
0001
0100
0000
1001
0000
,
1100
0000
0000
1000
0100
0000
0100
0000
1000
0000
0010
0000
0100
0000
0001
0000
,
0101
0000
0000
0001
0010
0000
0001
0000
0100
0000
0010
0000
1000
0000
0100
0000
,
1100
0000
0000
1000
0100
0000
0010
0000
0001
0000
0010
0000
0100
0000
1000
0000
,
1001
0000
0000
0001
0010
0000
0100
0000
1000
0000
0100
0000
0010
0000
0001
0000
,
1001
0000
0000
0001
0100
0000
0010
0000
1000
0000
0100
0000
0010
0000
0100
0000
,
1100
0000
1000
0010
0000
0000
0100
0000
0001
0000
0010
0000
0001
0000
0100
0000
,
0101
0000
0000
0001
1000
0000
0100
0000
0010
0000
0100
0000
1000
0000
0001
0000
,
0100
0000
0010
0000
0100
0000
0002
0000
2000
0000
0003
0000
3000
0000
0000
0001
,
0100
0000
0100
0000
0001
0000
0001
0000
1000
0100
0000
1000
0000
0000
1000
0100
,
1000
0000
0001
0000
0100
0000
0001
0010
0001
0010
0000
0010
0000
0001
0010
0001
,
0100
0000
0000
0100
0010
0000
0000
0010
1000
0000
1000
0100
0000
0100
1000
0100
,
0010
0000
0001
0100
0001
0000
0100
0001
1000
0001
0000
1100
0000
0000
0000
1000
,
0100
0000
0100
0000
0010
0000
0010
0000
0001
1000
0000
0001
0000
0000
0001
1000
,
0001
0000
0100
0000
0010
0000
1000
0100
1000
0100
0000
1001
0000
1000
0100
0010
,
0001
0000
0000
0001
0100
0000
0000
0100
0010
0000
0010
1000
0000
1000
0100
0010
,
0001
0000
0010
0100
1000
0000
0100
0010
0001
0000
0010
0100
1000
0000
0100
0010
,
0001
0000
0000
0001
0000
0000
0001
0000
0100
0000
0010
0000
0100
0000
0010
0000
,
1000
0000
0000
1000
0000
0000
1000
0000
0100
0000
0010
0000
0100
0000
0010
0000
,
0001
0000
0000
0010
0000
0000
0100
0000
1000
0000
0000
0100
0000
0000
0010
0000
,
0001
0000
0000
0010
0000
0000
0100
0000
1000
0000
0100
0000
0010
0000
0001
0000
,
1002
0000
0000
0100
0000
0000
0000
0000
0000
0000
0010
0000
0010
0000
0100
0000
,
1000
0000
0000
1000
0000
0000
0000
0000
1000
0000
0100
0000
1000
0000
0100
0000
,
2003
0000
0000
0001
0000
0000
0000
0000
0100
0000
0000
0000
0010
0000
0000
0000
,
0001
0000
0000
0000
3001
0000
0200
0020
0000
0000
0000
0300
0030
0000
0000
0000
,
1000
0100
0010
0100
1000
0010
0100
0010
,
1000
0100
0010
0100
1000
0010
0100
1001
,
0001
0010
0100
0010
0001
0100
0010
0100
,
0001
0010
0100
0010
0001
0100
0010
1001
,
2100
0000
0000
0000
0010
0000
0000
0000
3001
0000
0000
0000
1000
0001
1000
0001
,
0100
0010
0100
0010
1000
0001
0100
0001
,
0012
0000
0000
0000
0100
0000
0000
0000
1003
0000
0000
0000
0001
1000
0001
1000
,
0100
1000
0010
0100
0001
0010
0100
1000
,
2100
0000
0000
0000
0010
0000
0000
0000
3001
0000
0000
0000
1000
0001
1000
0001
,
0100
0010
0100
0010
1000
0001
0100
0001
,
0012
0000
0000
0000
0100
0000
0000
0000
1003
0000
0000
0000
0001
1000
0001
1000
,
0001
0000
0001
0000
0010
0001
0100
0001
0100
0001
0010
0001
0100
0001
1000
0001
;

//---------------dance-single - ----------------
#NOTEDATA:;
#CHARTNAME:;
#STEPSTYPE:dance-single;
#DESCRIPTION:;
#CHARTSTYLE:;
#DIFFICULTY:Medium;
#METER:5;
#RADARVALUES:0.265397,0.316915,0.178823,0.149019,0.074510,187.000000,169.000000,18.000000,15.000000,0.000000,0.000000,0.000000,0.000000,0.000000,0.265397,0.316915,0.178823,0.149019,0.074510,187.000000,169.000000,18.000000,15.000000,0.000000,0.000000,0.000000,0.000000,0.000000;
#CREDIT:;
#NOTES:
0000
0000
0000
0000
,
0000
0000
0000
0000
,
0000
0000
0000
0000
,
0000
0000
0000
0000
,
1000
0000
0000
1000
0000
0000
0100
0000
1000
0000
0010
0000
0100
0000
0001
0000
,
0001
0000
0000
0001
0000
0000
0001
0000
0100
0000
0010
0000
1000
0000
0100
0000
,
1000
0000
0000
1000
0000
0000
0010
0000
0100
0000
0000
0010
0000
0000
1000
0000
,
0001
0000
0000
0001
0000
0000
0100
0000
0010
0000
0100
0000
0010
0000
1000
0000
,
1001
0000
0000
0001
0000
0000
0010
0000
0010
0000
0100
0000
0010
0000
0100
0000
,
0010
0000
0000
1000
0000
0000
0100
0000
1000
0000
0010
0000
0100
0000
0001
0000
,
0100
0000
0000
0001
0000
0000
0100
0000
0010
0000
0000
0100
0000
0000
0001
0000
,
0100
0000
0000
0010
0000
0000
2000
0000
0002
0000
3000
0000
0003
0000
0000
0000
,
1001
0000
0100
0000
0001
0001
0100
0000
,
1001
0000
0100
0000
1000
1000
0100
0000
,
1001
0000
0100
0000
0001
0001
0100
0000
,
1001
0000
0100
0000
1000
1000
0100
0000
,
1001
0000
1000
0000
0010
0100
0010
0000
,
1001
0000
0001
0000
0010
0001
0010
0000
,
1001
0000
1000
0000
0010
0100
0010
0000
,
1001
0000
0001
0000
0010
0001
0010
0000
,
0001
0000
0000
0001
0000
0000
0001
0000
0100
0000
0000
0000
0000
0000
0000
0000
,
1000
0000
0000
1000
0000
0000
1000
0000
0100
0000
0000
0000
0000
0000
0000
0000
,
0001
0000
0000
0010
0000
0000
0100
0000
1000
0000
0000
0100
0000
0000
0010
0000
,
0001
0000
0000
0010
0000
0000
0100
0000
1000
0000
0000
0000
0000
0000
0000
0000
,
2002
3000
0020
0030
,
2000
3000
0200
0300
,
2003
0000
0200
0300
,
0002
0003
0020
3030
,
1000
0001
0001
0101
,
0001
1000
1000
1100
,
1000
0001
0100
0110
,
0001
0010
0100
1100
,
2010
0100
0001
3010
,
0001
0010
0001
0010
,
0012
0100
1000
0103
,
1000
0010
0100
0010
,
2100
0010
0001
3001
,
0001
1000
0100
0010
,
0012
0100
1000
0103
,
1000
0001
1000
0001
1000
0001
1000
0001
;

//---------------dance-single - ----------------
#NOTEDATA:;
#CHARTNAME:;
#STEPSTYPE:dance-single;
#DESCRIPTION:;
#CHARTSTYLE:;
#DIFFICULTY:Easy;
#METER:3;
#RADARVALUES:0.205789,0.236941,0.109281,0.387451,0.000000,145.000000,134.000000,11.000000,39.000000,0.000000,0.000000,0.000000,0.000000,0.000000,0.205789,0.236941,0.109281,0.387451,0.000000,145.000000,134.000000,11.000000,39.000000,0.000000,0.000000,0.000000,0.000000,0.000000;
#CREDIT:;
#NOTES:
0000
0000
0000
0000
,
0000
0000
0000
0000
,
0000
0000
0000
0000
,
0000
0000
0000
0000
,
2000
3002
0203
0301
,
0002
2003
3200
1300
,
0002
0023
0230
2300
,
3020
0230
0302
2003
,
3002
2003
3200
1300
,
2000
3002
0203
0301
,
0002
2003
3020
0230
,
0302
2003
3001
0110
,
1001
0100
0001
0100
,
1001
0100
1000
0100
,
1001
0100
0001
0100
,
1001
0100
1000
0100
,
1001
1000
0010
0010
,
1001
0001
0010
0010
,
1001
1000
0010
0010
,
1001
0001
0010
0010
,
0001
0001
0100
0000
,
1000
1000
0100
0000
,
0001
0010
1000
0100
,
0001
0010
1000
0100
,
2002
3000
0020
0030
,
2000
3000
0200
0300
,
2003
0000
0200
0300
,
0002
0003
0020
3030
,
1000
0001
0001
0100
,
0001
1000
1000
0100
,
1000
0001
0100
0100
,
0001
0010
0100
1000
,
2000
0100
0001
3010
,
0001
0010
0001
0010
,
0002
0100
1000
0103
,
1000
0010
0100
0010
,
2000
0010
0001
3001
,
0001
1000
0100
0010
,
0002
0100
1000
0103
,
1000
0001
0100
1001
;

//---------------dance-single - ----------------
#NOTEDATA:;
#CHARTNAME:;
#STEPSTYPE:dance-single;
#DESCRIPTION:;
#CHARTSTYLE:;
#DIFFICULTY:Beginner;
#METER:1;
#RADARVALUES:0.105023,0.137346,0.039739,0.079477,0.000000,74.000000,70.000000,4.000000,8.000000,0.000000,0.000000,0.000000,0.000000,0.000000,0.105023,0.137346,0.039739,0.079477,0.000000,74.000000,70.000000,4.000000,8.000000,0.000000,0.000000,0.000000,0.000000,0.000000;
#CREDIT:;
#NOTES:
// measure 0
0000
0000
0000
0000
,  // measure 1
0000
0000
0000
0000
,  // measure 2
0000
0000
0000
0000
,  // measure 3
0000
0000
0000
0000
,  // measure 4
1000
1000
0000
0000
,  // measure 5
0001
0001
0000
0000
,  // measure 6
1000
1000
0000
0000
,  // measure 7
0001
0001
0000
0000
,  // measure 8
0100
0100
0000
0000
,  // measure 9
0010
0010
0000
0000
,  // measure 10
0100
0100
0000
0000
,  // measure 11
0010
0010
0000
0000
,  // measure 12
1001
0000
0001
0000
,  // measure 13
1000
0000
1000
0000
,  // measure 14
1001
0000
0001
0000
,  // measure 15
0001
0000
1000
0000
,  // measure 16
1001
0000
0010
0000
,  // measure 17
0001
0000
0010
0000
,  // measure 18
1001
0000
0100
0000
,  // measure 19
1000
0000
0100
0000
,  // measure 20
0001
0001
0001
0000
,  // measure 21
1000
1000
1000
0000
,  // measure 22
0001
0000
1000
0000
,  // measure 23
0010
0000
0100
0000
,  // measure 24
2000
0000
3000
0000
,  // measure 25
0200
0000
0300
0000
,  // measure 26
0020
0000
0030
0000
,  // measure 27
0002
0000
0003
0000
,  // measure 28
1000
0000
0001
0000
,  // measure 29
0001
0000
1000
0000
,  // measure 30
1000
0000
0100
0000
,  // measure 31
0001
0000
0010
0000
,  // measure 32
2000
0000
0000
3000
,  // measure 33
1000
1000
1000
0000
,  // measure 34
0002
0000
0000
0003
,  // measure 35
0001
0001
0001
0000
,  // measure 36
2000
0000
0000
3000
,  // measure 37
1000
1000
1000
0000
,  // measure 38
0002
0000
0000
0003
,  // measure 39
0001
0001
0001
0000
;
