#TITLE:Music Pleeze;
#SUBTITLE:;
#ARTIST:B. Dastardly;
#TITLETRANSLIT:;
#SUBTITLETRANSLIT:;
#ARTISTTRANSLIT:;
#GENRE:;
#CREDIT:;
#BANNER:Music Pleeze.png;
#BACKGROUND:;
#LYRICSPATH:;
#CDTITLE:;
#MUSIC:Music Pleeze.ogg;
#OFFSET:0.007000;
#SAMPLESTART:39.680000;
#SAMPLELENGTH:12.000001;
#SELECTABLE:YES;
#BPMS:0.000000=124.000000
;
#STOPS:
;
#BGCHANGES:;
#KEYSOUNDS:;
#ATTACKS:;

//---------------dance-single - ----------------
#NOTES:
     dance-single:
     :
     Hard:
     9:
     0.651654,0.710303,0.167568,0.046547,0.451503,490.000000,472.000000,18.000000,5.000000,0.000000,0.000000,0.651654,0.710303,0.167568,0.046547,0.451503,490.000000,472.000000,18.000000,5.000000,0.000000,0.000000:
0000
0000
0000
0000
,
0000
0000
0000
0000
,
0000
0000
0000
0000
,
0000
0000
0000
0000
,
0010
0000
0010
0000
1000
0010
1000
0000
0010
0000
1000
0000
0010
0000
1000
0000
,
0001
0000
0001
0000
0100
0001
0100
0000
0001
0000
0100
0000
0001
0000
0001
0000
,
1000
0000
1000
0000
0100
1000
0100
0000
1000
0000
0100
0000
1000
0000
1000
0000
,
0001
0100
0001
0000
0100
0001
0100
0001
0100
0001
0100
0000
0001
0000
0001
0000
,
1000
0001
1000
0000
0001
1000
0001
1000
0001
1000
0001
0000
1000
0000
1000
0000
,
0010
0100
0010
0000
0100
0010
0100
0010
0100
0010
0100
0000
0010
0000
0010
0000
,
1000
0001
1000
0000
0001
0100
0001
0100
0001
0100
0001
0000
1000
0000
0100
0000
,
0100
0000
0100
0000
1000
0100
1000
0000
0001
0100
0001
0000
1000
0000
1001
0000
,
1000
0000
0000
1000
0000
0000
1000
0000
1000
0000
1000
0000
1000
0000
0000
0000
,
0001
0000
0000
0001
0000
0000
0001
0000
0001
0000
0001
0000
0001
0000
0000
0000
,
0100
0000
0000
0100
0000
0000
0100
0000
0100
0000
0100
0000
0100
0000
0000
0000
,
0010
0000
0000
0010
0000
0000
0010
0000
0010
0000
0010
0000
0010
0000
0000
0000
,
2001
0000
0000
0001
0000
0000
0001
0000
0001
0000
0001
0000
3001
0000
0000
0000
,
1002
0000
0000
1000
0000
0000
1000
0000
1000
0000
1000
0000
1003
0000
0000
0000
,
0210
0000
0000
0010
0000
0000
0010
0000
0010
0000
0010
0000
0310
0000
0000
0000
,
1001
0000
0000
0000
0001
0100
0001
0100
0001
0010
0001
0010
0001
1000
0001
1000
,
0001
0000
0000
0000
0110
0000
0000
0000
0010
0000
0010
0000
1000
0010
1000
0000
,
0010
0000
1000
0000
0010
0000
1000
0000
0001
0000
0001
0000
0100
0001
0100
0000
,
0001
0000
0100
0000
0001
0000
0001
0000
1000
0000
1000
0000
0100
1000
0100
0000
,
1000
0000
0100
0000
1000
0000
1000
0000
0001
0100
0001
0000
0100
0001
0100
0001
,
0100
0001
0100
0000
0001
0000
0001
0000
1000
0001
1000
0000
0001
1000
0001
1000
,
0001
1000
0001
0000
1000
0000
1000
0000
0010
0100
0010
0000
0100
0010
0100
0010
,
0100
0010
0100
0000
0010
0000
0010
0000
1000
0001
1000
0000
0001
0100
0001
0100
,
0001
0100
0001
0000
1000
0000
1000
0000
0100
0000
0100
0000
1000
0100
1000
0000
,
0001
0100
0001
0000
1000
0000
0001
0000
1000
0000
0100
0000
1000
0000
0100
0000
,
1000
0100
1000
0100
0010
0001
0010
0001
,
0010
0001
0010
0001
0100
0001
0100
0001
,
0100
0001
0100
0001
1000
0010
1000
0010
,
1000
0010
1000
0010
0100
0001
0100
0001
,
0100
0001
0100
0001
0010
0001
0010
0001
,
0010
0001
0010
0001
1000
0100
1000
0100
,
1000
0100
1000
0100
1000
0001
0100
0010
,
1000
0100
0010
0001
1002
1000
1000
0000
,
0100
0100
0103
0000
2001
0000
0100
0000
,
0001
0000
0000
0000
3100
0000
0000
0000
0010
0000
0010
0000
1000
0010
1000
0000
,
0010
0000
1000
0000
0010
0000
1001
0000
0001
0000
0001
0000
0100
0001
0100
0000
,
0001
0000
0100
0000
0001
0000
0001
0000
1000
0000
1000
0000
0100
1000
0100
0000
,
1000
0000
0100
0000
1000
0000
1000
0000
0001
0100
0001
0000
0100
0001
0100
0001
,
0100
0001
0100
0000
0001
0000
0001
0000
1000
0001
1000
0000
0001
1000
0001
1000
,
0001
1000
0001
0000
1000
0000
1000
0000
0010
0100
0010
0000
0100
0010
0100
0010
,
0100
0010
0100
0000
0010
0000
0010
0000
1000
0001
1000
0000
0001
0100
0001
0100
,
0001
0100
0001
0000
1000
0000
1000
0000
0100
0000
0100
0000
1000
0100
1000
0000
,
0001
0100
0001
0000
0001
0000
1000
0000
0100
0000
0100
0000
1000
0010
1000
0000
,
0010
0000
1000
0000
0010
0000
1001
0000
0100
0000
0100
0000
0001
0100
0001
0000
,
0100
0000
0001
0000
0100
0000
0101
0000
0001
0000
0001
0000
1000
0100
1000
0000
,
0100
0000
1000
0000
0100
0000
1100
0000
1000
0001
1000
0000
0001
0100
0001
0100
,
0001
0100
0001
0000
0100
0000
1001
0000
0010
1000
0010
0000
1000
0001
1000
0001
,
1000
0001
0100
0000
0010
0000
1010
0000
0010
0100
0010
0000
0100
0001
0100
0001
,
0100
0001
0100
0000
0010
0000
1010
0000
1000
0100
1000
0000
0001
0100
0001
0010
,
0001
0100
0001
0000
1000
0000
1100
0000
0100
0000
0100
0000
1000
0100
1000
0000
,
0001
0100
0001
0000
1000
0000
0110
0000
1001
0000
0000
0000
0000
0000
0000
0000
;

//---------------dance-double - C. Emirzian----------------
#NOTES:
     dance-double:
     C. Emirzian:
     Hard:
     7:
     0.390992,0.456623,0.251352,0.000000,0.000000,294.000000,267.000000,27.000000,0.000000,0.000000,0.000000,0.390992,0.456623,0.251352,0.000000,0.000000,294.000000,267.000000,27.000000,0.000000,0.000000,0.000000:
00000000
00000000
00000000
00000000
,
00000000
00000000
00000000
00000000
,
00000000
00000000
00000000
00000000
,
00000000
00000000
00000000
00000000
,
10000000
01000000
00010000
00001000
,
00000100
00000001
00000010
00000100
,
00001000
00000010
00001000
00000010
00010000
00001000
00010000
00001000
,
00100000
01000000
00100000
01000000
10000000
00100000
01000000
00010000
,
00011000
00000000
00000100
00000010
00000000
00000100
00000010
00000000
,
00000011
00000000
00001000
00000100
00000000
00001000
00000010
00000000
,
00000100
00000001
00000010
00000000
00000100
00000000
00001000
00000001
,
00000000
00001000
00000010
00001000
00000000
00000010
00010000
00000000
,
00011000
00000000
00100000
01000000
00000000
00100000
01000000
00000000
,
10100000
00000000
00010000
00100000
00000000
00010000
01000000
00000000
,
00100000
10000000
00100000
00000000
10000000
01000000
00100000
00010000
,
10000000
00000000
00100000
01000000
00100000
00000000
00110000
00000000
,
00010000
00000000
00001000
00011000
,
00010000
00000000
00001000
00011000
,
00010000
00000000
00001000
00011000
,
00011000
00000000
00011000
00000000
00010000
00001000
00010000
00001000
,
00011000
00000000
00000100
00000010
00000000
00000001
00000100
00000000
,
00001010
00000000
00001000
00000100
00000000
00000010
00000001
00000000
,
00001000
00000010
00001000
00000000
00000001
00000000
00000010
00000100
,
00000000
00001000
00000001
00000100
00000000
00000010
00010000
00000000
,
01010000
00000000
01000000
00100000
00000000
10000000
01000000
00000000
,
10010000
00000000
00100000
00010000
00000000
01000000
00100000
00000000
,
10000000
00010000
00100000
00000000
01000000
10000000
00100000
01000000
,
00010000
00000000
00100000
01000000
00100000
00000000
10010000
00000000
,
01100000
10000000
00100000
00010000
,
00001000
00000010
00000001
00000110
,
00001000
00000010
00001000
00000010
00010000
00001000
00010000
00001000
,
00100000
01000000
00100000
01000000
10000000
00100000
01000000
00000000
,
10010000
10000000
01000000
00010000
,
00001000
00000010
00000001
00000110
,
00010000
00000100
00010000
00000100
01000000
00010000
01000000
00010000
,
01000000
00001000
01000000
00001000
00000100
00000010
00000100
00000010
,
00000100
00000100
00000100
00000100
,
00000100
00000100
00000100
00000100
,
00000100
00000100
00001001
00001000
,
00000100
00000010
00001001
00000001
,
00000100
00000000
00000010
00000000
00000010
00001000
00000100
00000000
,
00010000
00001000
00010000
00000000
00001000
00100000
01000000
00000000
,
10000000
00100000
01000000
00000000
10010000
00000000
00010000
00000000
,
01000000
00100000
10010000
10000000
,
01000000
00000000
00100000
00000000
00010000
01000000
00010000
00000000
,
01000000
00001000
00010000
00000000
00000100
00000010
00000100
00000000
,
00001000
00000010
00000100
00000001
00001000
00000100
00001000
00000000
,
00000001
00000010
00000000
00000001
00000100
00000010
00001000
00000000
,
00000100
00000010
00000000
00000001
00001000
00000010
00000100
00000000
,
00000001
00000000
00001000
00000100
00000000
00000010
00000000
00011000
,
00000000
01000000
00000000
00100000
10000000
00000000
01000000
00100000
,
00000000
00010000
01000000
00000000
10010000
00000000
10000000
00010000
,
00000000
00100000
01000000
10000000
00100000
00000000
01000000
00000000
,
00010000
00100000
00010000
00000000
01000000
00000000
00100000
10000000
,
01000000
10010000
00011000
00000000
;

//---------------dance-double - M. Emirzian----------------
#NOTES:
     dance-double:
     M. Emirzian:
     Medium:
     5:
     0.293909,0.329783,0.139640,0.000000,0.000000,221.000000,206.000000,15.000000,0.000000,0.000000,0.000000,0.293909,0.329783,0.139640,0.000000,0.000000,221.000000,206.000000,15.000000,0.000000,0.000000,0.000000:
00000000
00000000
00000000
00000000
,
00000000
00000000
00000000
00000000
,
00000000
00000000
00000000
00000000
,
00000000
00000000
00000100
00010000
,
00001000
00000000
00010000
00000000
00001000
01000000
00000000
00000000
,
00010000
00000000
10000000
00000000
10000000
00100000
00000000
00000000
,
00010000
00000000
00100000
00000000
00001000
00010000
00000000
00000000
,
00010000
00000000
00000100
00000000
00001000
00000010
00000000
00000000
,
00000001
00000000
00001000
00000000
00000100
00000010
00000000
00000000
,
00000001
00000000
00001000
00000000
00000010
00010000
00000000
00000000
,
00010000
00000000
00001000
00000000
01000000
00010000
00000000
00000000
,
00100000
01000000
10000000
00010000
,
00010000
01000000
00000000
00010000
,
00100000
00100000
00000000
00001000
,
00010000
00000100
00001000
00000000
00000100
00000000
00000100
00000000
,
00000010
00000010
00001001
00000110
,
00001000
00000000
00000000
00000100
00000001
00000010
00000000
00000000
,
00000010
00000000
00000000
00001000
00000100
00010000
00000000
00000000
,
00010000
00000000
00000000
00001000
01000000
00010000
00000000
00000000
,
00001000
01000000
01000000
01000000
,
10010000
01100000
00100000
00010000
,
01000000
00000000
00100000
10000000
00010000
00000000
10000000
00000000
,
01000000
00000000
00100000
00000000
00001000
00000000
00001000
00010000
,
00000000
00000000
00001000
00000000
00000100
00000000
00000010
00000001
,
00000000
00001000
00001001
00000110
,
00000001
00000000
00001000
00000100
,
00010000
00001000
00101000
00000000
,
00010000
00001000
01000000
01000000
,
00100000
10000000
01000000
00100000
,
00010000
10000000
00100000
00000000
01000000
00000000
00010000
00000000
,
00010000
00010000
00100000
00000000
,
00001000
00001000
00010000
00000100
,
00000100
00001000
00000010
00000000
00000100
00000000
00000001
00000000
,
00000010
00000100
00001000
00000000
00000001
00000000
00000001
00000000
,
00000001
00000010
00000100
00000000
,
00010000
00000100
01000000
00001000
,
01000000
00100000
10010000
00000000
,
00000000
00100000
00001000
00010000
,
00000100
00010000
00001000
01000000
,
00001000
00010000
00000000
00000000
00001000
00000000
00000100
00000000
,
00000010
00000001
00000100
00000000
00000010
00000000
00001000
00000000
,
00000100
00010000
00000000
00010000
00001000
00000000
00001000
00000000
,
00010000
00010000
00000000
00001000
,
01000000
00000000
00010000
10000000
00000000
10000000
00100000
00000000
,
01000000
00000000
00010000
00000000
00100000
00000000
00001000
00010000
,
00000100
00000000
00000000
00000000
00000100
00001000
00000010
00000000
,
00011000
00001100
00001000
00010000
,
00000010
00001000
00000100
00000000
00000010
00000000
00000010
00000000
,
00000010
00000000
00000100
00000000
00001000
00000001
00000000
00000001
,
00000100
00000010
00001000
00000100
,
00010000
00010000
00000000
00001000
,
00001000
00001000
00000010
00011000
,
01000000
00010000
00100000
00011000
,
00000100
00001000
00000010
00011000
,
01000000
00011000
00010100
00000000
;

//---------------dance-double - M. Emirzian----------------
#NOTES:
     dance-double:
     M. Emirzian:
     Easy:
     3:
     0.226084,0.228312,0.176877,0.000000,0.000000,170.000000,151.000000,19.000000,0.000000,0.000000,0.000000,0.226084,0.228312,0.176877,0.000000,0.000000,170.000000,151.000000,19.000000,0.000000,0.000000,0.000000:
00000000
00000000
00000000
00000000
,
00000000
00000000
00000000
00000000
,
00000000
00000000
00000000
00000000
,
00000000
00000000
00000000
00000000
,
10000000
00000000
00100000
00011000
,
00000010
00000000
00000001
00001000
,
00000100
00000000
00000100
00011000
,
01000000
00000000
00100000
10000000
,
00010000
00000000
00100000
00011000
,
00000100
00000000
00000001
00000100
,
00000010
00000000
00001000
00001100
,
00010000
00000000
00001000
01010000
,
01000000
00000000
00100000
00100000
,
10000000
00000000
00010000
00010000
,
00100000
00000000
00000000
00001000
,
00011000
00000000
00000100
00001000
,
00000001
00000000
00001000
00000000
,
00000010
00001000
00000000
00010000
,
00010000
00001000
00000000
01000000
,
01000000
01000000
00010000
00010000
,
10000000
10000000
00010000
00000000
,
01000000
00011000
00000100
00000000
,
00000010
00000001
00001000
00000000
,
00000010
00011000
01000000
00000000
,
00010000
10000000
00100000
00000000
,
01000000
00010000
00100000
00000000
,
00100000
00011000
00000100
00000000
,
00000001
00000110
00001000
00000000
,
00000001
00001000
00000000
00010000
,
00001000
01000000
00000000
10000000
,
00100000
01000000
00000000
10000000
,
10000000
01000000
00000000
00100000
,
00011000
00000100
00000000
00000010
,
00001000
00000100
00000000
00000001
,
00000001
00000100
00000000
00000001
,
00001000
00000010
00000000
00001000
,
00001000
00010000
01001000
00000000
,
00000000
00000000
01000000
00001000
,
00010000
00000010
00011000
00000000
,
00100000
10000000
01000000
00000000
,
00100000
00011000
00000100
00000000
,
00000100
00011000
00100000
00000000
,
10000000
01000000
00010000
00000000
,
00001000
00000100
00000001
00000000
,
00000010
00001000
00000100
00000000
,
00010000
00001000
01000000
00000000
,
10000000
10000000
00010000
00000000
,
00100000
10010000
01000000
00000000
,
00100000
00010000
00001000
00000000
,
01000000
00011000
00000100
00000000
,
00000010
00001000
00000001
00000000
,
00010000
00000100
00000001
00000000
,
00000100
00011000
01000000
00000000
,
00001000
01000000
10000000
00000000
,
00100000
01000000
00011000
00000000
;

//---------------dance-double - M. Emirzian----------------
#NOTES:
     dance-double:
     M. Emirzian:
     Challenge:
     9:
     0.567870,0.608831,0.176877,0.000000,0.381683,427.000000,408.000000,19.000000,0.000000,0.000000,0.000000,0.567870,0.608831,0.176877,0.000000,0.381683,427.000000,408.000000,19.000000,0.000000,0.000000,0.000000:
00000000
00000000
00000000
00000000
,
00000000
00000000
00000000
00000000
,
00000000
00000000
00000000
00000000
,
00000000
00000000
01010000
00001100
,
00000000
00000010
00000100
00000000
00001000
00000001
00000100
00000000
00000010
00000000
00010000
00000000
00000100
00000000
00001000
00000000
,
00000000
00000010
00010000
00001000
01000000
00100000
10000000
01000000
,
00000000
00100000
00001000
01000000
00001000
00100000
00001000
00010000
,
00000000
00000010
00001000
00000000
00000100
00000010
00000001
00000000
00001000
00000000
00000010
00000000
00000100
00000000
00000001
00000000
,
00000000
00001000
00000100
00000000
00000010
00000100
00001000
00000000
00000010
00000000
00010000
00000000
00001000
00000000
01000000
00000000
,
00000000
00001000
00100000
00001000
01000000
00001000
00100000
00001000
,
00000000
01000000
00100000
00010000
00001000
01000000
10000000
01000000
,
00000000
00010000
10000000
00000000
01000000
00100000
00010000
00000000
00100000
00000000
00001000
00000000
00010000
00000000
00000100
00000000
,
00001000
00000000
00000000
00000110
00000000
00000000
00001001
00000000
00000000
00000000
00000010
00000000
00000100
00000000
00001000
00000000
,
00000001
00000100
00001000
01000000
00000000
00100000
00010000
00000100
,
00000010
00000100
00010000
00001000
00000000
01000000
00010000
10000000
,
01000000
00100000
00010000
00000000
01010000
00000000
00001100
00000000
,
00000010
00000000
00000000
00000010
00000100
00000000
00000001
00000000
00010000
00000000
00001000
00000000
01000000
00000000
00000000
00000000
,
00100000
00000000
00000000
00100000
01000000
00000000
10000000
00000000
01000000
00000000
00010000
00000000
00100000
00000000
00000000
00000000
,
01000000
00000000
00000000
01000000
00100000
00000000
00001000
00000000
00010000
00000000
00000100
00000000
00001000
00000000
00000000
00000000
,
00000010
00001000
00000100
00000001
00000100
00010000
00001000
01000000
,
00100000
00000000
10000000
00000000
01000000
00000000
00100000
00000000
00010000
10000000
01000000
00000000
00100000
00010000
10000000
00000000
,
00100000
01000000
00001000
00010000
00000000
00000100
00010000
00001000
,
01000000
00000100
00010000
00000010
00000000
00010000
00000100
00010000
,
00000010
00000000
00010000
00000000
00000100
00000000
00010000
00000000
00000000
00000001
00000100
00000000
00000010
00001000
00000001
00000000
,
00000010
00000000
00000100
00000000
00010000
00000000
00001000
00000000
00000000
01000000
00001000
00000000
00010000
00001000
00100000
00000000
,
00010000
01000000
00001000
00100000
00000000
01000000
10000000
00001000
,
10000000
01000000
10000000
00001000
00000000
01000000
00001000
00100000
,
00001000
00000000
01000000
00000000
00001000
00000000
00100000
00000000
00000000
00001000
00010000
00000000
00000100
00001000
00000001
00000000
,
00001100
00000000
00000000
00000000
00110000
00000000
00000000
00000000
00001000
00000000
00010000
00001000
01000000
00001000
00000000
00100000
,
00000000
00010000
00000000
10000000
00000000
01000000
00100000
00010000
00100000
00000000
00001000
00000000
01000000
00001000
00000000
00010000
,
00000000
00000010
00000000
00010000
00001000
00010000
00000100
00000000
00001000
00000000
00000000
00000010
00000100
00000001
00000000
00000010
,
00000000
00000100
00000000
00001000
00000000
00000001
00000100
00000010
00001000
00000000
00000100
00000000
00010000
00001000
00000000
01000100
,
00000000
00011000
00000000
00001000
01000000
00100000
10000000
00000000
01000000
00000000
00010000
01000000
10000000
01000000
00000000
00100000
,
00000000
00001000
00000000
00010000
00000000
00000100
00010000
00001000
01000000
00000000
00001000
00000000
00010000
00000010
00000000
00001000
,
00000000
00000100
00000000
00000010
00000100
00010000
00001000
00000000
00000100
00000000
00000001
00000000
00000010
00000001
00000000
00001000
,
00000000
00000010
00000000
00000100
00000010
00010000
00001000
00000000
01000000
00000000
00001000
00000000
00010000
00001000
00000000
00100010
,
00000000
00011000
00000000
00001000
01000000
00010000
00100000
00000000
01000000
00000000
10000000
00000000
00010000
00000000
00000000
00000000
,
00000010
00000001
00001000
00000000
01100000
00000000
00000110
00000000
,
01100000
00000000
00000000
00000000
00000110
00000000
00000000
00000000
00000000
00000001
00000010
00000000
00000100
00001000
00000001
00000000
,
00000100
00000010
00010000
00001000
00000000
01000000
00000100
00010000
,
00001000
00100000
00001000
01000000
00000000
00100000
10000000
00001000
,
10000000
00000000
01000000
00000000
10000000
00000000
00001000
00000000
00000000
00100000
00001000
00000000
00010000
00000100
00001000
00000000
,
00000010
00000000
00000100
00000000
00000001
00000000
00001000
00000000
00000000
00000100
00010000
00000000
00000100
00001000
00000010
00000000
,
00000100
00000001
00001000
00000100
00000000
00000010
00000001
00010000
,
00000001
00000100
00000001
00010000
00000000
00001000
01000000
00001000
,
00100000
00000000
00001000
00000000
00010000
00000000
00000100
00000000
00000000
00010000
00001000
00000000
01000000
00010000
10000000
00000000
,
01000000
00000000
00100000
00000000
00010000
00000000
01000000
00000000
00000000
00001000
00010000
00000000
00000010
00001000
00000100
00000000
,
00000010
00000001
00010000
00000001
00000000
00000100
00000010
00010000
,
00000100
00010000
00000010
00010000
00000000
00001000
00000100
00001000
,
00100000
00000000
00001000
00000000
00000100
00000000
00001000
00000000
00000000
00010000
00001000
00000000
01000000
00001000
00010000
00000000
,
00100000
00000000
10000000
00000000
00001000
00000000
01000000
00000000
00000000
00100000
10000000
00000000
01000000
00100000
00010000
00000000
,
00100000
01000000
10000000
00010000
00000000
01000000
00001000
00010000
,
00000010
00010000
00000100
00000010
00000000
00000001
00010000
00000001
,
00000100
00000000
00000010
00000000
00010000
00000000
00000100
00000000
00000000
00010000
00001000
00000000
01000000
00010000
00100000
00000000
,
10010000
00100000
01010000
10000000
11000000
00000000
00000000
00000000
;

//---------------dance-single - ----------------
#NOTES:
     dance-single:
     :
     Medium:
     7:
     0.409611,0.405887,0.083784,0.055856,0.037237,308.000000,299.000000,9.000000,6.000000,0.000000,0.000000,0.409611,0.405887,0.083784,0.055856,0.037237,308.000000,299.000000,9.000000,6.000000,0.000000,0.000000:
0000
0000
0000
0000
,
0000
0000
0000
0000
,
0000
0000
0000
0000
,
0000
0000
0000
0000
,
1000
1000
1000
0000
0001
0001
0001
0000
,
1000
1000
1000
0000
0001
0001
0001
0000
,
0100
0100
0100
0000
0010
0010
0010
0000
,
0100
0100
0100
0000
0010
0010
0010
0000
,
1000
0100
1000
0000
1000
0100
1000
0000
,
0001
0100
0001
0000
0001
0100
0001
0000
,
1000
0010
1000
0000
1000
0010
1000
0000
,
0001
0010
0001
0000
0001
0010
0001
0000
,
1000
0000
0000
1000
0000
0000
1000
0000
1000
0000
0000
0000
1000
0000
0000
0000
,
0001
0000
0000
0001
0000
0000
0001
0000
0001
0000
0000
0000
0001
0000
0000
0000
,
0100
0000
0000
0100
0000
0000
0100
0000
0100
0000
0000
0000
0100
0000
0000
0000
,
0010
0000
0000
0010
0000
0000
0010
0000
0010
0000
0000
0000
0010
0000
0000
0000
,
2001
0000
0000
0001
0000
0000
0001
0000
0001
0000
0000
0000
3001
0000
0000
0000
,
1002
0000
0000
1000
0000
0000
1000
0000
1000
0000
0000
0000
1003
0000
0000
0000
,
0210
0000
0000
0010
0000
0000
0010
0000
0010
0000
0000
0000
0310
0000
0000
0000
,
0120
0000
0000
0100
0000
0000
0100
0000
0100
0000
0000
0000
0130
0000
0000
0000
,
0110
0000
1001
0000
1000
1000
1000
0000
,
0001
0001
0001
0000
1000
1000
1000
0000
,
0001
0001
0001
0000
0100
0100
0100
0000
,
0010
0010
0010
0000
0100
0100
0100
0000
,
0010
0010
0010
0000
1000
0100
1000
0000
,
1000
0100
1000
0000
0001
0100
0001
0000
,
0001
0100
0001
0000
1000
0010
1000
0000
,
1000
0010
1000
0000
0001
0010
0001
0000
,
0001
0010
0001
0000
1000
0100
1000
0100
,
1000
0100
1000
0000
0001
0010
0001
0010
,
0001
0010
0001
0000
0100
0001
0100
0001
,
0100
0001
0100
0000
0010
1000
0010
1000
,
0010
1000
0010
0000
0100
0001
0100
0001
,
0100
0001
0100
0000
0001
0010
0001
0010
,
0001
0010
0001
0000
1000
0100
1000
0100
,
1000
0100
1000
0000
0001
1000
0001
1000
,
0001
1000
0001
0000
1002
0000
0100
0000
,
1000
0103
2001
0100
,
0001
0000
3100
0000
1000
1000
1000
0000
,
0001
0001
0001
0000
1000
1000
1000
0000
,
0001
0001
0001
0000
0100
0100
0100
0000
,
0010
0010
0010
0000
0100
0100
0100
0000
,
0010
0010
0010
0000
1000
0100
1000
0000
,
1000
0100
1000
0000
0001
0100
0001
0000
,
0001
0100
0001
0000
1000
0010
1000
0000
,
1000
0010
1000
0000
0001
0010
0001
0000
,
0001
0010
0001
0000
1000
0010
1000
0000
,
0001
0100
0001
0000
1000
0010
1000
0000
,
0001
0100
0001
0000
0100
0001
0100
0000
,
0010
1000
0010
0000
0100
0001
0100
0000
,
0010
1000
0010
0000
1000
0100
1000
0000
,
1000
0100
1000
0000
0001
0100
0001
0000
,
0001
0100
0001
0000
1000
0010
1000
0000
,
1000
0100
1000
0000
0001
0010
0001
0000
,
0001
0100
0001
0000
1001
0000
0000
0000
;

//---------------dance-single - ----------------
#NOTES:
     dance-single:
     :
     Easy:
     4:
     0.287260,0.355151,0.260662,0.130331,0.000000,216.000000,187.000000,28.000000,14.000000,0.000000,1.000000,0.287260,0.355151,0.260662,0.130331,0.000000,216.000000,187.000000,28.000000,14.000000,0.000000,1.000000:
0000
0000
0000
0000
,
0000
0000
0000
0000
,
0000
0000
0000
0000
,
0000
0000
0000
0000
,
1000
1000
0001
0001
,
1000
1000
0001
0001
,
0100
0100
0010
0010
,
0100
0100
0010
0010
,
1000
1000
1000
1001
,
0001
0001
0001
1001
,
1000
1000
1000
0110
,
0001
0001
0001
0111
,
2000
0000
3000
1000
,
0002
0000
0003
0001
,
0200
0000
0300
0100
,
0020
0000
0030
0010
,
2002
0000
0003
3001
,
2002
0000
3000
1003
,
0220
0000
0030
0310
,
0220
0000
0300
0130
,
0110
1001
1000
1000
,
0001
0001
1000
1000
,
0001
0001
0100
0100
,
0010
0010
0100
0100
,
0010
0010
1000
1000
,
1000
1001
0001
0001
,
0001
1001
1000
1000
,
1000
0110
0001
0001
,
0001
0110
1000
1000
,
1000
1000
0001
0001
,
0001
0001
0100
0100
,
0100
0100
0010
0010
,
0010
0010
1000
1000
,
0001
0001
0100
0100
,
0010
0010
1000
1000
,
0001
0001
0100
0100
,
0010
0010
1002
0100
,
1000
0103
2001
0100
,
0001
3100
1000
1000
,
0001
0001
1000
1000
,
0001
0001
0100
0100
,
0010
0010
0100
0100
,
0010
0010
1000
1000
,
1000
1001
0001
0001
,
0001
1001
1000
1000
,
1000
0110
0001
0001
,
0001
0110
1000
1000
,
0001
0001
1000
1000
,
0001
0001
0100
0100
,
0010
0010
0100
0100
,
0010
0010
1000
1000
,
1100
1001
0001
0001
,
0101
1001
1000
1000
,
1010
1001
0001
0001
,
0001
0011
1001
0000
;

//---------------dance-single - ----------------
#NOTES:
     dance-single:
     :
     Beginner:
     2:
     0.143630,0.202944,0.009309,0.093093,0.000000,108.000000,107.000000,1.000000,10.000000,0.000000,0.000000,0.143630,0.202944,0.009309,0.093093,0.000000,108.000000,107.000000,1.000000,10.000000,0.000000,0.000000:
// measure 0
0000
0000
0000
0000
,  // measure 1
0000
0000
0000
0000
,  // measure 2
0000
0000
0000
0000
,  // measure 3
0000
0000
0000
0000
,  // measure 4
1000
1000
0000
0000
,  // measure 5
0001
0001
0000
0000
,  // measure 6
0100
0100
0000
0000
,  // measure 7
0010
0010
0000
0000
,  // measure 8
1000
1000
1000
0000
,  // measure 9
0001
0001
0001
0000
,  // measure 10
0100
0100
0100
0000
,  // measure 11
0010
0010
0010
0000
,  // measure 12
2000
0000
3000
0000
,  // measure 13
0002
0000
0003
0000
,  // measure 14
0200
0000
0300
0000
,  // measure 15
0020
0000
0030
0000
,  // measure 16
0002
0000
0003
0000
,  // measure 17
2000
0000
3000
0000
,  // measure 18
0020
0000
0030
0000
,  // measure 19
0200
0000
0300
0000
,  // measure 20
0000
0000
1000
1000
,  // measure 21
0000
0000
1000
1000
,  // measure 22
0000
0000
0100
0100
,  // measure 23
0000
0000
0100
0100
,  // measure 24
0000
0000
0010
0010
,  // measure 25
0000
0000
0010
0010
,  // measure 26
0000
0000
0001
0001
,  // measure 27
0000
0000
0001
0001
,  // measure 28
0000
0000
1000
1000
,  // measure 29
1000
0000
0001
0001
,  // measure 30
0001
0000
0100
0100
,  // measure 31
0100
0000
0010
0010
,  // measure 32
0010
0000
1000
1000
,  // measure 33
0000
0000
0100
0100
,  // measure 34
0000
0000
0010
0010
,  // measure 35
0000
0000
0001
0001
,  // measure 36
0000
0000
0002
0000
,  // measure 37
0000
0003
2000
0000
,  // measure 38
0000
3000
1000
1000
,  // measure 39
0000
0000
1000
1000
,  // measure 40
0000
0000
0100
0100
,  // measure 41
0000
0000
0100
0100
,  // measure 42
0000
0000
0010
0010
,  // measure 43
0000
0000
0010
0010
,  // measure 44
0000
0000
0001
0001
,  // measure 45
0000
0000
0001
0001
,  // measure 46
0000
0000
1000
1000
,  // measure 47
1000
0000
0001
0001
,  // measure 48
0001
0000
0100
0100
,  // measure 49
0100
0000
0010
0010
,  // measure 50
0010
0000
1000
1000
,  // measure 51
1000
0000
0001
0001
,  // measure 52
0001
0000
0100
0100
,  // measure 53
0100
0000
0010
0010
,  // measure 54
0010
0000
1001
0000
;
