#VERSION:0.83;
#TITLE:Locked out of Heaven;
#SUBTITLE:;
#ARTIST:Bruno Mars;
#TITLETRANSLIT:;
#SUBTITLETRANSLIT:;
#ARTISTTRANSLIT:;
#GENRE:;
#ORIGIN:;
#CREDIT:;
#BANNER:Locked out of Heaven.png;
#BACKGROUND:;
#PREVIEWVID:;
#JACKET:Locked out of Heaven-jacket.png;
#CDIMAGE:;
#DISCIMAGE:;
#LYRICSPATH:;
#CDTITLE:;
#MUSIC:Locked out of Heaven.ogg;
#OFFSET:-0.140000;
#SAMPLESTART:55.739956;
#SAMPLELENGTH:12.000000;
#SELECTABLE:YES;
#BPMS:0.000=144.000;
#STOPS:;
#DELAYS:;
#WARPS:;
#TIMESIGNATURES:0.000=4=4;
#TICKCOUNTS:0.000=4;
#COMBOS:0.000=1;
#SPEEDS:0.000=1.000=0.000=0;
#SCROLLS:0.000=1.000;
#FAKES:;
#LABELS:0.000=Song Start;
#BGCHANGES:;
#KEYSOUNDS:;
#ATTACKS:
;

//---------------dance-single - ----------------
#NOTEDATA:;
#CHARTNAME:;
#STEPSTYPE:dance-single;
#DESCRIPTION:;
#CHARTSTYLE:;
#DIFFICULTY:Hard;
#METER:8;
#RADARVALUES:0.618843,0.606553,0.079851,0.469123,0.024953,434.000000,426.000000,8.000000,47.000000,0.000000,0.000000,0.000000,0.000000,0.000000,0.618843,0.606553,0.079851,0.469123,0.024953,434.000000,426.000000,8.000000,47.000000,0.000000,0.000000,0.000000,0.000000,0.000000;
#CREDIT:;
#NOTES:
0000
0000
0000
0000
,
0000
0000
0000
0000
0000
0001
0010
0100
,
1000
0100
0010
0001
1000
0100
0010
0001
,
1000
0100
0010
0001
1000
0100
0010
0001
,
1000
0001
0100
0010
1000
0001
0100
0010
,
1000
0001
0100
0010
1000
0001
0100
0010
,
1000
0100
0010
0001
1000
0100
0010
0001
,
1000
0100
0010
0001
1000
0100
0010
0001
,
1000
0001
0100
0010
1000
0001
0100
0010
,
1000
0001
0100
0010
1000
0001
0100
0010
,
1000
0000
1000
0001
0100
0001
1000
0002
,
0100
0100
0100
0203
0010
0010
0010
0320
,
1000
1000
1030
1000
0001
0100
0001
1000
,
0010
1000
0100
0010
0100
1000
0010
0100
,
0001
0100
0010
1000
0001
0100
0001
0020
,
0001
0001
0001
0032
1000
1000
1003
2000
,
0010
0010
0010
3010
0100
0001
0100
0010
,
1000
0100
0010
0001
1000
0100
0010
0100
,
1000
0001
0100
0010
0100
0001
0010
0002
,
0100
0100
0100
0203
0010
0010
0010
0320
,
1000
1000
1030
0100
0010
0100
1000
0001
,
0100
0010
0100
0001
0010
0100
1000
0001
,
1000
0100
1000
0100
0010
0001
0010
0001
,
0100
0001
0100
0001
1000
0010
1000
0020
,
0100
0100
0100
0000
1000
1000
1000
0000
,
0100
0100
0100
0000
1000
1000
1030
0001
,
1000
0001
1000
0010
0100
0010
0100
0001
,
1000
0001
1000
0010
0100
0010
0100
0001
,
0010
0100
1000
0001
0010
0100
1000
0001
,
0010
0100
1000
0001
0010
0100
2000
0002
,
3000
0003
0200
0020
0300
0030
0200
0002
,
0300
0003
0020
0002
0030
0003
0002
2000
,
0003
3000
2000
0200
3000
0300
0020
0002
,
0030
0000
0003
0000
1000
0000
0001
1000
0100
1000
0010
0000
0100
0000
0010
0000
,
1001
0000
0100
0010
0100
0010
0100
0010
,
0100
0010
0100
0010
0100
0010
0100
0000
,
1001
0000
0100
0010
0100
0010
0100
0010
,
0100
0010
0100
0010
0100
0010
0100
0010
,
1000
0100
0010
0001
1000
0001
0100
0010
,
1000
0001
0100
0010
1000
0100
0010
0100
,
1000
0010
0100
0001
0100
0010
0100
0001
,
0010
0000
0100
0000
1000
0000
0001
0100
0010
0100
0001
0010
0001
0000
0100
0000
,
1001
0000
0001
0100
0001
0100
0001
0000
,
1001
0000
1000
0100
1000
0100
1000
0000
,
1001
0000
0001
0010
0001
0010
0001
0000
,
1001
0000
1000
0010
1000
0010
1000
0020
,
0230
0302
2003
3200
2300
3010
0100
0001
,
0100
0010
1000
0100
0010
0100
1000
0002
,
2003
3200
0320
0032
2003
3200
2300
3020
,
0230
0302
0023
0032
0203
0320
2030
0200
,
0000
3000
1300
0001
1000
0001
0100
0010
,
0100
0001
0010
0001
0100
0010
1000
0100
,
0010
0100
1000
0001
0100
0010
0100
0001
,
1000
0100
0010
0100
1000
0001
0100
0010
,
0100
0001
0010
0001
1000
0001
1000
0100
,
1000
0010
0100
0001
0100
0010
1000
0100
,
0010
0100
1000
0001
0100
0010
0100
0001
,
0010
0001
1000
0001
1000
0001
0110
1001
;

//---------------dance-single - ----------------
#NOTEDATA:;
#CHARTNAME:;
#STEPSTYPE:dance-single;
#DESCRIPTION:;
#CHARTSTYLE:;
#DIFFICULTY:Medium;
#METER:6;
#RADARVALUES:0.406383,0.462136,0.059888,0.429197,0.000000,285.000000,279.000000,6.000000,43.000000,0.000000,0.000000,0.000000,0.000000,0.000000,0.406383,0.462136,0.059888,0.429197,0.000000,285.000000,279.000000,6.000000,43.000000,0.000000,0.000000,0.000000,0.000000,0.000000;
#CREDIT:;
#NOTES:
0000
0000
0000
0000
,
0000
0000
0000
0000
0000
0001
0000
0001
,
0000
0000
1000
0000
0001
0000
1000
0001
,
0000
0100
0000
0001
0000
0100
0000
0001
,
0000
0001
0000
1000
0000
1000
0000
0010
,
1000
0001
0100
0010
1000
0001
0100
0010
,
1000
0000
0010
0000
0100
0000
0001
0001
,
0000
0100
0000
0010
0000
1000
0000
0001
,
0000
1000
0000
0010
0000
0100
0000
0001
,
1000
0001
0100
0010
1000
0001
0100
0010
,
1000
0000
0001
0000
1000
0000
0001
0002
,
0000
0000
0100
0203
0000
0000
0010
0320
,
0000
0000
1030
1000
0001
0000
0001
0000
,
1000
0100
0100
0010
,
0001
0000
1000
0000
0001
0000
0001
0020
,
0000
0000
0001
0032
0000
0000
1003
2000
,
0000
0000
0010
3010
0100
0000
0010
0000
,
1000
0100
0010
0000
0001
0010
0100
0000
,
1000
0000
0100
0000
0010
0000
0001
0002
,
0000
0000
0100
0203
0000
0000
0010
0320
,
0000
0000
1030
1000
0010
0000
1000
0000
,
0100
0010
0001
1000
,
1000
0100
1000
0000
0010
0001
0010
0000
,
0001
0100
0001
0000
1000
0010
1000
0020
,
0000
0100
0000
1000
,
0000
0000
0100
0000
0000
0000
1030
1000
,
0000
0001
0000
0010
0000
0100
0000
1000
,
0000
0001
0000
0010
0000
0010
0100
1000
,
0000
0100
0000
0001
0000
0100
0000
1000
,
0000
0001
0000
1000
0000
0100
2000
0002
,
3000
0003
0200
0020
0300
0030
0200
0002
,
0300
0003
0020
0002
0030
0003
0002
2000
,
0003
3000
2000
0200
3000
0300
0020
0002
,
0030
0003
0000
0000
0100
0000
0100
0000
,
1001
0100
0100
0100
,
0100
0100
0100
0100
,
1001
0100
0100
0100
,
0100
0000
0100
0000
0100
0010
0100
0010
,
1000
0100
0010
0001
1000
0000
0100
0000
,
0010
0001
1000
0010
,
1000
0010
0100
0001
0100
0000
0100
0000
,
0010
1000
0010
1000
,
1001
0000
0001
0100
0001
0100
0001
0000
,
1001
0000
1000
0100
1000
0100
1000
0000
,
1001
0000
0001
0010
0001
0010
0001
0000
,
1001
0000
1000
0010
1000
0010
1000
0020
,
0230
0302
2003
3200
2300
0000
3100
0000
,
0100
1000
0010
1000
,
2000
3200
0320
0032
2003
3000
2000
3020
,
0000
0230
0320
0230
0000
0320
2030
0200
,
0000
3000
1300
0001
1000
0000
0100
0000
,
0100
0000
0010
0001
0100
0000
0001
0100
,
0010
0000
1000
0001
0100
0000
0100
0001
,
1000
0000
0010
0100
0001
0000
0100
0010
,
0100
0000
0010
1000
0001
0000
1000
0100
,
1000
0000
0010
0100
0010
0000
1000
0100
,
0010
0000
0001
0100
0010
0000
0100
0001
,
0010
0000
0001
1000
0001
1000
0001
1000
;

//---------------dance-single - ----------------
#NOTEDATA:;
#CHARTNAME:;
#STEPSTYPE:dance-single;
#DESCRIPTION:;
#CHARTSTYLE:;
#DIFFICULTY:Easy;
#METER:4;
#RADARVALUES:0.283755,0.345853,0.089832,0.369309,0.000000,199.000000,190.000000,9.000000,37.000000,0.000000,0.000000,0.000000,0.000000,0.000000,0.283755,0.345853,0.089832,0.369309,0.000000,199.000000,190.000000,9.000000,37.000000,0.000000,0.000000,0.000000,0.000000,0.000000;
#CREDIT:;
#NOTES:
0000
0000
0000
0000
,
0000
0000
0000
0000
0000
1001
0000
1001
,
0000
0000
0010
0000
0100
0000
0000
0002
,
0000
0200
0000
0003
0000
0300
0000
0001
,
0000
0001
0000
1000
0000
2000
0000
0000
,
0000
0000
0000
0000
0000
0001
0000
3010
,
0000
0000
0010
0000
0100
0000
0000
2000
,
0000
0020
0000
3000
0000
0030
0000
1000
,
0000
1000
0000
0010
0000
0100
0000
0002
,
0000
0000
0000
0000
0000
1000
0000
0100
,
0003
0000
0001
0000
1000
0000
0000
0002
,
0000
0000
0000
0203
0000
0000
0000
0320
,
0000
0000
0000
2030
0000
0000
3001
0000
,
1000
0100
0100
0010
,
0001
0000
1000
0000
0001
0000
0000
0020
,
0000
0000
0000
0032
0000
0000
0000
2003
,
0000
0000
0010
3000
0100
0000
0010
0000
,
1000
0010
0000
0100
,
1000
0000
0100
0000
0010
0000
0000
0002
,
0000
0000
0000
0203
0000
0000
0000
0320
,
0000
0000
0000
1030
0000
0000
1000
0000
,
0100
0010
0001
1000
,
1000
1000
0010
0010
,
0100
0100
0001
0001
,
1020
0100
1000
1000
,
0100
0000
0130
0000
0000
0000
0000
1000
,
0000
0001
0000
0010
0000
0100
0000
1000
,
0000
0001
0000
0010
0000
0100
0000
1000
,
0000
0100
0000
0001
0000
0100
0000
1000
,
0000
0001
0000
1000
0000
0100
0000
2000
,
0000
3000
0000
0020
0000
0030
0000
0200
,
0000
0300
0000
0002
0000
0003
0000
2000
,
0000
3000
0000
0002
0000
0003
0000
2002
,
0000
0000
3003
0000
,
1001
0100
0100
0100
,
0100
0100
0100
0100
,
1001
0100
0100
0100
,
0100
0100
0100
0100
,
1000
0010
0100
0001
,
0010
0001
1000
0100
,
1000
0100
0010
0001
,
1000
1000
0001
0001
,
1000
0001
1000
0001
,
0100
0010
0100
0010
,
1000
0001
1000
0001
,
0100
0010
0100
0010
,
2000
3200
0320
0032
,
0103
0001
0010
1000
,
2000
3002
0203
0320
,
0230
0302
2003
3200
,
0000
1300
1000
0100
,
0100
0010
0010
0001
,
0001
1000
0100
0010
,
0001
0100
0001
1000
,
0010
1000
0001
1000
,
0001
0100
0010
0100
,
0010
1000
0010
0100
,
0001
1001
0110
1001
;

//---------------dance-single - ----------------
#NOTEDATA:;
#CHARTNAME:;
#STEPSTYPE:dance-single;
#DESCRIPTION:;
#CHARTSTYLE:;
#DIFFICULTY:Beginner;
#METER:2;
#RADARVALUES:0.165405,0.200001,0.009981,0.000000,0.000000,116.000000,115.000000,1.000000,0.000000,0.000000,0.000000,0.000000,0.000000,0.000000,0.165405,0.200001,0.009981,0.000000,0.000000,116.000000,115.000000,1.000000,0.000000,0.000000,0.000000,0.000000,0.000000,0.000000;
#CREDIT:;
#NOTES:
// measure 0
0000
0000
0000
0000
,  // measure 1
0000
0000
0000
0000
,  // measure 2
1000
1000
0000
0000
,  // measure 3
0001
0001
0000
0000
,  // measure 4
1000
1000
0000
0000
,  // measure 5
0001
0001
0000
0000
,  // measure 6
0010
0010
0000
0000
,  // measure 7
0100
0100
0000
0000
,  // measure 8
0010
0010
0000
0000
,  // measure 9
0100
0100
0000
0000
,  // measure 10
1000
0000
1000
0000
,  // measure 11
0001
0000
0001
0000
,  // measure 12
0100
0000
0100
0000
,  // measure 13
0010
0000
0010
0000
,  // measure 14
1000
0000
0001
0000
,  // measure 15
0100
0000
0010
0000
,  // measure 16
1000
0000
0100
0000
,  // measure 17
0010
0000
0001
0000
,  // measure 18
1000
0000
0010
0000
,  // measure 19
0100
0000
0001
0000
,  // measure 20
1000
0000
0001
0000
,  // measure 21
0100
0000
0010
0000
,  // measure 22
1000
1000
0000
0000
,  // measure 23
0100
0100
0000
0000
,  // measure 24
0010
0010
0000
0000
,  // measure 25
0001
0001
0000
0000
,  // measure 26
0001
0000
0100
0000
,  // measure 27
0001
0000
0100
0000
,  // measure 28
1000
0000
0010
0000
,  // measure 29
1000
0000
0010
0000
,  // measure 30
1000
0000
0010
0000
,  // measure 31
0100
0000
0001
0000
,  // measure 32
1000
0000
0001
0000
,  // measure 33
1001
0000
0000
0000
,  // measure 34
0100
0100
0100
0000
,  // measure 35
0100
0100
0100
0000
,  // measure 36
0010
0010
0010
0000
,  // measure 37
0010
0010
0010
0000
,  // measure 38
1000
0000
0100
0000
,  // measure 39
0010
0000
0001
0000
,  // measure 40
1000
0000
0010
0000
,  // measure 41
0100
0000
0001
0000
,  // measure 42
1000
0000
1000
0000
,  // measure 43
0100
0000
0100
0000
,  // measure 44
0010
0000
0010
0000
,  // measure 45
0001
0000
0001
0000
,  // measure 46
1000
0000
0010
0000
,  // measure 47
0100
0000
0001
0000
,  // measure 48
1000
0000
0100
0000
,  // measure 49
0010
0000
0001
0000
,  // measure 50
1000
1000
0000
0000
,  // measure 51
0100
0100
0000
0000
,  // measure 52
0010
0010
0000
0000
,  // measure 53
0001
0001
0000
0000
,  // measure 54
1000
1000
0000
0000
,  // measure 55
0001
0001
0000
0000
,  // measure 56
0100
0100
0000
0000
,  // measure 57
0010
0010
0000
0000
;
