#TITLE:Last Nite Kambel Saved My Life;
#SUBTITLE:;
#ARTIST:DJ Kambel vs. MC Magika;
#TITLETRANSLIT:;
#SUBTITLETRANSLIT:;
#ARTISTTRANSLIT:;
#GENRE:;
#CREDIT:;
#BANNER:Last Nite Kambel Saved My Life.png;
#BACKGROUND:;
#LYRICSPATH:;
#CDTITLE:;
#MUSIC:Last Nite Kambel Saved My Life.ogg;
#OFFSET:-0.020000;
#SAMPLESTART:20.240005;
#SAMPLELENGTH:15.000000;
#SELECTABLE:YES;
#BPMS:0.000000=185.400360
;
#STOPS:
;
#BGCHANGES:;
#KEYSOUNDS:;
#ATTACKS:;

//---------------dance-single - ----------------
#NOTES:
     dance-single:
     :
     Hard:
     9:
     0.740361,0.960234,0.140068,0.122560,0.170708,592.000000,576.000000,16.000000,14.000000,0.000000,0.000000,0.740361,0.960234,0.140068,0.122560,0.170708,592.000000,576.000000,16.000000,14.000000,0.000000,0.000000:
// measure 0
0000
0000
0000
0000
,  // measure 1
0000
0000
0000
0000
,  // measure 2
0000
0000
0000
0000
,  // measure 3
0000
0000
0000
0000
,  // measure 4
1000
0000
0001
0000
0000
0100
0000
0000
0100
0000
0000
0100
0000
0000
0100
0000
,  // measure 5
0001
0000
1000
0000
0000
0100
0000
0000
0100
0000
0000
0100
0000
0000
0100
0000
,  // measure 6
1000
0000
0010
0000
0000
0100
0000
0000
0100
0000
0000
0100
0000
0000
0100
0000
,  // measure 7
0001
0000
0010
0000
0000
0100
0000
0000
0100
0000
0000
0100
0000
0000
0100
0000
,  // measure 8
1000
0000
0100
0000
0000
1000
0000
0000
1000
0000
0000
1000
0000
0000
1000
0000
,  // measure 9
0100
0000
1000
0000
0000
0001
0000
0000
0001
0000
0000
0001
0000
0000
0001
0000
,  // measure 10
0010
0000
0100
0000
0000
1000
0000
0000
1000
0000
0000
1000
0000
0000
1000
0000
,  // measure 11
0010
0000
0100
0000
0000
0010
0000
0000
0010
0000
0000
0010
0000
0000
0010
0000
,  // measure 12
0100
0000
0010
0000
0000
0100
0000
0000
0001
0000
0000
0010
0000
0000
0100
0000
,  // measure 13
1000
0000
0100
0000
0000
1000
0000
0000
0010
0000
0000
1000
0000
0000
0010
0000
,  // measure 14
0100
0000
0010
0000
0000
0100
0000
0000
0100
0000
0000
0100
0000
0000
0100
0000
,  // measure 15
0010
0000
1000
0000
0000
0100
0000
0000
0100
0000
0010
0000
0001
0000
0000
0000
,  // measure 16
0100
0001
0100
0001
0010
0001
0010
0001
,  // measure 17
1000
0100
1000
0100
1000
0010
1000
0010
,  // measure 18
0100
0001
0100
0001
0010
0001
0010
0001
,  // measure 19
1000
0100
1000
0100
1000
0010
1000
0010
,  // measure 20
0100
0001
0010
0001
1000
0100
1000
0010
,  // measure 21
0100
0001
0010
0001
1000
0100
1000
0010
,  // measure 22
0100
0010
1000
0100
0010
0001
0100
0010
,  // measure 23
1000
0100
0010
0100
1000
0010
0100
0010
,  // measure 24
1000
0001
0010
0100
0010
0001
0100
0010
,  // measure 25
0100
0001
1000
0001
1000
0010
0100
0001
,  // measure 26
1000
0100
0010
0001
1000
0001
1000
1000
,  // measure 27
0001
1000
0001
0001
0100
0010
0100
0100
,  // measure 28
0010
0100
0010
0010
1000
0100
1000
1000
,  // measure 29
0001
0010
0001
0001
1000
0010
1000
1000
,  // measure 30
0001
0100
0001
0001
1000
0100
0010
0001
,  // measure 31
0100
0010
1000
0100
0010
0001
1000
0010
,  // measure 32
0100
0001
0100
0010
1000
0100
1000
0010
,  // measure 33
0100
0001
0010
0001
1000
0100
1000
0001
,  // measure 34
0100
0001
1000
0100
1000
0001
0100
0001
,  // measure 35
1000
0010
1000
0001
0010
0001
1000
0010
,  // measure 36
1000
0100
0010
0001
0100
0010
1000
0100
,  // measure 37
0010
0001
0100
0010
1000
0010
0100
0010
,  // measure 38
1000
0001
0100
0010
0100
0001
1000
0001
,  // measure 39
0001
0100
0010
0100
0001
0010
0100
0010
,  // measure 40
0001
0010
0100
1000
0001
1000
0010
0100
,  // measure 41
0001
1000
1000
0010
0100
0100
0010
0010
,  // measure 42
1000
0001
0001
0100
0010
1000
0100
0010
,  // measure 43
0001
0100
0010
1000
1000
0001
0100
0010
,  // measure 44
1000
0000
0100
0000
0010
0001
0000
0010
0001
0000
0100
0001
0000
0100
0001
0000
,  // measure 45
1000
0000
0010
0000
1000
0010
0000
1000
0010
0000
0100
0001
0000
0100
0001
0000
,  // measure 46
0010
0001
1000
0100
0010
0001
1000
0100
,  // measure 47
1000
0010
1000
0010
0100
0001
0100
0001
1000
0010
1000
0010
0100
0001
0100
0001
,  // measure 48
2000
0100
0100
0100
,  // measure 49
0001
0001
0001
0001
,  // measure 50
0010
0010
0010
0010
,  // measure 51
0001
0001
0001
3001
,  // measure 52
0002
0100
0100
0100
,  // measure 53
1000
1000
1000
1000
,  // measure 54
0010
0010
0010
0010
,  // measure 55
1000
1000
1000
1003
,  // measure 56
1000
0010
1000
0010
1000
0010
1000
0010
,  // measure 57
0100
0001
0100
0001
0100
0001
0100
0001
,  // measure 58
0010
0001
0010
0001
0010
0001
0010
0001
,  // measure 59
1000
0100
1000
0100
1000
0100
1000
0100
,  // measure 60
1000
0010
0100
0010
1000
0010
0100
0010
,  // measure 61
0010
0100
0001
0100
0010
0100
0001
0100
,  // measure 62
0100
0010
1000
0100
0010
0001
0100
0010
,  // measure 63
0100
0001
0010
0100
1000
0001
1000
0010
,  // measure 64
0102
0013
2100
3010
,  // measure 65
0102
0013
2100
3010
,  // measure 66
0102
0013
2100
3010
,  // measure 67
0102
0013
2100
3010
,  // measure 68
2001
0100
0001
3100
,  // measure 69
1002
0100
1000
0103
,  // measure 70
2001
0010
0001
3010
,  // measure 71
1002
0010
1000
0013
,  // measure 72
1000
0010
1000
0000
0001
0100
0001
0000
,  // measure 73
1000
0010
1000
0000
0001
0100
0001
0000
,  // measure 74
0010
0001
0010
0000
0100
1000
0100
0000
,  // measure 75
0010
0001
0010
0000
0100
1000
0100
0000
,  // measure 76
1000
0010
1000
0000
0001
0100
0001
0000
,  // measure 77
1000
0010
1000
0000
0001
0100
0001
0000
,  // measure 78
0100
0001
0100
0000
0010
1000
0010
0000
,  // measure 79
0100
0001
0100
0000
0010
1000
0010
0000
,  // measure 80
1000
0100
1000
0001
1000
0100
1000
0001
,  // measure 81
0001
0100
0001
1000
0001
0100
0001
1000
,  // measure 82
1000
0010
0100
0010
1000
0010
0100
0010
,  // measure 83
0010
0100
0001
0100
0010
0100
0001
0100
,  // measure 84
0100
0010
1000
0100
0010
0001
0100
0010
,  // measure 85
1000
0100
0010
0100
1000
0001
0010
0100
,  // measure 86
0010
0001
1000
0100
0010
0001
0010
0100
,  // measure 87
0110
1001
0110
1001
;

//---------------dance-single - ----------------
#NOTES:
     dance-single:
     :
     Medium:
     7:
     0.555271,0.576140,0.262628,0.157577,0.000000,444.000000,414.000000,30.000000,18.000000,0.000000,0.000000,0.555271,0.576140,0.262628,0.157577,0.000000,444.000000,414.000000,30.000000,18.000000,0.000000,0.000000:
// measure 0
0000
0000
0000
0000
,  // measure 1
0000
0000
0000
0000
,  // measure 2
0000
0000
0000
0000
,  // measure 3
0000
0000
0000
0000
,  // measure 4
1000
0010
1000
0010
,  // measure 5
0100
0001
0100
0001
,  // measure 6
1000
0100
1000
0100
,  // measure 7
0010
0001
0010
0001
,  // measure 8
1000
0100
1000
0100
1000
0000
1000
0000
,  // measure 9
0001
0100
0001
0100
0001
0000
0001
0000
,  // measure 10
1000
0010
1000
0010
1000
0000
1000
0000
,  // measure 11
0001
0010
0001
0010
0001
0000
0001
0000
,  // measure 12
1000
0100
1000
1100
,  // measure 13
0001
0100
0001
0101
,  // measure 14
1000
0100
1000
1010
,  // measure 15
0001
0010
0100
0011
,  // measure 16
0100
0001
0100
0000
0001
0010
0001
0000
,  // measure 17
1000
0100
1000
0000
0010
1000
0010
0000
,  // measure 18
0100
0001
0100
0000
0001
0010
0001
0000
,  // measure 19
1000
0100
1000
0000
0010
1000
0010
0000
,  // measure 20
0100
0001
0010
0000
0100
1000
0010
0000
,  // measure 21
0100
0001
0010
0000
0100
1000
0010
0000
,  // measure 22
0100
0010
1000
0000
0010
0100
0001
0000
,  // measure 23
1000
0100
0010
0000
0001
0010
0100
0000
,  // measure 24
0100
0010
0010
1001
,  // measure 25
0100
1000
1000
1001
,  // measure 26
1000
0010
1000
1001
,  // measure 27
0001
0001
0100
1001
,  // measure 28
0010
0010
1000
1001
,  // measure 29
0001
0001
1000
1001
,  // measure 30
0001
0001
1000
1001
,  // measure 31
0100
1000
0010
1001
,  // measure 32
0100
0100
0001
1001
,  // measure 33
0100
0001
1000
1001
,  // measure 34
0100
0001
1000
1001
,  // measure 35
1000
1000
0010
1001
,  // measure 36
1000
0010
0100
1001
,  // measure 37
0010
0100
0001
1001
,  // measure 38
0001
0100
0100
1001
,  // measure 39
0001
0010
0001
1001
,  // measure 40
1000
0100
1000
1001
,  // measure 41
0001
1000
0100
1001
,  // measure 42
1000
0001
0010
1001
,  // measure 43
0001
0010
0001
1001
,  // measure 44
1000
0001
1000
0001
1000
0000
0001
0000
,  // measure 45
0100
0010
0100
0010
0100
0000
0010
0000
,  // measure 46
1000
0100
1000
0000
0001
0100
0001
0000
,  // measure 47
1000
0100
0010
0001
1000
0100
0010
0000
,  // measure 48
2001
0100
0100
0100
,  // measure 49
0001
0001
0001
0001
,  // measure 50
0010
0010
0010
0010
,  // measure 51
0001
0001
0001
3001
,  // measure 52
1002
0100
0100
0100
,  // measure 53
1000
1000
1000
1000
,  // measure 54
0010
0010
0010
0010
,  // measure 55
1000
1000
1000
1003
,  // measure 56
1000
0010
1000
0000
1000
0010
1000
0000
,  // measure 57
0001
0100
0001
0000
0001
0100
0001
0000
,  // measure 58
0010
0001
0010
0000
0010
0001
0010
0000
,  // measure 59
0100
1000
0100
0000
0100
1000
0100
0000
,  // measure 60
1000
0010
0100
0000
0100
0010
1000
0000
,  // measure 61
0010
0100
0001
0000
0001
0100
0010
0000
,  // measure 62
0100
0010
1000
0000
0010
0100
0001
0000
,  // measure 63
0100
0001
0010
0000
0100
0000
1001
0000
,  // measure 64
0002
0013
2000
3010
,  // measure 65
0002
0013
2000
3010
,  // measure 66
0002
0013
2000
3010
,  // measure 67
0002
0013
2000
3010
,  // measure 68
0002
0103
2000
3100
,  // measure 69
0002
0103
2000
3100
,  // measure 70
0002
0013
2000
3010
,  // measure 71
0002
0013
2000
3010
,  // measure 72
0001
1000
0001
0000
0001
1000
0001
0000
,  // measure 73
1000
0010
1000
0000
0001
0100
0001
0000
,  // measure 74
0010
0001
0010
0000
0100
1000
0100
0000
,  // measure 75
0010
0001
0010
0000
0100
1000
0100
0000
,  // measure 76
1000
0010
1000
0000
0001
0100
0001
0000
,  // measure 77
1000
0010
1000
0000
0001
0100
0001
0000
,  // measure 78
0100
0001
0100
0000
0010
1000
0010
0000
,  // measure 79
0100
0001
0100
0000
0010
1000
0010
0000
,  // measure 80
1000
0100
1000
0000
1000
0100
1000
0000
,  // measure 81
0001
0100
0001
0000
0001
0100
0001
0000
,  // measure 82
1000
0010
0100
0000
0001
0100
0010
0000
,  // measure 83
0100
0010
1000
0000
0010
0100
0001
0000
,  // measure 84
0100
0010
1000
0000
0010
1000
0100
0000
,  // measure 85
1000
0100
0010
0000
0001
0010
0100
0000
,  // measure 86
1000
0100
0010
0000
0001
0010
0100
0000
,  // measure 87
1000
1001
0110
1001
;

//---------------dance-single - ----------------
#NOTES:
     dance-single:
     :
     Easy:
     5:
     0.378935,0.460912,0.315154,0.096297,0.000000,303.000000,267.000000,36.000000,11.000000,0.000000,0.000000,0.378935,0.460912,0.315154,0.096297,0.000000,303.000000,267.000000,36.000000,11.000000,0.000000,0.000000:
// measure 0
0000
0000
0000
0000
,  // measure 1
0000
0000
0000
0000
,  // measure 2
0000
0000
0000
0000
,  // measure 3
0000
0000
0000
0000
,  // measure 4
1000
0010
1000
1010
,  // measure 5
0001
0100
0001
0101
,  // measure 6
1000
0100
1000
1100
,  // measure 7
0010
0001
0010
0011
,  // measure 8
1000
1000
1000
1100
,  // measure 9
0001
0001
0001
0101
,  // measure 10
1000
1000
1000
1010
,  // measure 11
0001
0001
0001
0011
,  // measure 12
1000
0100
1000
1100
,  // measure 13
0001
0100
0001
0101
,  // measure 14
1000
0100
0100
1001
,  // measure 15
0001
0010
0100
0110
,  // measure 16
1000
0100
1000
0001
,  // measure 17
1000
1000
0010
0010
,  // measure 18
0100
0100
0001
0001
,  // measure 19
1000
1000
0010
0010
,  // measure 20
0100
0010
0100
0010
,  // measure 21
0100
0010
0100
0010
,  // measure 22
0100
0001
0010
0001
,  // measure 23
1000
0010
1000
0100
,  // measure 24
0100
0010
0010
1001
,  // measure 25
0100
1000
1000
1001
,  // measure 26
1000
0010
1000
1001
,  // measure 27
0001
0001
0100
1001
,  // measure 28
0010
0010
1000
1001
,  // measure 29
0001
0001
1000
1001
,  // measure 30
0001
0001
1000
1001
,  // measure 31
0100
1000
0010
1001
,  // measure 32
0100
0100
0001
1001
,  // measure 33
0100
0001
1000
1001
,  // measure 34
0100
0001
1000
1001
,  // measure 35
1000
1000
0010
1001
,  // measure 36
1000
0010
0100
1001
,  // measure 37
0010
0100
0001
1001
,  // measure 38
0001
0100
0100
1001
,  // measure 39
0001
0010
0001
1001
,  // measure 40
1000
0100
1000
1001
,  // measure 41
0001
1000
0100
1001
,  // measure 42
1000
0001
0010
1001
,  // measure 43
0001
0010
0001
1001
,  // measure 44
1000
1000
1000
0110
,  // measure 45
0001
0001
0001
0110
,  // measure 46
1000
1000
0001
0001
,  // measure 47
1000
0010
0100
0001
,  // measure 48
2002
0000
0000
0000
,  // measure 49
0000
0000
0000
0000
,  // measure 50
0000
0000
0000
0000
,  // measure 51
0000
0000
0000
3003
,  // measure 52
1002
0000
0100
0000
,  // measure 53
1000
0000
0010
0000
,  // measure 54
1000
0000
0100
0000
,  // measure 55
1000
0000
0010
0003
,  // measure 56
1000
1000
1000
0000
,  // measure 57
0001
0001
0001
0000
,  // measure 58
0010
0010
0010
0000
,  // measure 59
0100
0100
0100
0000
,  // measure 60
1000
0000
0100
0000
,  // measure 61
0010
0000
0001
0000
,  // measure 62
0100
0000
0010
0000
,  // measure 63
0100
0000
1000
0000
,  // measure 64
0002
0000
0013
0000
,  // measure 65
0200
0000
1300
0000
,  // measure 66
2000
0000
3010
0000
,  // measure 67
0002
0000
0103
0000
,  // measure 68
2000
0000
3100
0000
,  // measure 69
0002
0000
0103
0000
,  // measure 70
2000
0000
3010
0000
,  // measure 71
0002
0000
0013
0000
,  // measure 72
0001
0001
0000
0000
,  // measure 73
1000
1000
0000
0000
,  // measure 74
0010
0010
0000
0000
,  // measure 75
0010
0010
0000
0000
,  // measure 76
1000
1000
0000
0000
,  // measure 77
1000
1000
0000
0000
,  // measure 78
0100
0100
0000
0000
,  // measure 79
0001
0001
0000
0000
,  // measure 80
1000
1000
1000
0000
,  // measure 81
0001
0001
0001
0000
,  // measure 82
1000
0100
0001
0010
,  // measure 83
1000
0100
0001
0010
,  // measure 84
1000
1000
0010
0100
,  // measure 85
0001
0001
0010
0100
,  // measure 86
1000
0010
0001
0100
,  // measure 87
1000
0010
0001
0100
;

//---------------dance-single - ----------------
#NOTES:
     dance-single:
     :
     Beginner:
     3:
     0.188842,0.268865,0.026263,0.122560,0.000000,151.000000,148.000000,3.000000,14.000000,0.000000,0.000000,0.188842,0.268865,0.026263,0.122560,0.000000,151.000000,148.000000,3.000000,14.000000,0.000000,0.000000:
// measure 0
0000
0000
0000
0000
,  // measure 1
0000
0000
0000
0000
,  // measure 2
0000
0000
0000
0000
,  // measure 3
0000
0000
0000
0000
,  // measure 4
1000
0000
1000
0000
,  // measure 5
0001
0000
0001
0000
,  // measure 6
1000
0000
1000
0000
,  // measure 7
0001
0000
0001
0000
,  // measure 8
1000
1000
1000
0000
,  // measure 9
0001
0001
0001
0000
,  // measure 10
1000
1000
1000
0000
,  // measure 11
0001
0001
0001
0000
,  // measure 12
1000
0000
1000
0000
,  // measure 13
0001
0000
0001
0000
,  // measure 14
1000
0000
0100
0000
,  // measure 15
0001
0000
0010
0000
,  // measure 16
1000
1000
0000
0000
,  // measure 17
1000
1000
0000
0000
,  // measure 18
0001
0001
0000
0000
,  // measure 19
0001
0001
0000
0000
,  // measure 20
0100
0100
0000
0000
,  // measure 21
0100
0100
0000
0000
,  // measure 22
0010
0010
0000
0000
,  // measure 23
0010
0010
0000
0000
,  // measure 24
0100
0000
0010
0000
,  // measure 25
0100
0000
1000
0000
,  // measure 26
1000
0000
1000
0000
,  // measure 27
0001
0000
0100
0000
,  // measure 28
0010
0000
1000
0000
,  // measure 29
0001
0000
1000
0000
,  // measure 30
0001
0000
1000
0000
,  // measure 31
0100
0000
0010
0000
,  // measure 32
0100
0000
0001
0000
,  // measure 33
0100
0000
1000
0000
,  // measure 34
0100
0000
1000
0000
,  // measure 35
1000
0000
0010
0000
,  // measure 36
0001
0000
0100
0000
,  // measure 37
0001
0000
0001
0000
,  // measure 38
0001
0000
0100
0000
,  // measure 39
1000
0000
0001
0000
,  // measure 40
1000
0000
1000
0000
,  // measure 41
0001
0000
0100
0000
,  // measure 42
1000
0000
0010
0000
,  // measure 43
0001
0000
0001
0000
,  // measure 44
1000
0000
1000
0000
,  // measure 45
0001
0000
0001
0000
,  // measure 46
1000
0000
0001
0000
,  // measure 47
1000
0000
0000
0000
,  // measure 48
2002
0000
0000
0000
,  // measure 49
0000
0000
0000
0000
,  // measure 50
0000
0000
0000
0000
,  // measure 51
3003
0000
0000
0000
,  // measure 52
0220
0000
0000
0000
,  // measure 53
0000
0000
0000
0000
,  // measure 54
0000
0000
0000
0000
,  // measure 55
0330
0000
0000
0000
,  // measure 56
1000
1000
0000
0000
,  // measure 57
0001
0001
0000
0000
,  // measure 58
0010
0010
0000
0000
,  // measure 59
0100
0100
0000
0000
,  // measure 60
1000
1000
0000
0000
,  // measure 61
0010
0010
0000
0000
,  // measure 62
0100
0100
0000
0000
,  // measure 63
0001
0001
0000
0000
,  // measure 64
0002
0000
0003
0000
,  // measure 65
0200
0000
0300
0000
,  // measure 66
2000
0000
3000
0000
,  // measure 67
0020
0000
0030
0000
,  // measure 68
2000
0000
3000
0000
,  // measure 69
0002
0000
0003
0000
,  // measure 70
2000
0000
3000
0000
,  // measure 71
0002
0000
0003
0000
,  // measure 72
0001
0001
0000
0000
,  // measure 73
1000
1000
0000
0000
,  // measure 74
0010
0010
0000
0000
,  // measure 75
0010
0010
0000
0000
,  // measure 76
1000
1000
0000
0000
,  // measure 77
1000
1000
0000
0000
,  // measure 78
0100
0100
0000
0000
,  // measure 79
0001
0001
0000
0000
,  // measure 80
1000
1000
0000
0000
,  // measure 81
0001
0001
0000
0000
,  // measure 82
1000
0000
0001
0000
,  // measure 83
1000
0000
0001
0000
,  // measure 84
1000
0000
0010
0000
,  // measure 85
0001
0000
0100
0000
,  // measure 86
1000
0000
0001
0000
,  // measure 87
2002
0000
0000
3003
;
