#VERSION:0.83;
#TITLE:KEEP IT REAL;
#SUBTITLE:;
#ARTIST:NAOKI feat. Tiffany;
#TITLETRANSLIT:;
#SUBTITLETRANSLIT:;
#ARTISTTRANSLIT:;
#GENRE:;
#ORIGIN:;
#CREDIT:;
#BANNER:KEEP IT REAL.png;
#BACKGROUND:;
#PREVIEWVID:;
#JACKET:KEEP IT REAL-jacket.png;
#CDIMAGE:;
#DISCIMAGE:;
#LYRICSPATH:;
#CDTITLE:;
#MUSIC:KEEP IT REAL.ogg;
#OFFSET:-0.380000;
#SAMPLESTART:42.560028;
#SAMPLELENGTH:14.999995;
#SELECTABLE:YES;
#BPMS:0.000=138.000;
#STOPS:;
#DELAYS:;
#WARPS:;
#TIMESIGNATURES:0.000=4=4;
#TICKCOUNTS:0.000=4;
#COMBOS:0.000=1;
#SPEEDS:0.000=1.000=0.000=0;
#SCROLLS:0.000=1.000;
#FAKES:;
#LABELS:0.000=Song Start;
#BGCHANGES:;
#KEYSOUNDS:;
#ATTACKS:
;

//---------------dance-single - ----------------
#NOTEDATA:;
#CHARTNAME:;
#STEPSTYPE:dance-single;
#DESCRIPTION:;
#CHARTSTYLE:;
#DIFFICULTY:Hard;
#METER:8;
#RADARVALUES:0.459144,0.613122,0.221988,0.250943,0.144775,333.000000,310.000000,23.000000,26.000000,0.000000,0.000000,0.000000,0.000000,0.000000,0.459144,0.613122,0.221988,0.250943,0.144775,333.000000,310.000000,23.000000,26.000000,0.000000,0.000000,0.000000,0.000000,0.000000;
#CREDIT:;
#NOTES:
0000
0000
0000
0000
,
0000
0000
0000
0000
,
0000
0000
0000
0000
,
0000
0000
0000
0000
,
0000
0000
0000
0000
,
0010
1000
0010
0000
1000
0000
0010
1000
0000
0010
0100
0000
0010
0000
1000
0000
,
0001
0100
0001
0000
0100
0000
0001
0100
0000
0010
0100
0000
0001
0000
0100
0000
,
1001
0000
0110
0000
,
2002
0000
0000
3003
,
1000
0100
0010
0100
,
1000
0010
0100
0010
,
1000
0001
0100
0010
,
0100
0001
0010
0100
,
0010
0001
1000
0001
,
0100
0010
1000
0100
,
0010
0001
1000
0001
,
0100
0010
0110
1001
,
2001
0100
0001
3100
,
1002
0100
1000
0103
,
2001
0010
0001
3010
,
1002
0010
1000
0013
,
0201
0010
0001
0310
,
1020
0100
1000
0130
,
1000
0100
0010
0001
1000
0001
0100
0010
,
2002
0000
0000
3003
,
1000
0010
0100
0010
1000
0010
0100
0010
,
0100
0001
0100
0010
0100
0001
0100
0010
,
1000
0100
0010
0001
1000
0100
0010
0001
,
1000
0001
0100
0010
1000
0001
0100
0010
,
1000
0100
1000
0100
1000
0100
1000
0100
,
0010
0001
0010
0001
0010
0001
0010
0001
,
1000
0010
1000
0010
1000
0010
1000
0010
,
0100
0001
0100
0001
0100
0001
0100
0001
,
1000
0010
0100
0001
1000
0100
0010
0001
,
1000
0010
0100
0001
1000
0010
0100
0010
,
1000
0100
0010
0100
1000
0001
0100
0010
,
0100
0001
0010
0100
0010
0001
0100
0001
,
0001
0100
0010
1000
0001
0100
0010
1000
,
0001
0010
0100
1000
0001
0010
0100
1000
,
0010
1000
0010
1000
0001
0100
0001
0100
,
2002
0000
0000
3003
,
1000
0010
1000
0000
0010
0000
1000
0010
0000
0100
0010
0000
1000
0000
0010
0000
,
0100
0001
0100
0000
0001
0000
0100
0010
0000
0100
0001
0000
0100
0000
0010
0000
,
1000
0001
1000
0000
0001
0000
0100
0001
0000
1000
0001
0000
1000
0000
0100
0000
,
1000
0001
0100
0000
0001
0000
1000
0001
0000
0001
0100
0000
0001
0000
0010
0000
,
0001
1000
0001
0000
0100
0000
0010
1000
0000
0010
1000
0000
0010
0000
0100
0000
,
0010
1000
0100
0000
1000
0000
0100
1000
0000
1000
0010
0000
0100
0000
0010
0000
,
1000
0010
1000
0000
0100
0000
1000
0010
0000
0100
0001
0000
0010
0000
0001
0000
,
0100
0010
0100
0000
0001
0000
0010
0001
0000
0001
1000
0000
0001
0000
0100
0000
,
1002
0100
0000
0103
,
2001
0100
0000
3100
,
1002
0010
0000
0013
,
2001
0010
0000
3010
,
2020
0000
0000
3030
,
0202
0000
0000
0303
,
0022
0033
2200
3300
,
1001
0100
0010
0100
,
2002
0000
0000
3003
;

//---------------dance-single - ----------------
#NOTEDATA:;
#CHARTNAME:;
#STEPSTYPE:dance-single;
#DESCRIPTION:;
#CHARTSTYLE:;
#DIFFICULTY:Medium;
#METER:5;
#RADARVALUES:0.332293,0.362300,0.241292,0.289550,0.000000,241.000000,216.000000,25.000000,30.000000,0.000000,0.000000,0.000000,0.000000,0.000000,0.332293,0.362300,0.241292,0.289550,0.000000,241.000000,216.000000,25.000000,30.000000,0.000000,0.000000,0.000000,0.000000,0.000000;
#CREDIT:;
#NOTES:
// measure 0
0000
0000
0000
0000
,  // measure 1
0000
0000
0000
0000
,  // measure 2
0000
0000
0000
0000
,  // measure 3
0000
0000
0000
0000
,  // measure 4
0000
0000
0000
0000
,  // measure 5
1000
1000
1000
0000
0001
0000
0100
0000
,  // measure 6
0001
0001
0001
0000
1000
0000
0100
0000
,  // measure 7
1001
0000
0110
0000
,  // measure 8
2002
3000
0100
0103
,  // measure 9
0100
0010
0110
1001
,  // measure 10
1000
0010
0100
0010
,  // measure 11
1000
0001
0100
0010
,  // measure 12
0100
0001
0010
0100
,  // measure 13
0010
0001
1000
0001
,  // measure 14
0100
0010
1000
0100
,  // measure 15
0010
0001
1000
0001
,  // measure 16
0100
0010
0110
1001
,  // measure 17
2001
0100
0001
3100
,  // measure 18
1002
0100
1000
0103
,  // measure 19
2001
0010
0001
3010
,  // measure 20
1002
0010
1000
0013
,  // measure 21
0201
0010
0001
0310
,  // measure 22
1020
0100
1000
0130
,  // measure 23
1000
0100
0010
0000
0001
0010
0100
0000
,  // measure 24
2002
0000
0000
3003
,  // measure 25
1000
0010
1000
0000
0001
0100
0001
0000
,  // measure 26
1000
0100
1000
0000
0001
0010
0001
0000
,  // measure 27
1000
0100
0010
0000
0001
0010
0100
0000
,  // measure 28
1000
0100
0010
0000
0001
0010
0100
0000
,  // measure 29
2000
0001
0010
3100
,  // measure 30
0002
1000
0100
0013
,  // measure 31
1000
0001
0100
0010
,  // measure 32
1000
0100
0010
0001
,  // measure 33
0100
0001
0100
0000
0010
1000
0010
0000
,  // measure 34
1000
0100
1000
0000
0001
0010
0001
0000
,  // measure 35
0100
0010
0100
0000
0010
0100
0010
0000
,  // measure 36
1000
0100
0010
0000
0001
0010
0100
0000
,  // measure 37
2000
0010
0100
3001
,  // measure 38
0002
0100
0010
1003
,  // measure 39
1000
0001
1000
0001
,  // measure 40
2002
0000
0000
3003
,  // measure 41
1000
1000
1000
0000
0001
0000
0100
0000
,  // measure 42
0001
0001
0001
0000
1000
0000
0100
0000
,  // measure 43
1000
1000
1000
0000
0010
0000
0100
0000
,  // measure 44
0001
0001
0001
0000
0100
0000
0010
0000
,  // measure 45
1000
0100
1000
0000
0001
0000
1000
0000
,  // measure 46
0001
0100
0001
0000
1000
0000
0100
0000
,  // measure 47
1000
0010
1000
0000
0001
0000
0100
0000
,  // measure 48
0001
0010
0001
0000
1000
0000
0100
0000
,  // measure 49
1002
0100
0000
0103
,  // measure 50
2001
0100
0000
3100
,  // measure 51
1002
0010
0000
0013
,  // measure 52
2001
0010
0000
3010
,  // measure 53
2020
0000
0000
3030
,  // measure 54
0202
0000
0000
0303
,  // measure 55
0022
0033
2200
3300
,  // measure 56
1001
0100
0010
0100
,  // measure 57
2002
0000
0000
3003
;

//---------------dance-single - ----------------
#NOTEDATA:;
#CHARTNAME:;
#STEPSTYPE:dance-single;
#DESCRIPTION:;
#CHARTSTYLE:;
#DIFFICULTY:Easy;
#METER:4;
#RADARVALUES:0.288171,0.362300,0.221988,0.289550,0.000000,209.000000,186.000000,23.000000,30.000000,0.000000,0.000000,0.000000,0.000000,0.000000,0.288171,0.362300,0.221988,0.289550,0.000000,209.000000,186.000000,23.000000,30.000000,0.000000,0.000000,0.000000,0.000000,0.000000;
#CREDIT:;
#NOTES:
// measure 0
0000
0000
0000
0000
,  // measure 1
0000
0000
0000
0000
,  // measure 2
0000
0000
0000
0000
,  // measure 3
0000
0000
0000
0000
,  // measure 4
0000
0000
0000
0000
,  // measure 5
1000
1000
0001
0100
,  // measure 6
0001
0001
1000
0100
,  // measure 7
1001
0000
0110
0000
,  // measure 8
2002
0000
0000
3003
,  // measure 9
1000
0100
0010
0100
,  // measure 10
1000
0010
0100
0010
,  // measure 11
1000
0001
0100
0010
,  // measure 12
0100
0001
0010
0100
,  // measure 13
0010
0001
1000
0001
,  // measure 14
0100
0010
1000
0100
,  // measure 15
0010
0001
1000
0001
,  // measure 16
0100
0010
0110
1001
,  // measure 17
2001
0100
0001
3100
,  // measure 18
1002
0100
1000
0103
,  // measure 19
2001
0010
0001
3010
,  // measure 20
1002
0010
1000
0013
,  // measure 21
0201
0010
0001
0310
,  // measure 22
1020
0100
1000
0130
,  // measure 23
1000
0010
0001
0100
,  // measure 24
2002
0000
0000
3003
,  // measure 25
1000
1000
0001
0001
,  // measure 26
1000
1000
0001
0001
,  // measure 27
1000
0010
0001
0100
,  // measure 28
1000
0010
0001
0100
,  // measure 29
2000
0001
0010
3100
,  // measure 30
0002
1000
0100
0013
,  // measure 31
1000
0001
0100
0010
,  // measure 32
1000
0100
0010
0001
,  // measure 33
0100
0100
0010
0010
,  // measure 34
1000
1000
0001
0001
,  // measure 35
0100
0100
0010
0010
,  // measure 36
1000
0010
0001
0100
,  // measure 37
2000
0010
0100
3001
,  // measure 38
0002
0100
0010
1003
,  // measure 39
1000
0001
1000
0001
,  // measure 40
2002
0000
0000
3003
,  // measure 41
1000
1000
0001
0100
,  // measure 42
0001
0001
1000
0100
,  // measure 43
1000
1000
0010
0100
,  // measure 44
0001
0001
0100
0010
,  // measure 45
1000
1000
0001
1000
,  // measure 46
0001
0001
1000
0100
,  // measure 47
1000
1000
0001
0100
,  // measure 48
0001
0001
1000
0100
,  // measure 49
1002
0100
0000
0103
,  // measure 50
2001
0100
0000
3100
,  // measure 51
1002
0010
0000
0013
,  // measure 52
2001
0010
0000
3010
,  // measure 53
2020
0000
0000
3030
,  // measure 54
0202
0000
0000
0303
,  // measure 55
0022
0033
2200
3300
,  // measure 56
1001
0100
0010
0100
,  // measure 57
2002
0000
0000
3003
;

//---------------dance-single - ----------------
#NOTEDATA:;
#CHARTNAME:;
#STEPSTYPE:dance-single;
#DESCRIPTION:;
#CHARTSTYLE:;
#DIFFICULTY:Beginner;
#METER:2;
#RADARVALUES:0.133745,0.167215,0.009652,0.125472,0.000000,97.000000,96.000000,1.000000,13.000000,0.000000,0.000000,0.000000,0.000000,0.000000,0.133745,0.167215,0.009652,0.125472,0.000000,97.000000,96.000000,1.000000,13.000000,0.000000,0.000000,0.000000,0.000000,0.000000;
#CREDIT:;
#NOTES:
0000
0000
0000
0000
,
0000
0000
0000
0000
,
0000
0000
0000
0000
,
0000
0000
0000
0000
,
0000
0000
0000
0000
,
1000
1000
0000
0000
,
0001
0001
0000
0000
,
1000
0000
1000
0000
,
2000
0000
0000
3000
,
1000
0000
0010
0000
,
1000
0000
0100
0000
,
0001
0000
0100
0000
,
0100
0000
0010
0000
,
0010
0000
0001
0000
,
0100
0000
1000
0000
,
0010
0000
1000
0000
,
0001
0000
0100
0000
,
1000
1000
0000
0000
,
0001
0001
0000
0000
,
0100
0100
0000
0000
,
0010
0010
0000
0000
,
1000
1000
0000
0000
,
0001
0001
0000
0000
,
0100
0100
0000
0000
,
0020
0000
0000
0030
,
0010
0010
0000
0000
,
1000
1000
0000
0000
,
0001
0001
0000
0000
,
0100
0100
0000
0000
,
0001
0001
0000
0000
,
1000
1000
0000
0000
,
0010
0010
0000
0000
,
0100
0100
0000
0000
,
0100
0100
0000
0000
,
1000
1000
0000
0000
,
0010
0010
0000
0000
,
0001
0001
0000
0000
,
0010
0010
0000
0000
,
0100
0100
0000
0000
,
1000
1000
0000
0000
,
0002
0000
0000
0003
,
0001
0001
0000
0000
,
1000
1000
0000
0000
,
1000
1000
0000
0000
,
0001
0001
0000
0000
,
1000
1000
0000
0000
,
0001
0001
0000
0000
,
1000
1000
0000
0000
,
0001
0001
0000
0000
,
0002
0000
0000
0003
,
2000
0000
0000
3000
,
0002
0000
0000
0003
,
2000
0000
0000
3000
,
0020
0000
0000
0030
,
0200
0000
0000
0300
,
0020
0030
0200
0300
,
0100
0100
0000
0000
,
2002
0000
0000
3003
;
