#TITLE:In Scottish Highlands;
#SUBTITLE:;
#ARTIST:Thomas Howard Lichtenstein;
#TITLETRANSLIT:;
#SUBTITLETRANSLIT:;
#ARTISTTRANSLIT:;
#GENRE:;
#CREDIT:;
#BANNER:In Scottish Highlands.png;
#BACKGROUND:;
#LYRICSPATH:;
#CDTITLE:;
#MUSIC:In Scottish Highlands.ogg;
#OFFSET:-0.640000;
#SAMPLESTART:86.699829;
#SAMPLELENGTH:14.000000;
#SELECTABLE:YES;
#BPMS:0.000000=145.000351
;
#STOPS:
;
#BGCHANGES:;
#KEYSOUNDS:;
#ATTACKS:;

//---------------dance-single - ----------------
#NOTES:
     dance-single:
     :
     Hard:
     9:
     0.583299,0.571539,0.028224,0.206977,0.573891,434.000000,431.000000,3.000000,22.000000,0.000000,0.000000,0.583299,0.571539,0.028224,0.206977,0.573891,434.000000,431.000000,3.000000,22.000000,0.000000,0.000000:
0000
0000
0000
0000
,
0000
0000
0000
0000
,
0000
0000
0000
0000
,
0000
0000
0000
0000
0000
0010
0100
0101
,
0001
0000
0000
0001
0100
0000
0000
0100
0010
0000
1000
0000
0010
0000
1000
0000
,
1000
0000
0000
1000
0100
0000
0000
0100
0010
0000
0001
0000
0010
0000
0001
0000
,
0001
0000
0000
0001
1000
0000
0000
1000
0010
0000
0000
0010
0100
0000
0000
0100
,
0010
1000
0010
1000
0001
0100
0001
0100
,
0001
0000
0000
0001
1000
0000
0000
1000
0100
0000
0010
0000
0001
0000
0010
0000
,
0001
0000
0000
0001
0100
0000
0000
0100
0010
0000
1000
0000
0010
0000
1000
0000
,
1000
1000
2000
0000
3001
0001
0002
0000
,
1003
0100
0010
0001
0010
0100
1000
0000
,
1000
0000
0000
1000
0001
0000
0000
0001
0100
0000
0000
0100
0001
0000
0000
0001
,
0010
0000
0000
0010
0001
0000
0000
0001
1000
0000
0000
1000
0100
0000
0000
0100
,
1000
0000
0000
1000
0010
0000
0000
0010
0100
0000
0000
0100
0001
0000
0000
0001
,
1000
0000
0000
1000
0100
0000
0000
0100
0010
0000
0000
0010
0001
0000
0000
0001
,
0100
0000
0000
0100
0010
0000
0000
0010
1000
0000
0000
1000
0001
0000
0000
0001
,
0100
0000
0000
0100
0001
0000
0000
0001
1000
0000
0000
1000
0010
0000
0000
0010
,
1000
0000
0000
1000
0100
0000
0000
0100
0010
0000
0000
0010
0001
0000
0000
0001
,
1000
0001
2000
0002
0000
3000
0003
0000
,
0001
0000
0000
0001
0100
0000
0000
0100
0010
0000
1000
0000
0010
0000
1000
0000
,
1000
0000
0000
1000
0100
0000
0000
0100
0010
0000
0001
0000
0010
0000
0001
0000
,
0001
0000
0000
0001
1000
0000
0000
1000
0010
0000
0000
0010
0100
0000
0000
0100
,
0010
1000
0010
1000
0001
0100
0001
0100
,
0001
0000
0000
0001
1000
0000
0000
1000
0100
0000
0010
0000
0001
0000
0010
0000
,
0001
0000
0000
0001
0100
0000
0000
0100
0010
0000
1000
0000
0010
0000
1000
0000
,
1000
1000
2000
0000
3001
0001
0002
0000
,
1003
0100
0010
0001
0010
0100
1000
0000
,
2000
0000
3002
0000
0103
0010
0100
0001
,
0020
0000
0032
0000
1003
0010
0100
0010
,
2000
0000
3200
0000
1300
0010
0100
0001
,
0002
0000
0203
0000
0310
1000
0010
0100
,
0020
0000
2030
0000
3001
0100
0010
0100
,
0002
0000
0023
0000
0031
0100
0010
1000
,
1000
0100
0010
0001
1000
0100
0010
0001
,
1000
0010
1000
0010
0100
0000
0001
0000
0100
0000
0001
0000
1001
0000
0000
0000
,
1000
0000
0000
1000
0001
0000
0000
0001
0100
0000
0000
0100
0001
0000
0000
0001
,
0010
0000
0000
0010
0001
0000
0000
0001
1000
0000
0000
1000
0100
0000
0000
0100
,
1000
0000
0000
1000
0010
0000
0000
0010
0100
0000
0000
0100
0001
0000
0000
0001
,
1000
0000
0000
1000
0100
0000
0000
0100
0010
0000
0000
0010
0001
0000
0000
0001
,
0100
0000
0000
0100
0010
0000
0000
0010
1000
0000
0000
1000
0001
0000
0000
0001
,
0100
0000
0000
0100
0001
0000
0000
0001
1000
0000
0000
1000
0010
0000
0000
0010
,
1000
0000
0000
1000
0100
0000
0000
0100
0010
0000
0000
0010
0001
0000
0000
0001
,
1000
0001
2000
0002
0000
3000
0003
0000
,
0001
0000
0000
0001
0100
0000
0000
0100
0010
0000
1000
0000
0010
0000
1000
0000
,
1000
0000
0000
1000
0100
0000
0000
0100
0010
0000
0001
0000
0010
0000
0001
0000
,
0001
0000
0000
0001
1000
0000
0000
1000
0010
0000
0000
0010
0100
0000
0000
0100
,
0010
1000
0010
1000
0001
0100
0001
0100
,
0001
0000
0000
0001
1000
0000
0000
1000
0100
0000
0010
0000
0001
0000
0010
0000
,
0001
0000
0000
0001
0100
0000
0000
0100
0010
0000
1000
0000
0010
0000
1000
0000
,
1000
1000
2000
0000
3001
0001
0002
0000
,
1003
0100
0010
0001
0010
0100
1000
0000
,
1000
0000
0000
1000
0010
0000
0000
0010
0100
0000
0000
0100
0001
0000
0000
0001
,
1000
0000
0000
1000
0100
0000
0000
0100
0010
0000
0000
0010
0001
0000
0000
0001
,
0100
0000
0000
0100
0001
0000
0000
0001
1000
0000
0000
1000
0010
0000
0000
0010
,
1000
0100
0010
0001
0010
0100
1000
0000
,
0001
0000
0000
0001
0010
0000
0000
0010
0100
0000
0000
0100
1000
0000
0000
1000
,
0001
0000
0000
0001
0100
0000
0000
0100
0010
0000
0000
0010
1000
0000
0000
1000
,
0001
0000
0000
0001
1000
0000
0000
1000
0010
0000
0000
0010
0100
0000
0000
0100
,
0001
0010
0100
1000
0100
0010
0001
0000
,
1000
0001
1000
0001
0100
0010
0100
0010
1000
0000
0000
0000
1001
0000
0000
0000
;

//---------------dance-single - ----------------
#NOTES:
     dance-single:
     :
     Medium:
     6:
     0.432770,0.457231,0.555075,0.235201,0.000000,322.000000,263.000000,59.000000,25.000000,0.000000,0.000000,0.432770,0.457231,0.555075,0.235201,0.000000,322.000000,263.000000,59.000000,25.000000,0.000000,0.000000:
0000
0000
0000
0000
,
0000
0000
0000
0000
,
0000
0000
0000
0000
,
0000
0000
0000
0000
,
0001
0000
1001
0000
0010
1000
0010
0000
,
1000
0000
0101
0000
0010
0001
0010
0000
,
0001
0101
1000
1100
,
0010
1000
0010
0000
0100
0001
0100
0000
,
0001
0000
1100
0000
1000
0010
1000
0000
,
1000
0000
0101
0000
0010
1000
0010
0000
,
1000
1000
2000
0000
3001
0001
0002
0000
,
1003
0010
0001
0100
,
1000
1000
1000
1100
,
0001
0001
0001
0101
,
1000
1100
0001
0101
,
1000
1100
0001
0101
,
1000
1000
1000
1010
,
0001
0001
0001
0011
,
1000
1010
0001
0011
,
1000
0001
2000
0002
0000
3000
0003
0000
,
0100
0000
1010
0000
0010
1000
0010
0000
,
0010
0000
0101
0000
0001
0010
0001
0000
,
1000
0101
0001
1100
,
0010
1000
0010
0000
0100
0001
0100
0000
,
0001
0000
0101
0000
0001
0010
0001
0000
,
1000
0000
1010
0000
0010
1000
0010
0000
,
1000
1000
2000
0000
3001
0001
0002
0000
,
1003
0100
0010
0100
1000
0000
0000
0000
,
2000
0000
3002
0000
0103
0010
0100
0000
,
0020
0000
2030
0000
3001
0010
0100
0000
,
2000
0000
3200
0000
1300
0010
0100
0000
,
0002
0000
0203
0000
0310
1000
0010
0000
,
0020
0000
2030
0000
3001
0100
0010
0000
,
0200
0000
0320
0000
1030
0100
0010
0000
,
0001
0100
0010
0000
1000
0100
0010
0000
,
0001
1000
0001
2000
0002
0000
3000
0003
,
1000
1000
1000
1100
,
0001
0001
0001
0101
,
1000
1100
0001
0101
,
1000
1100
0001
0101
,
1000
1000
1000
1010
,
0001
0001
0001
0011
,
1000
1010
0001
0011
,
1000
0001
2000
0002
0000
3000
0003
0000
,
0101
0000
1010
0000
0010
1000
0010
0000
,
1010
0000
0101
0000
0001
0010
0001
0000
,
1010
0110
0101
0110
,
0010
1000
0010
0000
0100
0001
0100
0000
,
0011
0000
0101
0000
0001
0010
0001
0000
,
1100
0000
1010
0000
0010
1000
0010
0000
,
1000
1000
2000
0000
3001
0001
0002
0000
,
1003
0100
0010
0100
2000
0000
0000
0000
,
3001
0001
0100
0101
,
1000
1000
0010
1010
,
1000
0001
1000
1001
,
0001
0101
1010
1001
,
1000
1000
0010
1010
,
0001
0001
0100
0101
,
0001
1000
0100
1100
,
1000
1100
0011
1001
,
0001
1001
0110
1001
;

//---------------dance-single - ----------------
#NOTES:
     dance-single:
     :
     Easy:
     4:
     0.318530,0.342923,0.141121,0.319874,0.000000,237.000000,222.000000,15.000000,34.000000,0.000000,0.000000,0.318530,0.342923,0.141121,0.319874,0.000000,237.000000,222.000000,15.000000,34.000000,0.000000,0.000000:
0000
0000
0000
0000
,
0000
0000
0000
0000
,
0000
0000
0000
0000
,
0000
0000
0000
0000
,
0001
0001
0010
0010
,
1000
0100
0010
0010
,
0001
0100
1000
0100
,
0010
0010
0100
0100
,
0001
1000
1000
0001
,
1000
0001
0010
0001
,
1000
2000
3001
0002
,
1003
0010
0001
0100
,
1000
1000
1000
1100
,
0001
0001
0001
0101
,
1000
0100
0001
0100
,
1000
0100
0001
0100
,
1000
1000
1000
1010
,
0001
0001
0001
0011
,
1000
0010
0001
0010
,
2000
0002
0000
3000
,
0103
0001
0010
0001
,
0010
0001
0100
0001
,
1000
0100
0001
0100
,
1000
0010
0100
0100
,
0001
0100
0001
0001
,
1000
1000
0010
0010
,
1000
2000
3001
0002
,
1003
0100
0010
0001
,
2000
3002
0103
0100
,
0020
2030
3001
0001
,
2000
3200
1300
0001
,
0002
0203
0310
0010
,
0020
2030
3001
0100
,
0200
0320
1030
0010
,
0100
0010
1000
0001
,
2000
0002
0000
3000
,
1003
1000
1000
1100
,
0001
0001
0001
0101
,
1000
0100
0001
0100
,
1000
0100
0001
0100
,
1000
1000
1000
1010
,
0001
0001
0001
0011
,
1000
0010
0001
0010
,
2000
0002
0000
3000
,
0103
0010
1000
0010
,
0010
0100
0001
0001
,
1000
0010
0001
0010
,
1000
0010
0100
0100
,
0001
0100
0001
0010
,
0100
1000
0010
0010
,
1000
2000
3001
0002
,
1003
0100
0010
0001
,
1000
0001
0100
0101
,
0001
1000
0010
1010
,
1000
0001
1000
1001
,
0002
0023
0230
2300
,
3001
1000
0010
1010
,
1000
0001
0100
0101
,
0001
1000
0100
1100
,
2000
3200
0320
0032
,
0203
0320
1030
1001
;

//---------------dance-single - ----------------
#NOTES:
     dance-single:
     :
     Beginner:
     2:
     0.184129,0.227675,0.000000,0.000000,0.000000,137.000000,137.000000,0.000000,0.000000,0.000000,0.000000,0.184129,0.227675,0.000000,0.000000,0.000000,137.000000,137.000000,0.000000,0.000000,0.000000,0.000000:
// measure 0
0000
0000
0000
0000
,  // measure 1
0000
0000
0000
0000
,  // measure 2
0000
0000
0000
0000
,  // measure 3
0000
0000
0000
0000
,  // measure 4
0001
0001
0000
0000
,  // measure 5
1000
1000
0000
0000
,  // measure 6
0001
0001
0000
0000
,  // measure 7
0010
0010
0000
0000
,  // measure 8
0100
0100
0000
0000
,  // measure 9
1000
1000
0000
0000
,  // measure 10
0001
0001
0001
0001
,  // measure 11
0001
0001
0001
0000
,  // measure 12
1000
1000
1000
0000
,  // measure 13
0001
0001
0001
0000
,  // measure 14
1000
0000
0001
0000
,  // measure 15
1000
0000
0001
0000
,  // measure 16
1000
1000
1000
0000
,  // measure 17
0001
0001
0001
0000
,  // measure 18
1000
0000
0001
0000
,  // measure 19
1000
1000
1000
0000
,  // measure 20
0001
0000
0010
0000
,  // measure 21
1000
0000
0100
0000
,  // measure 22
1000
0000
0001
0000
,  // measure 23
1000
0000
0100
0000
,  // measure 24
0001
0000
0001
0000
,  // measure 25
1000
0000
0010
0000
,  // measure 26
1000
1000
1000
1000
,  // measure 27
1000
1000
1000
0000
,  // measure 28
1000
0000
0100
0000
,  // measure 29
0010
0000
0001
0000
,  // measure 30
1000
0000
0010
0000
,  // measure 31
0100
0000
0001
0000
,  // measure 32
1000
0000
0001
0000
,  // measure 33
0100
0000
0010
0000
,  // measure 34
1000
0000
0001
0000
,  // measure 35
1000
1000
1000
0000
,  // measure 36
1000
1000
1000
0000
,  // measure 37
0001
0001
0001
0000
,  // measure 38
1000
0000
0001
0000
,  // measure 39
1000
0000
0001
0000
,  // measure 40
1000
1000
1000
0000
,  // measure 41
0001
0001
0001
0000
,  // measure 42
1000
0000
0001
0000
,  // measure 43
0100
0100
0100
0000
,  // measure 44
0100
0000
1000
0000
,  // measure 45
0010
0000
0001
0000
,  // measure 46
1000
0000
0001
0000
,  // measure 47
1000
0000
0100
0000
,  // measure 48
0001
0000
0001
0000
,  // measure 49
0100
0000
0010
0000
,  // measure 50
0100
0100
0100
0100
,  // measure 51
0100
0100
0100
0000
,  // measure 52
0100
0000
0001
0000
,  // measure 53
0001
0000
1000
0000
,  // measure 54
1000
0000
0001
0000
,  // measure 55
0001
0001
0001
0000
,  // measure 56
0001
0000
0010
0000
,  // measure 57
1000
0000
0100
0000
,  // measure 58
0001
0000
0100
0000
,  // measure 59
1000
1000
1000
0000
,  // measure 60
0001
0001
0001
0000
;
