#TITLE:Illusion;
#SUBTITLE:;
#ARTIST:Dua Lipa;
#TITLETRANSLIT:;
#SUBTITLETRANSLIT:;
#ARTISTTRANSLIT:;
#GENRE:;
#CREDIT:;
#BANNER:Illusion.png;
#BACKGROUND:;
#LYRICSPATH:;
#CDTITLE:;
#MUSIC:Illusion.ogg;
#OFFSET:0.020000;
#SAMPLESTART:30.199959;
#SAMPLELENGTH:12.000000;
#SELECTABLE:YES;
#BPMS:0.000000=127.039978
;
#STOPS:
;
#BGCHANGES:;
#KEYSOUNDS:;
#ATTACKS:;

//---------------dance-single - ----------------
#NOTES:
     dance-single:
     :
     Hard:
     8:
     0.565820,0.551354,0.156953,0.212348,0.276975,429.000000,412.000000,17.000000,23.000000,0.000000,0.000000,0.565820,0.551354,0.156953,0.212348,0.276975,429.000000,412.000000,17.000000,23.000000,0.000000,0.000000:
0000
0000
0000
0000
,
0000
0000
0000
0000
,
0000
0000
0000
0000
,
0000
0000
0000
0000
,
1001
0100
0100
0100
,
1001
0010
0010
0010
,
1001
0100
1001
0010
,
1001
0110
1001
0110
,
1001
0000
0000
0000
1000
0100
1000
0100
1000
0000
0001
0000
0100
0000
0001
0000
,
0010
0001
0010
0001
0010
0000
0001
0000
0100
0000
0010
0000
1000
0000
0100
0000
,
0010
0000
0100
0000
1000
0100
1000
0100
1000
0000
0100
0000
1000
0000
0010
0000
,
0100
0001
0100
0001
0100
0000
0001
0000
0010
0000
0001
0000
0100
0000
0010
0000
,
1000
0000
0100
0000
1000
0010
1000
0010
1000
0000
0010
0000
0100
0000
0001
0000
,
0100
0001
0100
0001
0100
0000
0001
0000
0010
0000
0100
0000
0010
0000
0001
0000
,
0100
0010
0010
0010
0010
0010
0010
0010
,
1000
1000
0100
0100
0010
0010
0001
0001
,
1001
0000
0000
0001
0100
0000
0000
0100
0001
0000
0000
0001
1000
0000
0000
1000
,
0100
0000
0000
0100
1000
0000
0000
1000
0001
0000
0000
0001
0100
0000
0000
0100
,
0010
1000
0010
0100
0001
0100
0010
1000
,
0100
0010
0001
0100
0010
1000
0100
0010
,
1001
0000
0000
1000
0010
0000
0000
0010
0100
0000
0000
0100
0001
0000
0000
0001
,
1000
0000
0000
1000
0100
0000
0000
0100
0010
0000
0000
0010
0100
0000
0000
0100
,
1000
0010
0100
0001
1000
0010
0100
0001
,
1000
0001
0100
0010
1000
0100
0010
0001
,
1002
0100
0100
0203
0010
0010
0320
1000
,
1000
2030
0001
0001
3002
0100
0100
0203
,
0010
0010
0320
1000
1000
2030
0100
0100
,
3200
0010
0010
0320
0001
0001
0032
1000
,
1003
2000
0010
0010
3020
0100
0100
0230
,
0001
0001
0302
1000
1000
2003
0010
0010
,
3020
0100
0100
0230
0001
0001
0302
1000
,
1000
2003
0100
0100
0200
0000
3300
0000
,
1001
0000
0100
0000
0001
0100
0010
0100
,
0001
0100
0010
1000
0100
1000
0010
0100
,
0001
0100
0010
1000
0100
0010
0100
1000
,
0010
0100
0010
1000
0100
0010
0001
0010
,
0100
0010
0001
0100
0001
0010
0001
0100
,
0010
1000
0100
1000
0010
1000
0001
0100
,
0010
1000
1000
0100
0100
0010
0010
0001
,
0001
1000
1000
0001
0001
0100
0100
0010
,
1001
0000
0000
0001
0100
0000
0000
0100
0001
0000
0000
0001
1000
0000
0000
1000
,
0100
0000
0000
0100
1000
0000
0000
1000
0001
0000
0000
0001
0100
0000
0000
0100
,
0010
1000
0010
0100
0001
0100
0010
1000
,
0100
0010
0001
0100
0010
1000
0100
0010
,
1001
0000
0000
1000
0010
0000
0000
0010
0100
0000
0000
0100
0001
0000
0000
0001
,
1000
0000
0000
1000
0100
0000
0000
0100
0010
0000
0000
0010
0100
0000
0000
0100
,
1000
0010
0100
0001
1000
0010
0100
0001
,
1000
0001
0100
0010
1000
0100
0010
0001
,
1001
0000
0000
0001
0100
0000
0000
0100
0001
0000
0000
0001
1000
0000
0000
1000
,
0100
0000
0000
0100
1000
0000
0000
1000
0001
0000
0000
0001
0100
0000
0000
0100
,
0010
1000
0010
0100
0001
0100
0010
1000
,
0100
0010
0001
0100
0010
1000
0100
0010
,
1001
0000
0000
1000
0010
0000
0000
0010
0100
0000
0000
0100
0001
0000
0000
0001
,
1000
0000
0000
1000
0100
0000
0000
0100
0010
0000
0000
0010
0100
0000
0000
0100
,
1000
0010
0100
0001
1000
0010
0100
0001
,
1000
0001
0100
0010
1000
0100
0010
0001
,
1000
0001
1000
0001
2000
0002
3000
0003
;

//---------------dance-single - ----------------
#NOTES:
     dance-single:
     :
     Medium:
     6:
     0.383808,0.446334,0.138488,0.517020,0.000000,291.000000,276.000000,15.000000,56.000000,0.000000,0.000000,0.383808,0.446334,0.138488,0.517020,0.000000,291.000000,276.000000,15.000000,56.000000,0.000000,0.000000:
0000
0000
0000
0000
,
0000
0000
0000
0000
,
0000
0000
0000
0000
,
0000
0000
0000
0000
,
2000
0100
0100
3100
,
0002
0100
0100
0103
,
2000
3100
0002
0013
,
2000
3100
0002
0013
,
1000
0000
1000
1000
1000
0000
0100
0000
,
0010
0010
0010
0000
0100
0000
0001
0000
,
1000
0000
1000
1000
1000
0000
0010
0000
,
0100
0100
0100
0000
0001
0000
0100
0000
,
0010
0000
1000
1000
1000
0000
0001
0000
,
0100
0100
0100
0000
0010
0000
1000
0000
,
0100
0000
0010
0010
0010
0000
0001
0001
,
0001
0000
1000
1000
1000
0000
1001
0000
,
0002
0203
0302
2003
,
3200
2300
3002
0203
,
0310
1000
0010
0100
0001
0100
0010
1000
,
0100
0010
0001
0100
0010
1000
0100
0000
,
2000
3020
0230
0302
,
2003
3200
0320
0230
,
1300
0010
0100
0001
1000
0010
0100
0001
,
1000
0001
0100
0010
1000
0100
0010
0001
,
1000
1000
1100
1001
,
0001
0001
0101
1001
,
1000
1000
1100
1001
,
0001
0001
0101
1001
,
1000
0100
0010
1001
,
0001
0010
0100
1001
,
1000
0100
0010
1001
,
0001
0010
0100
1001
,
1001
0000
0100
0000
0001
0100
0010
0000
,
0100
0001
0010
0000
0100
1000
0010
0000
,
1000
0100
0010
0000
0100
0010
0100
0000
,
1000
0100
0010
0000
0100
0010
0001
0000
,
1000
0010
0100
0000
0001
0010
0001
0000
,
1000
1000
0100
0000
0010
0010
0100
0000
,
0001
0001
1000
0000
1000
1000
0010
0000
,
0010
1000
0001
0100
,
1002
0203
0302
2003
,
3200
2300
3002
0203
,
0310
1000
0010
0100
0001
0100
0010
1000
,
0100
0010
0001
0100
0010
1000
0100
0000
,
2000
3020
0230
0302
,
2003
3200
0320
0230
,
1300
0010
0100
0001
1000
0010
0100
0001
,
1000
0001
0100
0010
1000
0100
0010
0000
,
0002
0203
0302
2003
,
3200
2300
3002
0203
,
0310
1000
0010
0100
0001
0100
0010
1000
,
0100
0010
0001
0100
0010
1000
0100
0000
,
2000
3020
0230
0302
,
2003
3200
0320
0230
,
1300
0010
0100
0001
1000
0010
0100
0001
,
1000
0001
0100
0010
1000
0100
0010
0001
,
2000
0002
0000
0000
0000
0000
3000
0003
;

//---------------dance-single - ----------------
#NOTES:
     dance-single:
     :
     Easy:
     4:
     0.309948,0.367569,0.332370,0.452393,0.000000,235.000000,199.000000,36.000000,49.000000,0.000000,0.000000,0.309948,0.367569,0.332370,0.452393,0.000000,235.000000,199.000000,36.000000,49.000000,0.000000,0.000000:
0000
0000
0000
0000
,
0000
0000
0000
0000
,
0000
0000
0000
0000
,
0000
0000
0000
0000
,
2000
0000
0000
3000
,
0002
0000
0000
0003
,
2000
3000
0002
0003
,
2000
3000
0002
0003
,
1000
2000
3001
0100
,
0020
0130
0100
0001
,
1000
2000
3001
0010
,
0200
1300
0001
0100
,
0010
2000
3001
0001
,
0200
0310
0010
1000
,
0100
0020
0031
0002
,
1003
2000
3001
1001
,
0002
0203
0302
2003
,
3200
2300
3002
0203
,
0310
0100
0001
1001
,
0010
0001
1000
0100
,
2000
3020
0230
0302
,
2003
3200
0320
0230
,
1300
0100
1000
0001
,
0100
0010
1000
1001
,
1000
1000
1100
1001
,
0001
0001
0101
1001
,
1000
1000
1100
1001
,
0001
0001
0101
1001
,
1000
0100
0010
1001
,
0001
0010
0100
1001
,
1000
0100
0010
1001
,
0001
0010
0100
1001
,
1001
0100
0001
0010
,
1001
0010
0100
0010
,
1001
0010
0100
0100
,
1001
0010
0100
0001
,
1001
0100
0001
1000
,
1001
0100
0010
1000
,
1001
1000
1000
0010
,
1001
1000
0001
0100
,
0002
0203
0302
2003
,
3200
2300
3002
0203
,
0310
0100
0001
1001
,
0010
0001
1000
0100
,
2000
3020
0230
0302
,
2003
3200
0320
0230
,
1300
0100
1000
0001
,
0100
0010
1000
1001
,
1000
1000
1100
1001
,
0001
0001
0101
1001
,
1000
1000
1100
1001
,
0001
0001
0101
1001
,
1000
0100
0010
1001
,
0001
0010
0100
1001
,
1000
0100
0010
1001
,
1000
0001
1000
0002
,
2000
0000
0000
0000
0000
0000
0000
3003
;

//---------------dance-single - ----------------
#NOTES:
     dance-single:
     :
     Beginner:
     3:
     0.155634,0.210039,0.083093,0.018465,0.000000,118.000000,109.000000,9.000000,2.000000,0.000000,0.000000,0.155634,0.210039,0.083093,0.018465,0.000000,118.000000,109.000000,9.000000,2.000000,0.000000,0.000000:
// measure 0
0000
0000
0000
0000
,  // measure 1
0000
0000
0000
0000
,  // measure 2
0000
0000
0000
0000
,  // measure 3
0000
0000
0000
0000
,  // measure 4
1000
0000
0000
0000
,  // measure 5
0001
0000
0000
0000
,  // measure 6
0100
0000
0000
0000
,  // measure 7
0010
0000
0000
0000
,  // measure 8
1000
1000
0000
0000
,  // measure 9
0010
0010
0000
0000
,  // measure 10
0100
0100
0000
0000
,  // measure 11
0001
0001
0000
0000
,  // measure 12
1000
1000
0000
0000
,  // measure 13
0100
0100
0000
0000
,  // measure 14
0010
0010
0000
0000
,  // measure 15
0001
0001
0000
0000
,  // measure 16
0001
0000
0001
0000
,  // measure 17
0100
0000
0100
0000
,  // measure 18
1000
0000
1000
0000
,  // measure 19
0010
0000
0010
0000
,  // measure 20
1000
0000
0100
0000
,  // measure 21
0010
0000
0001
0000
,  // measure 22
1000
0000
1000
0000
,  // measure 23
0001
0000
0001
0000
,  // measure 24
1000
1000
1000
0000
,  // measure 25
0001
0001
0001
0000
,  // measure 26
1000
1000
1000
0000
,  // measure 27
0001
0001
0001
0000
,  // measure 28
1000
0000
0010
0000
,  // measure 29
0001
0000
0100
0000
,  // measure 30
1000
0000
0010
0000
,  // measure 31
0001
0000
0100
0000
,  // measure 32
1001
0000
0001
0000
,  // measure 33
1001
0000
0100
0000
,  // measure 34
1001
0000
0100
0000
,  // measure 35
1001
0000
0100
0000
,  // measure 36
1001
0000
0001
0000
,  // measure 37
1001
0000
0010
0000
,  // measure 38
1001
0000
1000
0000
,  // measure 39
1001
0000
0001
0000
,  // measure 40
0001
0000
0001
0000
,  // measure 41
1000
0000
1000
0000
,  // measure 42
0010
0000
0010
0000
,  // measure 43
0100
0000
0100
0000
,  // measure 44
1000
0000
0100
0000
,  // measure 45
0010
0000
0001
0000
,  // measure 46
1000
0000
1000
0000
,  // measure 47
0001
0000
0001
0000
,  // measure 48
1000
1000
1000
0000
,  // measure 49
0001
0001
0001
0000
,  // measure 50
1000
1000
1000
0000
,  // measure 51
0001
0001
0001
0000
,  // measure 52
1000
0000
0010
0000
,  // measure 53
0100
0000
0001
0000
,  // measure 54
1000
0000
0010
0000
,  // measure 55
0100
0000
0001
0000
,  // measure 56
2002
0000
0000
0000
0000
0000
0000
3003
;
