#VERSION:0.83;
#TITLE:INSIDE YOUR MIND;
#SUBTITLE:;
#ARTIST:Limahl;
#TITLETRANSLIT:;
#SUBTITLETRANSLIT:;
#ARTISTTRANSLIT:;
#GENRE:;
#ORIGIN:;
#CREDIT:;
#BANNER:INSIDE YOUR MIND.png;
#BACKGROUND:;
#PREVIEWVID:;
#JACKET:INSIDE YOUR MIND-jacket.png;
#CDIMAGE:;
#DISCIMAGE:;
#LYRICSPATH:;
#CDTITLE:;
#MUSIC:INSIDE YOUR MIND.ogg;
#OFFSET:-1.760000;
#SAMPLESTART:43.259991;
#SAMPLELENGTH:14.999996;
#SELECTABLE:YES;
#BPMS:0.000=134.980;
#STOPS:;
#DELAYS:;
#WARPS:;
#TIMESIGNATURES:0.000=4=4;
#TICKCOUNTS:0.000=4;
#COMBOS:0.000=1;
#SPEEDS:0.000=1.000=0.000=0;
#SCROLLS:0.000=1.000;
#FAKES:;
#LABELS:0.000=Song Start;
#BGCHANGES:;
#KEYSOUNDS:;
#ATTACKS:
;

//---------------dance-single - ----------------
#NOTEDATA:;
#CHARTNAME:;
#STEPSTYPE:dance-single;
#DESCRIPTION:;
#CHARTSTYLE:;
#DIFFICULTY:Hard;
#METER:7;
#RADARVALUES:0.392413,0.425628,0.075000,0.131251,0.187501,293.000000,285.000000,8.000000,14.000000,0.000000,0.000000,0.000000,0.000000,0.000000,0.392413,0.425628,0.075000,0.131251,0.187501,293.000000,285.000000,8.000000,14.000000,0.000000,0.000000,0.000000,0.000000,0.000000;
#CREDIT:;
#NOTES:
// measure 0
0000
0000
0000
0000
,  // measure 1
0000
0000
0000
0000
,  // measure 2
0000
0000
0000
0000
,  // measure 3
0000
0000
0000
0000
,  // measure 4
1000
0000
0000
0000
1000
0000
0000
0000
1000
0000
0001
1000
0000
0000
0000
0000
,  // measure 5
0001
0000
0000
0000
0001
0000
0000
0000
0001
0000
1000
0001
0000
0000
0000
0000
,  // measure 6
0100
0000
0000
0000
0100
0000
0000
0000
0100
0000
0010
0100
0000
0000
0000
0000
,  // measure 7
0010
0000
0000
0000
0010
0000
0000
0000
0010
0000
0100
0010
0000
0000
0000
0000
,  // measure 8
1000
0100
1000
0100
1000
0100
1000
0000
,  // measure 9
0001
0100
0001
0100
0001
0100
0001
0000
,  // measure 10
1000
0010
1000
0010
1000
0010
1000
0000
,  // measure 11
0001
0010
0001
0010
0001
0010
0001
0000
,  // measure 12
1000
0010
0100
0010
1000
0010
0100
0000
,  // measure 13
0001
0100
0010
0100
0001
0100
0010
0000
,  // measure 14
1000
0100
0010
0100
1000
0100
0010
0000
,  // measure 15
0001
0010
0100
0010
0001
0010
0100
0000
,  // measure 16
1000
0000
0000
1000
0000
0000
1000
0000
0010
0000
0000
0010
0000
0000
0010
0000
,  // measure 17
0100
0000
0000
0100
0000
0000
0100
0000
0002
0000
0000
0000
0003
0000
0000
0000
,  // measure 18
0001
0000
0000
0001
0000
0000
0001
0000
0100
0000
0000
0100
0000
0000
0100
0000
,  // measure 19
0010
0000
0000
0010
0000
0000
0010
0000
2000
0000
0000
0000
3000
0000
0000
0000
,  // measure 20
1000
0000
0000
1000
0000
0000
1000
0000
0010
0000
0000
0010
0000
0000
0010
0000
,  // measure 21
0100
0000
0000
0100
0000
0000
0100
0000
0002
0000
0000
0000
0003
0000
0000
0000
,  // measure 22
0001
0000
0000
0001
0000
0000
0001
0000
0010
0000
0000
0010
0000
0000
0010
0000
,  // measure 23
0100
0000
0000
0100
0000
0000
0100
0000
1000
0000
0000
0000
1001
0000
0000
0000
,  // measure 24
1000
0000
0000
0000
0010
0000
0100
0010
0100
0000
0000
0000
0001
0000
0000
0000
,  // measure 25
1000
0000
0000
0000
0010
0000
1000
0010
1000
0000
0000
0000
0100
0000
0000
0000
,  // measure 26
1000
0000
0000
0000
0001
0000
0100
0001
0100
0000
0000
0000
0001
0000
0000
0000
,  // measure 27
0010
0000
0000
0000
0001
0000
0100
0001
0100
0000
0000
0000
0010
0000
0000
0000
,  // measure 28
1000
0000
0000
0000
0100
0000
1000
0100
1000
0000
0000
0000
0100
0000
0000
0000
,  // measure 29
0010
0000
0000
0000
0001
0000
1000
0010
1000
0000
0000
0000
0010
0000
0000
0000
,  // measure 30
0100
0000
0000
0000
0001
0000
1000
0100
1000
0000
0000
0000
0010
0000
0000
0000
,  // measure 31
0100
0000
0000
0000
0001
0000
0010
0001
0010
0000
0000
0000
0001
0000
0000
0000
,  // measure 32
1000
0000
0000
0000
0010
0000
1000
0010
1000
0000
0000
0000
0100
0000
0000
0000
,  // measure 33
0010
0000
0000
0000
0001
0000
0100
0010
0100
0000
0000
0000
0001
0000
0000
0000
,  // measure 34
0100
0000
0000
0000
0010
0000
1000
0010
1000
0000
0000
0000
0010
0000
0000
0000
,  // measure 35
0100
0000
0000
0000
0001
0000
1000
0001
1000
0000
0000
0000
0100
0000
0000
0000
,  // measure 36
1000
0000
0000
0000
0010
0000
0100
0001
0100
0000
0000
0000
0001
0000
0000
0000
,  // measure 37
0010
0000
0000
0000
0001
0000
1000
0100
1000
0000
0000
0000
0100
0000
0000
0000
,  // measure 38
1000
0000
0000
0000
0010
0000
0100
0001
0100
0000
0000
0000
0010
0000
0000
0000
,  // measure 39
2002
0000
0000
3003
,  // measure 40
1000
0100
1000
1000
0001
0100
0001
0000
,  // measure 41
0001
0100
0001
0001
1000
0100
1000
0000
,  // measure 42
1000
0010
1000
1000
0001
0010
0001
0000
,  // measure 43
0001
0010
0001
0001
1000
0010
1000
0000
,  // measure 44
1001
0100
0001
0100
,  // measure 45
0011
0001
0010
0100
,  // measure 46
1100
1000
0100
0010
,  // measure 47
2002
0000
0000
3003
,  // measure 48
1000
0000
0000
1000
0000
0000
1000
0000
0010
0000
0000
0010
0000
0000
0010
0000
,  // measure 49
0100
0000
0000
0100
0000
0000
0100
0000
0002
0000
0000
0000
0003
0000
0000
0000
,  // measure 50
0001
0000
0000
0001
0000
0000
0001
0000
0200
0000
0000
0000
0000
0000
0000
0000
,  // measure 51
0310
0000
0000
0010
0000
0000
0010
0000
2000
0000
0000
0000
3000
0000
0000
0000
,  // measure 52
1000
0000
0000
1000
0000
0000
1000
0000
0010
0000
0000
0010
0000
0000
0010
0000
,  // measure 53
0100
0000
0000
0100
0000
0000
0100
0000
0002
0000
0000
0000
0003
0000
0000
0000
,  // measure 54
0001
0000
0000
0001
0000
0000
0001
0000
0010
0000
0000
0000
0010
0000
0200
0000
,  // measure 55
0000
0000
0300
0110
,  // measure 56
2002
0000
0000
3003
;

//---------------dance-single - ----------------
#NOTEDATA:;
#CHARTNAME:;
#STEPSTYPE:dance-single;
#DESCRIPTION:;
#CHARTSTYLE:;
#DIFFICULTY:Medium;
#METER:5;
#RADARVALUES:0.295984,0.372424,0.131251,0.328127,0.000000,221.000000,207.000000,14.000000,35.000000,0.000000,0.000000,0.000000,0.000000,0.000000,0.295984,0.372424,0.131251,0.328127,0.000000,221.000000,207.000000,14.000000,35.000000,0.000000,0.000000,0.000000,0.000000,0.000000;
#CREDIT:;
#NOTES:
// measure 0
0000
0000
0000
0000
,  // measure 1
0000
0000
0000
0000
,  // measure 2
0000
0000
0000
0000
,  // measure 3
0000
0000
0000
0000
,  // measure 4
1000
0000
1000
0000
1000
0001
1000
0000
,  // measure 5
0001
0000
0001
0000
0001
1000
0001
0000
,  // measure 6
0100
0000
0100
0000
0100
0010
0100
0000
,  // measure 7
0010
0000
0010
0000
0010
0100
0010
0000
,  // measure 8
1000
0000
1100
0000
1000
0100
1000
0000
,  // measure 9
0001
0000
0101
0000
0001
0100
0001
0000
,  // measure 10
1000
0000
1010
0000
1000
0010
1000
0000
,  // measure 11
0001
0000
0011
0000
0001
0010
0001
0000
,  // measure 12
1000
0000
0110
0000
1000
0010
0100
0000
,  // measure 13
0001
0000
0110
0000
0001
0100
0010
0000
,  // measure 14
1000
0000
1010
0000
1000
0100
0010
0000
,  // measure 15
0001
0000
0101
0000
0001
0010
0100
0000
,  // measure 16
2000
0000
3020
0000
,  // measure 17
0230
0000
0302
0003
,  // measure 18
0002
0000
0203
0000
,  // measure 19
0320
0000
2030
3000
,  // measure 20
2000
0000
3020
0000
,  // measure 21
0230
0000
0302
0003
,  // measure 22
0002
0000
0023
0000
,  // measure 23
0230
0000
1300
1001
,  // measure 24
1000
0000
0010
0100
0100
0000
0001
0000
,  // measure 25
1000
0000
0010
1000
1000
0000
0100
0000
,  // measure 26
1000
0000
0001
0100
0100
0000
0001
0000
,  // measure 27
0010
0000
0001
0100
0100
0000
0010
0000
,  // measure 28
1000
0000
0100
1000
1000
0000
0100
0000
,  // measure 29
0010
0000
0001
1000
1000
0000
0010
0000
,  // measure 30
0100
0000
0001
1000
1000
0000
0010
0000
,  // measure 31
0100
0000
0001
0010
0010
0000
0001
0000
,  // measure 32
1000
0000
0010
1000
1000
0000
0100
0000
,  // measure 33
0010
0000
0001
0100
0100
0000
0001
0000
,  // measure 34
0100
0000
0010
1000
1000
0000
0010
0000
,  // measure 35
0100
0000
0001
1000
1000
0000
0100
0000
,  // measure 36
1000
0000
0010
0100
0100
0000
0001
0000
,  // measure 37
0010
0000
0001
1000
1000
0000
0100
0000
,  // measure 38
1000
0000
0010
0100
0100
0000
0010
0000
,  // measure 39
2002
0000
0000
3003
,  // measure 40
1000
0100
1000
0000
0001
0100
0001
0000
,  // measure 41
0001
0100
0001
0000
1000
0100
1000
0000
,  // measure 42
1000
0010
1000
0000
0001
0010
0001
0000
,  // measure 43
0001
0010
0001
0000
1000
0010
1000
0000
,  // measure 44
1001
0100
0001
0100
,  // measure 45
0010
1000
0010
0100
,  // measure 46
1001
1000
0100
0010
,  // measure 47
2002
0000
0000
3003
,  // measure 48
2000
0000
3020
0000
,  // measure 49
0230
0000
0302
0003
,  // measure 50
0002
0000
0203
0000
,  // measure 51
0320
0000
2030
3000
,  // measure 52
2000
0000
3020
0000
,  // measure 53
0230
0000
0302
0003
,  // measure 54
0002
0000
0000
0000
1003
0000
1000
0200
,  // measure 55
0000
0000
0000
0300
,  // measure 56
2002
0000
0000
3003
;

//---------------dance-single - ----------------
#NOTEDATA:;
#CHARTNAME:;
#STEPSTYPE:dance-single;
#DESCRIPTION:;
#CHARTSTYLE:;
#DIFFICULTY:Easy;
#METER:3;
#RADARVALUES:0.194198,0.266017,0.018750,0.271877,0.000000,145.000000,143.000000,2.000000,29.000000,0.000000,0.000000,0.000000,0.000000,0.000000,0.194198,0.266017,0.018750,0.271877,0.000000,145.000000,143.000000,2.000000,29.000000,0.000000,0.000000,0.000000,0.000000,0.000000;
#CREDIT:;
#NOTES:
// measure 0
0000
0000
0000
0000
,  // measure 1
0000
0000
0000
0000
,  // measure 2
0000
0000
0000
0000
,  // measure 3
0000
0000
0000
0000
,  // measure 4
1000
1000
1000
0000
,  // measure 5
0001
0001
0001
0000
,  // measure 6
0100
0100
0100
0000
,  // measure 7
0010
0010
0010
0000
,  // measure 8
1000
1000
0000
0000
,  // measure 9
0001
0001
0000
0000
,  // measure 10
1000
1000
0000
0000
,  // measure 11
0001
0001
0000
0000
,  // measure 12
1000
0100
1000
0000
,  // measure 13
0001
0010
0001
0000
,  // measure 14
1000
0010
1000
0000
,  // measure 15
0001
0100
0001
0000
,  // measure 16
2000
0000
3020
0000
,  // measure 17
0230
0000
0000
0000
,  // measure 18
0302
0000
0203
0000
,  // measure 19
0320
0000
0000
0000
,  // measure 20
2030
0000
3020
0000
,  // measure 21
0230
0000
0000
0000
,  // measure 22
0302
0000
0023
0000
,  // measure 23
0230
0000
0000
0000
,  // measure 24
1300
0010
0100
0001
,  // measure 25
1000
0010
1000
0100
,  // measure 26
1000
0001
0100
0001
,  // measure 27
0010
0001
0100
0010
,  // measure 28
1000
0100
1000
0100
,  // measure 29
0010
0001
1000
0010
,  // measure 30
0100
0001
1000
0010
,  // measure 31
0100
0001
0010
0001
,  // measure 32
1000
0010
1000
0100
,  // measure 33
0010
0001
0100
0001
,  // measure 34
0100
0010
1000
0010
,  // measure 35
0100
0001
1000
0100
,  // measure 36
1000
0010
0100
0001
,  // measure 37
0010
0001
1000
0100
,  // measure 38
1000
0010
0100
0010
,  // measure 39
2002
0000
0000
3003
,  // measure 40
1000
1000
1000
0000
,  // measure 41
0001
0001
0001
0000
,  // measure 42
0100
0100
0100
0000
,  // measure 43
0010
0010
0010
0000
,  // measure 44
1000
0100
0001
0100
,  // measure 45
1000
0100
0001
0100
,  // measure 46
1000
0100
0001
0100
,  // measure 47
2000
0000
0000
3000
,  // measure 48
2000
0000
3020
0000
,  // measure 49
0230
0000
0000
0000
,  // measure 50
0302
0000
0203
0000
,  // measure 51
0320
0000
0000
0000
,  // measure 52
2030
0000
3020
0000
,  // measure 53
0230
0000
0000
0000
,  // measure 54
0302
0000
2003
0000
,  // measure 55
3200
0000
0000
0300
,  // measure 56
2002
0000
0000
3003
;

//---------------dance-single - ----------------
#NOTEDATA:;
#CHARTNAME:;
#STEPSTYPE:dance-single;
#DESCRIPTION:;
#CHARTSTYLE:;
#DIFFICULTY:Beginner;
#METER:1;
#RADARVALUES:0.133929,0.186212,0.009375,0.037500,0.000000,100.000000,99.000000,1.000000,4.000000,0.000000,0.000000,0.000000,0.000000,0.000000,0.133929,0.186212,0.009375,0.037500,0.000000,100.000000,99.000000,1.000000,4.000000,0.000000,0.000000,0.000000,0.000000,0.000000;
#CREDIT:;
#NOTES:
// measure 0
0000
0000
0000
0000
,  // measure 1
0000
0000
0000
0000
,  // measure 2
0000
0000
0000
0000
,  // measure 3
0000
0000
0000
0000
,  // measure 4
1000
0000
1000
0000
,  // measure 5
0001
0000
0001
0000
,  // measure 6
0100
0000
0100
0000
,  // measure 7
0010
0000
0010
0000
,  // measure 8
1000
0000
0000
0000
,  // measure 9
0001
0000
0000
0000
,  // measure 10
1000
0000
0000
0000
,  // measure 11
0001
0000
0000
0000
,  // measure 12
1000
0000
0000
0000
,  // measure 13
0001
0000
0000
0000
,  // measure 14
1000
0000
0000
0000
,  // measure 15
0001
0000
0000
0000
,  // measure 16
1000
1000
0000
0000
,  // measure 17
0100
0100
0000
0000
,  // measure 18
0010
0010
0000
0000
,  // measure 19
0001
0001
0000
0000
,  // measure 20
1000
1000
0000
0000
,  // measure 21
0100
0100
0000
0000
,  // measure 22
0010
0010
0000
0000
,  // measure 23
0001
0001
0000
0000
,  // measure 24
1000
0000
0100
0000
,  // measure 25
0010
0000
0001
0000
,  // measure 26
1000
0000
0100
0000
,  // measure 27
0010
0000
0001
0000
,  // measure 28
1000
0000
1000
0000
,  // measure 29
0001
0000
0001
0000
,  // measure 30
0100
0000
0100
0000
,  // measure 31
0010
0000
0010
0000
,  // measure 32
1000
0000
1000
0000
,  // measure 33
0010
0000
0010
0000
,  // measure 34
0100
0000
0100
0000
,  // measure 35
0001
0000
0001
0000
,  // measure 36
1000
0000
0100
0000
,  // measure 37
0010
0000
0001
0000
,  // measure 38
1000
0000
0001
0000
,  // measure 39
2000
0000
0000
3000
,  // measure 40
1000
1000
1000
0000
,  // measure 41
0001
0001
0001
0000
,  // measure 42
0100
0100
0100
0000
,  // measure 43
0010
0010
0010
0000
,  // measure 44
1000
0000
0001
0000
,  // measure 45
1000
0000
0001
0000
,  // measure 46
1000
0000
0001
0000
,  // measure 47
2000
0000
0000
3000
,  // measure 48
1000
1000
0000
0000
,  // measure 49
0010
0010
0000
0000
,  // measure 50
0100
0100
0000
0000
,  // measure 51
0001
0001
0000
0000
,  // measure 52
1000
1000
0000
0000
,  // measure 53
0100
0100
0000
0000
,  // measure 54
0010
0010
0000
0000
,  // measure 55
0001
0001
0000
0000
,  // measure 56
2002
0000
0000
3003
;
