#VERSION:0.83;
#TITLE:Hideaway;
#SUBTITLE:;
#ARTIST:Kiesza;
#TITLETRANSLIT:;
#SUBTITLETRANSLIT:;
#ARTISTTRANSLIT:;
#GENRE:;
#ORIGIN:;
#CREDIT:;
#BANNER:Hideaway.png;
#BACKGROUND:;
#PREVIEWVID:;
#JACKET:Hideaway-jacket.png;
#CDIMAGE:;
#DISCIMAGE:;
#LYRICSPATH:;
#CDTITLE:;
#MUSIC:Hideaway.ogg;
#OFFSET:-0.180000;
#SAMPLESTART:62.559982;
#SAMPLELENGTH:12.000000;
#SELECTABLE:YES;
#BPMS:0.000=123.040;
#STOPS:;
#DELAYS:;
#WARPS:;
#TIMESIGNATURES:0.000=4=4;
#TICKCOUNTS:0.000=4;
#COMBOS:0.000=1;
#SPEEDS:0.000=1.000=0.000=0;
#SCROLLS:0.000=1.000;
#FAKES:;
#LABELS:0.000=Song Start;
#BGCHANGES:;
#KEYSOUNDS:;
#ATTACKS:
;

//---------------dance-single - ----------------
#NOTEDATA:;
#CHARTNAME:;
#STEPSTYPE:dance-single;
#DESCRIPTION:;
#CHARTSTYLE:;
#DIFFICULTY:Hard;
#METER:7;
#RADARVALUES:0.389366,0.424439,0.145641,0.249670,0.140439,262.000000,248.000000,14.000000,24.000000,0.000000,0.000000,0.000000,0.000000,0.000000,0.389366,0.424439,0.145641,0.249670,0.140439,262.000000,248.000000,14.000000,24.000000,0.000000,0.000000,0.000000,0.000000,0.000000;
#CREDIT:;
#NOTES:
0000
0000
0000
0000
,
0000
0000
0000
0000
,
0000
0000
0000
0000
,
0000
0000
0000
0000
0000
0000
0000
0000
0000
0000
0000
0000
1000
0100
1000
0200
,
0000
0000
0000
0000
0000
0000
0000
0000
0000
0000
0000
0000
0000
0000
0000
2300
,
0000
0000
0000
0000
0000
0000
0000
0000
0000
0000
0000
0000
3002
0000
0000
0203
,
0000
0000
0000
0000
0010
0000
0000
0320
0000
0000
0000
0000
1000
0000
0000
2000
,
0000
0000
0000
3030
,
0000
0000
0001
0000
1000
0000
1000
0000
0100
0000
0000
0100
0000
0000
0100
0000
,
0000
0000
1000
0000
0001
0000
0001
0000
0100
0000
0000
0100
0000
0000
0100
0000
,
0000
0000
0001
0000
1000
0000
1000
0000
0100
0000
0000
0100
0000
0000
0100
0000
,
0000
0000
1000
0000
0001
0000
0001
0000
0100
0000
0200
0000
0001
0000
0000
0302
,
0000
0000
0000
0000
0000
0000
0000
2003
0000
0000
0000
0000
0000
0000
0000
0002
,
0000
0000
0000
0000
0000
0000
0000
0000
0000
3003
0000
0000
0001
0000
1000
0002
,
0000
0000
0100
0000
0100
0000
0103
0001
,
2002
0000
0000
3003
,
1000
0100
1000
0100
1000
1000
1000
0000
,
0001
0100
0001
0100
0001
0001
0001
0000
,
1000
0010
1000
0010
1000
1000
1000
0000
,
0001
0010
0001
0010
0001
0001
0001
0000
,
2000
0001
3001
0000
0002
0100
0103
0000
,
0200
0010
0310
0000
0020
1000
1030
0000
,
2000
0001
3001
0000
0002
1000
1003
0000
,
1000
0100
0010
0001
0010
0100
1000
0000
,
1002
0000
0000
0000
1000
0000
0000
1000
0000
0000
1000
0000
0000
1003
0000
0000
,
0210
0000
0010
0000
0010
0000
0000
0010
0000
0000
0010
0000
0000
0310
0000
0000
,
2001
0000
0000
0000
0001
0000
0000
0001
0000
0000
0001
0000
0000
3001
0000
0000
,
0120
0000
0100
0000
0100
0000
0000
0100
0000
0000
0100
0000
0000
0130
0000
0000
,
0100
0000
0001
0000
0000
0100
0000
0000
0001
0000
1000
0000
0000
0001
0000
0000
,
1000
0000
0010
0000
0000
1000
0000
0000
0010
0000
0100
0000
0000
0010
0000
0000
,
1000
0000
0100
0000
0000
1000
0000
0000
0001
0000
0100
0000
0000
0001
0000
0000
,
1000
0001
1000
0001
1000
0001
1002
0100
,
0013
0000
0011
0000
0001
0100
0001
0000
,
1000
0000
1100
0000
0100
1000
0100
0000
,
1000
0000
1010
0000
0010
1000
0010
0000
,
0100
0000
0101
0000
0100
0001
0100
0000
,
0001
0000
0011
0000
0001
0010
0001
0000
,
1000
0000
1100
0000
1000
0100
1000
0000
,
0001
0000
0101
0000
0001
0100
0001
0000
,
0100
0000
0110
0000
0100
0010
0100
0000
,
0001
1000
0001
1000
0001
1000
0001
0000
,
1000
0001
1000
0001
1000
0001
1000
0000
,
0010
0100
0010
0100
0010
0100
0010
0000
,
0100
0010
0100
0010
0100
0010
0100
0000
,
1000
0100
0010
0001
1000
0100
0010
0001
,
1000
0100
0010
0001
1000
0100
0010
0001
,
1000
0001
1000
0001
0100
0010
0100
0010
,
1000
0100
0001
0100
1000
0010
0001
0100
,
1000
0000
0000
0000
;

//---------------dance-single - ----------------
#NOTEDATA:;
#CHARTNAME:;
#STEPSTYPE:dance-single;
#DESCRIPTION:;
#CHARTSTYLE:;
#DIFFICULTY:Medium;
#METER:5;
#RADARVALUES:0.292767,0.374505,0.062417,0.280878,0.015604,197.000000,191.000000,6.000000,27.000000,0.000000,0.000000,0.000000,0.000000,0.000000,0.292767,0.374505,0.062417,0.280878,0.015604,197.000000,191.000000,6.000000,27.000000,0.000000,0.000000,0.000000,0.000000,0.000000;
#CREDIT:;
#NOTES:
0000
0000
0000
0000
,
0000
0000
0000
0000
,
0000
0000
0000
0000
,
0000
0000
0000
0000
,
2000
0000
0000
0000
,
0002
0000
0000
0000
0000
0000
0000
0000
0000
0000
0000
0000
3000
0000
0000
0003
,
0200
0000
0320
0000
,
2000
0000
0000
3030
,
0000
0000
0000
0000
1000
0000
0000
0000
0100
0000
0000
0100
0000
0000
0100
0000
,
0000
0000
0000
0000
0001
0000
0000
0000
0100
0000
0000
0100
0000
0000
0100
0000
,
0000
0000
0000
0000
1000
0000
0000
0000
0100
0000
0000
0100
0000
0000
0100
0000
,
0000
0000
0001
0000
0100
0100
0100
0000
,
0002
0000
2003
0000
,
0002
0000
0003
3001
,
0002
0100
0100
0103
,
2002
0000
0000
3003
,
1000
0100
1000
0000
1000
1000
1000
0000
,
0001
0100
0001
0000
0001
0001
0001
0000
,
1000
0010
1000
0000
1000
1000
1000
0000
,
0001
0010
0001
0000
0001
0001
0001
0000
,
2000
0001
3001
0000
0002
0100
0103
0000
,
0200
0010
0310
0000
0020
1000
1030
0000
,
2000
0001
3001
0000
0002
1000
1003
0000
,
1000
0100
0010
0000
0001
0010
0100
0000
,
2002
0000
0000
0000
0000
0000
0000
3003
,
0220
0000
0000
0000
0000
0000
0000
0330
,
2002
0000
0000
0000
0000
0000
0000
3003
,
0220
0000
0000
0000
0000
0000
0000
0330
,
0100
0001
0000
0000
0001
1000
0000
0000
,
1000
0010
0000
0000
0010
0100
0000
0000
,
0100
0001
0000
0000
0001
1000
0000
0000
,
1000
0001
1000
0001
1000
0002
2000
0003
,
3010
0000
1000
0000
0001
0100
0001
0000
,
1000
0000
0100
0000
0100
1000
0100
0000
,
1000
0000
0010
0000
0010
1000
0010
0000
,
0100
0000
0001
0000
0100
0001
0100
0000
,
0001
0000
0010
0000
0001
0010
0001
0000
,
1000
0000
0100
0000
1000
0100
1000
0000
,
0001
0000
0100
0000
0001
0100
0001
0000
,
0100
0000
0010
0000
0100
0010
0100
0000
,
0001
1000
0001
0000
1000
0001
1000
0000
,
0001
1000
0001
0000
1000
0001
1000
0000
,
0010
0100
0010
0000
0100
0010
0100
0000
,
0010
0100
0010
0000
0100
0010
0100
0000
,
0100
0100
0010
0000
0010
0010
1000
0000
,
1000
1000
0100
0000
0100
0100
0010
0000
,
0010
0010
0001
0000
0001
0001
0100
0000
,
0100
0010
0100
0010
0100
0010
0100
0000
,
1001
0000
0000
0000
;

//---------------dance-single - ----------------
#NOTEDATA:;
#CHARTNAME:;
#STEPSTYPE:dance-single;
#DESCRIPTION:;
#CHARTSTYLE:;
#DIFFICULTY:Easy;
#METER:3;
#RADARVALUES:0.196169,0.249670,0.052015,0.291281,0.000000,132.000000,127.000000,5.000000,28.000000,0.000000,0.000000,0.000000,0.000000,0.000000,0.196169,0.249670,0.052015,0.291281,0.000000,132.000000,127.000000,5.000000,28.000000,0.000000,0.000000,0.000000,0.000000,0.000000;
#CREDIT:;
#NOTES:
0000
0000
0000
0000
,
0000
0000
0000
0000
,
0000
0000
0000
0000
,
0000
0000
0000
0000
,
2000
0000
0000
0000
,
3002
0000
0000
0000
0000
0000
0000
0000
0000
0000
0000
0000
0000
0000
0000
0003
,
0200
0000
0000
0000
,
0320
0000
0000
0000
,
1030
2000
0000
3000
,
0001
0002
0000
0003
,
1000
2000
0000
3000
,
0001
0002
0000
0003
,
0001
0000
0001
0000
,
0002
0000
0000
0003
,
1000
0000
1000
0000
,
2000
0000
0000
3000
,
1000
1000
1000
1000
,
0001
0001
0001
0001
,
0100
0100
0100
0100
,
0010
0010
0010
0010
,
2000
3001
0002
0103
,
0200
0310
0020
1030
,
2000
3001
0002
1003
,
1000
0010
0001
0100
,
2002
0000
0000
0000
0000
0000
0000
3003
,
0220
0000
0000
0000
0000
0000
0000
0330
,
2002
0000
0000
0000
0000
0000
0000
3003
,
0220
0000
0000
0000
0000
0000
0000
0330
,
0100
0000
0001
0000
,
1000
0000
0010
0000
,
0200
0000
0302
0000
,
2003
0000
3020
0000
,
1030
1000
0001
0001
,
0100
0100
0010
0010
,
1000
0010
0100
0001
,
1000
0010
0100
0001
,
1000
0100
0010
0001
,
1000
0100
0010
0001
,
1000
1000
0001
0001
,
0100
0100
0010
0010
,
1000
0001
1000
0001
,
0100
0010
0100
0010
,
1000
0010
0100
0001
,
1000
0010
0100
0001
,
1000
0100
0010
0001
,
1000
0100
0010
0001
,
1000
0001
1000
0001
,
0100
0010
0100
0010
,
1001
0000
0000
0000
;

//---------------dance-single - ----------------
#NOTEDATA:;
#CHARTNAME:;
#STEPSTYPE:dance-single;
#DESCRIPTION:;
#CHARTSTYLE:;
#DIFFICULTY:Beginner;
#METER:1;
#RADARVALUES:0.123349,0.174769,0.020806,0.104029,0.000000,83.000000,81.000000,2.000000,10.000000,0.000000,0.000000,0.000000,0.000000,0.000000,0.123349,0.174769,0.020806,0.104029,0.000000,83.000000,81.000000,2.000000,10.000000,0.000000,0.000000,0.000000,0.000000,0.000000;
#CREDIT:;
#NOTES:
// measure 0
0000
0000
0000
0000
,  // measure 1
0000
0000
0000
0000
,  // measure 2
0000
0000
0000
0000
,  // measure 3
0000
0000
0000
0000
,  // measure 4
1000
0000
0000
0000
,  // measure 5
0001
0000
0000
0000
,  // measure 6
0100
0000
0000
0000
,  // measure 7
0010
0000
0000
0000
,  // measure 8
1000
2000
0000
3000
,  // measure 9
0001
0002
0000
0003
,  // measure 10
1000
2000
0000
3000
,  // measure 11
0001
0002
0000
0003
,  // measure 12
0001
0000
0001
0000
,  // measure 13
0002
0000
0000
0003
,  // measure 14
1000
0000
1000
0000
,  // measure 15
2000
0000
0000
3000
,  // measure 16
1000
1000
1000
0000
,  // measure 17
0001
0001
0001
0000
,  // measure 18
0100
0100
0100
0000
,  // measure 19
0010
0010
0010
0000
,  // measure 20
1000
0000
0001
0000
,  // measure 21
0100
0000
0010
0000
,  // measure 22
1000
0000
0001
0000
,  // measure 23
0100
0000
0010
0000
,  // measure 24
2002
0000
0000
0000
,  // measure 25
3003
0000
0000
0000
,  // measure 26
0220
0000
0000
0000
,  // measure 27
0330
0000
0000
0000
,  // measure 28
0100
0000
0001
0000
,  // measure 29
1000
0000
0010
0000
,  // measure 30
0100
0000
0001
0000
,  // measure 31
1000
0000
0010
0000
,  // measure 32
1000
1000
0000
0000
,  // measure 33
0100
0100
0000
0000
,  // measure 34
0010
0010
0000
0000
,  // measure 35
0001
0001
0000
0000
,  // measure 36
1000
1000
0000
0000
,  // measure 37
0010
0010
0000
0000
,  // measure 38
0100
0100
0000
0000
,  // measure 39
0001
0001
0000
0000
,  // measure 40
1000
0000
1000
0000
,  // measure 41
0100
0000
0100
0000
,  // measure 42
0010
0000
0010
0000
,  // measure 43
0001
0000
0001
0000
,  // measure 44
1000
0000
0010
0000
,  // measure 45
0100
0000
0001
0000
,  // measure 46
1000
0000
0001
0000
,  // measure 47
0100
0000
0010
0000
,  // measure 48
1000
0000
0000
0000
;
