#VERSION:0.83;
#TITLE:Gotta Let You Go;
#SUBTITLE:(DJ Tonka Edit);
#ARTIST:Dominica;
#TITLETRANSLIT:;
#SUBTITLETRANSLIT:;
#ARTISTTRANSLIT:;
#GENRE:;
#ORIGIN:;
#CREDIT:;
#BANNER:Gotta Let You Go (DJ Tonka Edit).png;
#BACKGROUND:;
#PREVIEWVID:;
#JACKET:Gotta Let You Go (DJ Tonka Edit)-jacket.png;
#CDIMAGE:;
#DISCIMAGE:;
#LYRICSPATH:;
#CDTITLE:;
#MUSIC:Gotta Let You Go (DJ Tonka Edit).ogg;
#OFFSET:-0.120000;
#SAMPLESTART:46.539989;
#SAMPLELENGTH:12.000000;
#SELECTABLE:YES;
#BPMS:0.000=129.240;
#STOPS:;
#DELAYS:;
#WARPS:;
#TIMESIGNATURES:0.000=4=4;
#TICKCOUNTS:0.000=4;
#COMBOS:0.000=1;
#SPEEDS:0.000=1.000=0.000=0;
#SCROLLS:0.000=1.000;
#FAKES:;
#LABELS:0.000=Song Start;
#BGCHANGES:;
#KEYSOUNDS:;
#ATTACKS:
;

//---------------dance-single - ----------------
#NOTEDATA:;
#CHARTNAME:;
#STEPSTYPE:dance-single;
#DESCRIPTION:;
#CHARTSTYLE:;
#DIFFICULTY:Hard;
#METER:7;
#RADARVALUES:0.462966,0.441741,0.021321,0.149246,0.170567,304.000000,302.000000,2.000000,14.000000,0.000000,0.000000,0.000000,0.000000,0.000000,0.462966,0.441741,0.021321,0.149246,0.170567,304.000000,302.000000,2.000000,14.000000,0.000000,0.000000,0.000000,0.000000,0.000000;
#CREDIT:;
#NOTES:
0000
0000
0000
0000
,
0000
0000
0000
0000
,
0000
0000
0000
0000
,
0000
0000
0000
0000
,
0000
0000
0000
0000
,
1000
0200
1000
2300
0010
3010
0100
0001
,
0100
0002
0010
0023
0001
0031
0100
0010
,
0100
0020
1000
2030
0100
3100
1000
0010
,
0010
0200
0001
0302
1000
1003
0001
0000
,
1000
0100
0010
0100
0001
0100
0010
0100
,
1000
0100
0010
0100
0001
0100
0010
0100
,
1000
0100
0010
0100
0001
0100
0010
0100
,
1000
0100
1000
0100
1000
0100
1000
0100
,
1000
0010
0100
0010
0001
0010
0100
0010
,
1000
0010
0100
0010
0001
0010
0100
0010
,
1000
0010
0100
0010
0001
0010
0100
0010
,
1000
0010
1000
0010
1000
0010
1000
0010
,
1000
1000
1000
0000
0001
0001
0001
0000
,
0100
0100
0100
0000
0010
0010
0010
0000
,
1000
1000
1000
0000
0100
0100
0100
0000
,
0010
0010
0010
0000
0001
0001
0001
0000
,
1000
0001
1000
0000
0001
1000
0001
0000
,
0100
0010
0100
0000
0010
0100
0010
0000
,
1000
0100
1000
0000
0001
0010
0001
0000
,
1000
0010
1000
0000
0001
0100
0001
0000
,
1000
0000
0000
1000
0001
0000
0000
0001
1000
0000
0000
1000
0001
0000
0000
0001
,
0100
0000
0000
0100
0010
0000
0000
0010
0100
0000
0000
0100
0010
0000
0000
0010
,
1000
0000
0000
1000
0100
0000
0000
0100
0010
0000
0000
0010
0001
0000
0000
0001
,
1000
0000
0000
1000
0001
0000
0000
0001
0100
0000
0000
0100
0010
0000
0000
0010
,
1000
0000
0000
1000
0100
0000
0000
0100
0010
0000
0000
0010
0001
0000
0000
0001
,
1000
0000
0000
1000
0100
0000
0000
0100
0010
0000
0000
0010
0001
0000
0000
0001
,
1000
0000
0000
1000
0001
0000
0000
0001
0100
0000
0000
0100
0010
0000
0000
0010
,
0100
0000
0000
0100
0001
0000
0000
0001
1000
0000
0000
1000
0010
0000
0000
0010
,
1000
0100
1000
0000
0001
0100
0001
0000
,
1000
0100
1000
0000
0001
0100
0001
0000
,
1000
0010
1000
0000
0001
0010
0001
0000
,
1000
0010
1000
0000
0001
0010
0001
0000
,
1000
0100
1000
0100
1000
0100
1000
0100
,
0010
0001
0010
0001
0010
0001
0010
0001
,
1000
0010
1000
0010
1000
0010
1000
0010
,
0100
0001
0100
0001
0100
0001
0100
0001
,
2000
0000
0001
0000
0010
0010
3010
0000
,
0002
0000
1000
0000
0100
0100
0103
0000
,
2000
0000
0010
0000
0100
0100
3100
0000
,
0002
0000
0100
0000
0010
0010
0013
0000
,
1001
0000
0001
0001
1000
1000
0100
0000
,
1000
0000
0010
0010
0100
0100
0001
0000
,
0010
0000
0001
0001
1000
1000
0100
0000
,
2002
0000
0000
3003
;

//---------------dance-single - ----------------
#NOTEDATA:;
#CHARTNAME:;
#STEPSTYPE:dance-single;
#DESCRIPTION:;
#CHARTSTYLE:;
#DIFFICULTY:Medium;
#METER:5;
#RADARVALUES:0.335042,0.363787,0.074623,0.063962,0.000000,220.000000,213.000000,7.000000,6.000000,0.000000,0.000000,0.000000,0.000000,0.000000,0.335042,0.363787,0.074623,0.063962,0.000000,220.000000,213.000000,7.000000,6.000000,0.000000,0.000000,0.000000,0.000000,0.000000;
#CREDIT:;
#NOTES:
0000
0000
0000
0000
,
0000
0000
0000
0000
,
0000
0000
0000
0000
,
0000
0000
0000
0000
,
0000
0000
0000
0000
,
0000
1000
1000
1000
0001
0001
0001
0000
,
0000
0100
0100
0100
0010
0010
0010
0000
,
0000
1000
0100
1000
0001
0010
0001
0000
,
0000
0100
0001
0100
0010
1000
0010
0000
,
1000
0001
0100
0001
,
1000
0100
1000
0001
,
0100
0010
1000
0100
,
0010
0001
0100
0010
,
1000
0010
0100
0001
,
1000
0010
0100
0001
,
1000
0100
0010
0001
,
1000
0100
0001
0010
,
1000
1000
1000
0000
0001
0001
0001
0000
,
0100
0100
0100
0000
0010
0010
0010
0000
,
1000
1000
1000
0000
0100
0100
0100
0000
,
0010
0010
0010
0000
0001
0001
0001
0000
,
1000
0001
1000
0000
0001
1000
0001
0000
,
0100
0010
0100
0000
0010
0100
0010
0000
,
1000
0100
1000
0000
0001
0010
0001
0000
,
1000
0010
1000
0000
0001
0100
0001
0000
,
1000
0001
1000
0001
,
0100
0010
0100
0010
,
1000
0100
0010
0001
,
1000
0001
0100
0010
,
1000
0100
0010
0001
,
1000
0100
0010
0001
,
1000
0001
0100
0010
,
0100
0001
1000
0010
,
1000
0100
1000
0000
0001
0100
0001
0000
,
1000
0100
1000
0000
0001
0100
0001
0000
,
1000
0010
1000
0000
0001
0010
0001
0000
,
1000
0010
1000
0000
0001
0010
0001
0000
,
1000
0100
1000
0000
1000
0100
1000
0000
,
0001
0100
0001
0000
0001
0100
0001
0000
,
1000
0010
1000
0000
1000
0010
1000
0000
,
0001
0010
0001
0000
0001
0010
0001
0000
,
2000
0001
0010
3010
,
0002
1000
0100
0103
,
2000
0010
0100
3100
,
0002
0100
0010
0013
,
1001
1001
1000
0100
,
1001
1001
0100
0001
,
1001
1001
1000
0100
,
2002
0000
0000
3003
;

//---------------dance-single - ----------------
#NOTEDATA:;
#CHARTNAME:;
#STEPSTYPE:dance-single;
#DESCRIPTION:;
#CHARTSTYLE:;
#DIFFICULTY:Easy;
#METER:4;
#RADARVALUES:0.271079,0.311817,0.085283,0.053302,0.000000,178.000000,170.000000,8.000000,5.000000,0.000000,0.000000,0.000000,0.000000,0.000000,0.271079,0.311817,0.085283,0.053302,0.000000,178.000000,170.000000,8.000000,5.000000,0.000000,0.000000,0.000000,0.000000,0.000000;
#CREDIT:;
#NOTES:
0000
0000
0000
0000
,
0000
0000
0000
0000
,
0000
0000
0000
0000
,
0000
0000
0000
0000
,
0000
0000
0000
0000
,
1000
1000
0001
0001
,
0100
0100
0010
0010
,
1000
0100
0001
0010
,
1000
0100
0001
0010
,
1000
0001
0100
0001
,
1000
0100
1000
0001
,
0100
0010
1000
0100
,
0010
0001
0100
0010
,
1000
0010
0100
0001
,
1000
0010
0100
0001
,
1000
0100
0010
0001
,
1000
0100
0001
0010
,
1000
1000
0001
0001
,
0100
0100
0010
0010
,
1000
1000
0100
0100
,
0010
0010
0001
0001
,
1000
1000
0001
0001
,
0100
0100
0010
0010
,
1000
1000
0001
0001
,
1000
0100
0001
0010
,
1000
0001
1000
0001
,
0100
0010
0100
0010
,
1000
0100
0010
0001
,
1000
0001
0100
0010
,
1000
0100
0010
0001
,
1000
0100
0010
0001
,
1000
0001
0100
0010
,
0100
0001
1000
0010
,
1000
1000
0001
0001
,
1000
1000
0001
0001
,
1000
1000
0001
0001
,
1000
1000
0001
0001
,
1000
1000
1000
0110
,
0001
0001
0001
0110
,
1000
1000
1000
0110
,
0001
0001
0001
0110
,
2001
0001
0010
3010
,
1002
1000
0100
0103
,
2001
0010
0100
3100
,
1002
0100
0010
0013
,
1000
1000
1000
0000
,
0001
0001
0001
0000
,
0100
0100
0100
0000
,
0020
0000
0000
0030
;

//---------------dance-single - ----------------
#NOTEDATA:;
#CHARTNAME:;
#STEPSTYPE:dance-single;
#DESCRIPTION:;
#CHARTSTYLE:;
#DIFFICULTY:Beginner;
#METER:2;
#RADARVALUES:0.140108,0.180961,0.000000,0.000000,0.000000,92.000000,92.000000,0.000000,0.000000,0.000000,0.000000,0.000000,0.000000,0.000000,0.140108,0.180961,0.000000,0.000000,0.000000,92.000000,92.000000,0.000000,0.000000,0.000000,0.000000,0.000000,0.000000,0.000000;
#CREDIT:;
#NOTES:
// measure 0
0000
0000
0000
0000
,  // measure 1
0000
0000
0000
0000
,  // measure 2
0000
0000
0000
0000
,  // measure 3
0000
0000
0000
0000
,  // measure 4
0000
0000
0000
0000
,  // measure 5
1000
1000
0000
0000
,  // measure 6
0100
0100
0000
0000
,  // measure 7
0010
0010
0000
0000
,  // measure 8
0001
0001
0000
0000
,  // measure 9
1000
0000
0100
0000
,  // measure 10
1000
0000
1000
0000
,  // measure 11
0001
0000
0001
0000
,  // measure 12
0010
0000
0100
0000
,  // measure 13
1000
0000
0100
0000
,  // measure 14
0010
0000
0100
0000
,  // measure 15
0001
0000
0010
0000
,  // measure 16
1000
0000
0001
0000
,  // measure 17
1000
1000
0000
0000
,  // measure 18
0100
0100
0000
0000
,  // measure 19
0010
0010
0000
0000
,  // measure 20
0001
0001
0000
0000
,  // measure 21
1000
1000
0000
0000
,  // measure 22
0100
0100
0000
0000
,  // measure 23
0010
0010
0000
0000
,  // measure 24
0001
0001
0000
0000
,  // measure 25
1000
0000
1000
0000
,  // measure 26
0100
0000
0100
0000
,  // measure 27
0010
0000
0010
0000
,  // measure 28
0001
0000
0001
0000
,  // measure 29
1000
0000
0010
0000
,  // measure 30
1000
0000
0010
0000
,  // measure 31
0100
0000
0001
0000
,  // measure 32
0100
0000
0001
0000
,  // measure 33
1000
1000
0000
0000
,  // measure 34
0001
0001
0000
0000
,  // measure 35
1000
1000
0000
0000
,  // measure 36
0001
0001
0000
0000
,  // measure 37
0100
0100
0000
0000
,  // measure 38
0010
0010
0000
0000
,  // measure 39
0100
0100
0000
0000
,  // measure 40
0010
0010
0000
0000
,  // measure 41
1000
0000
0010
0000
,  // measure 42
0001
0000
0100
0000
,  // measure 43
1000
0000
0100
0000
,  // measure 44
0001
0000
0010
0000
,  // measure 45
1000
1000
1000
0000
,  // measure 46
0001
0001
0001
0000
,  // measure 47
0100
0100
0100
0000
,  // measure 48
0010
0010
0010
0000
;
