#TITLE:GENOM SCREAMS;
#SUBTITLE:(Pakuman Screamer);
#ARTIST:L.E.D. Light;
#TITLETRANSLIT:;
#SUBTITLETRANSLIT:;
#ARTISTTRANSLIT:;
#GENRE:;
#CREDIT:;
#BANNER:GENOM SCREAMS (Pakuman Screamer).png;
#BACKGROUND:;
#LYRICSPATH:;
#CDTITLE:;
#MUSIC:Genom Screams (Pakuman Screamer).ogg;
#OFFSET:-0.020000;
#SAMPLESTART:26.499977;
#SAMPLELENGTH:15.000000;
#SELECTABLE:YES;
#BPMS:0.000000=145.000168
;
#STOPS:
;
#BGCHANGES:;
#KEYSOUNDS:;
#ATTACKS:;

//---------------dance-single - ----------------
#NOTES:
     dance-single:
     :
     Hard:
     9:
     0.548435,0.686127,0.602403,0.122523,0.183784,376.000000,317.000000,59.000000,12.000000,0.000000,0.000000,0.548435,0.686127,0.602403,0.122523,0.183784,376.000000,317.000000,59.000000,12.000000,0.000000,0.000000:
0000
0000
0000
0000
,
0000
0000
0000
0000
,
0000
0000
0000
0000
,
0000
0000
0000
0000
,
1000
0101
1000
0101
,
0001
1100
0001
1100
,
1001
0100
1001
0100
,
1001
1010
0101
1001
,
1100
0100
1000
0000
1000
0100
1100
0000
,
0101
0100
0001
0000
0001
0100
0101
0000
,
1001
0100
0001
0000
0001
0100
1001
0000
,
1001
0100
1000
0000
1000
0100
1001
0000
,
1000
0100
1000
0100
1000
0100
1100
0000
,
0001
0100
0001
0100
0001
0100
0101
0000
,
1000
0010
1000
0010
1000
0010
1010
0000
,
0001
0010
0001
0010
0001
0010
0011
0000
,
1001
0000
0100
0001
0000
0100
0001
0000
0100
0001
0000
0100
0001
0000
0100
0000
,
1001
0000
1000
0100
0000
1000
0100
0000
1000
0100
0000
1000
0100
0000
1000
0000
,
1001
0000
1000
0010
0000
0010
0100
0000
0100
0001
0000
0001
0010
0000
0001
0000
,
1001
0000
0001
0100
0000
0100
0010
0000
0010
1000
0000
1000
0010
0000
0100
0000
,
1010
0000
1000
0010
0000
0010
0100
0000
0100
0001
0000
0001
0010
0000
0001
0000
,
0101
0000
0001
0100
0000
0100
0010
0000
0010
1000
0000
1000
0001
0000
0100
0000
,
1001
0000
0001
1000
0000
0010
0100
0000
0001
1000
0000
0010
0100
0000
0001
0000
,
1001
0000
1000
0001
0000
0100
0010
0000
1000
0001
0000
0100
0010
0000
1000
0000
,
2200
0000
0000
3300
,
0022
0000
0000
0033
,
0202
0000
0000
0303
,
2020
0000
0000
3030
,
2001
0001
0001
3001
,
1002
1000
1000
1003
,
2100
0100
0100
3100
,
0012
0010
0010
0013
,
0001
0000
0000
0001
0000
0000
0001
0000
0000
0000
0000
0000
0000
0000
0000
0000
,
1000
0000
0000
1000
0000
0000
1000
0000
0000
0000
0000
0000
0000
0000
0000
0000
,
0010
0000
0000
0010
0000
0000
0010
0000
0000
0000
0000
0000
0000
0000
0000
0000
,
0100
0000
0000
0100
0000
0000
0100
0000
0000
0000
0000
0000
0000
0000
0000
0000
,
0001
0100
0001
0100
0010
1000
0010
1000
,
0100
1000
0100
1000
0001
0010
0001
0010
,
0001
0100
1000
0100
0001
0100
1000
0100
,
0001
0010
1000
0010
0001
0010
1000
0010
,
0001
0010
0100
1000
1000
0100
0010
0001
,
0001
0010
0100
1000
1000
0100
0010
0001
,
0001
0100
0010
1000
1000
0010
0100
0001
,
0001
0001
1000
1000
0010
0010
0100
0100
,
0001
0010
0100
0010
0001
0010
0100
0100
,
1000
0100
0010
0100
1000
0100
0010
0010
,
0001
0001
1000
1000
0010
0010
0100
0100
,
0001
0001
0010
0010
0100
0100
1000
1000
,
1001
0000
0101
0000
1000
0001
1000
0000
,
1001
0000
1100
0000
0001
1000
0001
0000
,
1001
0000
0011
0000
1000
0001
1000
0000
,
1001
0000
1010
0000
0001
1000
0001
0000
,
1000
0101
1000
0101
,
0001
1100
0001
1100
,
1001
0100
1001
0000
1001
0010
1001
0000
,
0110
1000
0110
0000
0110
0001
0110
0000
,
1001
0000
0000
0000
;

//---------------dance-single - ----------------
#NOTES:
     dance-single:
     :
     Medium:
     7:
     0.386530,0.457418,0.306307,0.040841,0.102102,265.000000,235.000000,30.000000,4.000000,0.000000,0.000000,0.386530,0.457418,0.306307,0.040841,0.102102,265.000000,235.000000,30.000000,4.000000,0.000000,0.000000:
0000
0000
0000
0000
,
0000
0000
0000
0000
,
0000
0000
0000
0000
,
0000
0000
0000
0000
,
1000
0001
1000
0110
,
0001
1000
0001
0110
,
1000
0100
1000
0110
,
0001
0010
0100
0110
,
1001
0000
1000
0000
1000
0100
1100
0000
,
0101
0000
0001
0000
0001
0100
0101
0000
,
1001
0000
0001
0000
0001
1000
1001
0000
,
1001
0000
1000
0000
1000
0001
1001
0000
,
1000
0000
1000
0000
1000
0100
1100
0000
,
0001
0000
0001
0000
0001
0100
0101
0000
,
1000
0000
1000
0000
1000
0010
1010
0000
,
0001
0000
0001
0000
0001
0010
0011
0000
,
1001
0000
0000
0001
0000
0000
0001
0000
0000
0001
0000
0000
0001
0000
1000
0000
,
0100
0000
0000
0100
0000
0000
0100
0000
1000
0000
0000
1000
0000
0000
1000
0000
,
0001
0000
0000
0010
0000
0000
0100
0000
0000
1000
0000
0000
0010
0000
0100
0000
,
0001
0000
0000
0100
0000
0000
0010
0000
0010
0000
0000
1000
0000
0000
0100
0000
,
1000
0000
0000
0010
0000
0000
0100
0000
0000
0001
0000
0000
0010
0000
0001
0000
,
0100
0000
0000
0100
0000
0000
0010
0000
0010
0000
0000
1000
0000
0000
0100
0000
,
1000
0000
0000
1000
0000
0000
0100
0000
0000
0010
0000
0000
0001
0000
0001
0000
,
1000
0000
0000
0001
0000
0000
0010
0000
0001
0000
0000
0100
0000
0000
0010
0000
,
2000
0000
0000
3000
,
0002
0000
0000
0003
,
0200
0000
0000
0300
,
0020
0000
0000
0030
,
0001
0001
0001
0001
,
1000
1000
1000
1000
,
0100
0100
0100
0100
,
0010
0010
0010
0010
,
0001
0000
0000
0001
0000
0000
0001
0000
0000
0000
0000
0000
0000
0000
0000
0000
,
1000
0000
0000
1000
0000
0000
1000
0000
0000
0000
0000
0000
0000
0000
0000
0000
,
0010
0000
0000
0010
0000
0000
0010
0000
0000
0000
0000
0000
0000
0000
0000
0000
,
0100
0000
0000
0100
0000
0000
0100
0000
0000
0000
0000
0000
0000
0000
0000
0000
,
0001
0001
0010
0010
,
0100
0100
1000
1000
,
0001
1000
0001
1000
,
0001
1000
0001
1000
,
0001
0001
0001
0000
1000
1000
1000
0000
,
0010
0010
0010
0000
0100
0100
0100
0000
,
0001
0001
0001
0000
1000
1000
1000
0000
,
0010
0010
0010
0000
0100
0100
0100
0000
,
0001
0100
0001
0000
1000
0010
1000
0000
,
0001
0010
0001
0000
1000
0100
1000
0000
,
0001
1000
0001
1000
0001
1000
0001
0000
,
0100
0010
0100
0010
0100
0010
0100
0000
,
1001
0001
1000
1000
,
1001
1000
0001
0001
,
1001
0010
1000
1000
,
1001
0010
0001
0001
,
1000
0101
1000
0101
,
0001
1100
0001
1100
,
1000
1001
0001
1001
,
0100
0110
0010
0110
,
1001
0000
0000
0000
;

//---------------dance-single - ----------------
#NOTES:
     dance-single:
     :
     Easy:
     5:
     0.338396,0.514596,0.602403,0.204205,0.000000,232.000000,173.000000,59.000000,20.000000,0.000000,0.000000,0.338396,0.514596,0.602403,0.204205,0.000000,232.000000,173.000000,59.000000,20.000000,0.000000,0.000000:
0000
0000
0000
0000
,
0000
0000
0000
0000
,
0000
0000
0000
0000
,
0000
0000
0000
0000
,
1000
0101
1000
0101
,
0001
1100
0001
1100
,
1001
0100
1001
0100
,
1001
1010
0101
1001
,
1100
1000
1000
1100
,
0101
0001
0001
0101
,
1001
0001
0001
1001
,
1001
1000
1000
1001
,
1000
1000
1000
1100
,
0001
0001
0001
0101
,
1000
1000
1000
1010
,
0001
0001
0001
0011
,
1001
0001
0001
0001
,
1001
1000
1000
1000
,
1010
0010
0010
0010
,
0110
0100
0100
0100
,
0101
0001
0001
0001
,
1001
1000
1000
1000
,
1010
0010
0010
0010
,
0110
0100
0100
0100
,
0202
0000
0000
0303
,
0022
0000
0000
0033
,
2200
0000
0000
3300
,
2020
0000
0000
3030
,
2002
0000
0000
3003
,
0220
0000
0000
0330
,
2200
0000
0000
3300
,
0022
0000
0000
0033
,
0002
0000
0003
0000
,
2000
0000
3000
0000
,
0020
0000
0030
0000
,
0200
0000
0300
0000
,
0001
0001
0010
0010
,
0100
0100
1000
1000
,
0001
1000
0001
1000
,
0001
1000
0001
1000
,
0001
0001
1000
1000
,
0010
0010
0100
0100
,
0001
0001
1000
1000
,
0010
0010
0100
0100
,
0001
0100
0001
0100
,
0010
1000
0010
1000
,
0001
1000
0010
0100
,
0001
0010
0100
1000
,
1001
0101
1000
1000
,
1001
1100
0001
0001
,
1001
0011
1000
1000
,
1001
1010
0001
0001
,
1000
0101
1000
0101
,
0001
1100
0001
1100
,
1001
0101
1001
0101
,
1001
1100
1001
0110
,
1001
0000
0000
0000
;

//---------------dance-single - ----------------
#NOTES:
     dance-single:
     :
     Beginner:
     3:
     0.157529,0.200120,0.091892,0.040841,0.000000,108.000000,99.000000,9.000000,4.000000,0.000000,0.000000,0.157529,0.200120,0.091892,0.040841,0.000000,108.000000,99.000000,9.000000,4.000000,0.000000,0.000000:
// measure 0
0000
0000
0000
0000
,  // measure 1
0000
0000
0000
0000
,  // measure 2
0000
0000
0000
0000
,  // measure 3
0000
0000
0000
0000
,  // measure 4
1000
0000
1000
0000
,  // measure 5
0001
0000
0001
0000
,  // measure 6
1000
0000
1000
0000
,  // measure 7
0001
0000
0001
0000
,  // measure 8
1000
1000
1000
0000
,  // measure 9
0001
0001
0001
0000
,  // measure 10
1000
0000
0001
0000
,  // measure 11
1000
0000
0001
0000
,  // measure 12
1000
1000
1000
0000
,  // measure 13
0001
0001
0001
0000
,  // measure 14
1000
1000
1000
0000
,  // measure 15
0001
0001
0001
0000
,  // measure 16
0001
0001
0000
0000
,  // measure 17
1000
1000
0000
0000
,  // measure 18
0010
0010
0000
0000
,  // measure 19
0100
0100
0000
0000
,  // measure 20
0001
0001
0000
0000
,  // measure 21
1000
1000
0000
0000
,  // measure 22
0010
0010
0000
0000
,  // measure 23
0100
0100
0000
0000
,  // measure 24
1001
0000
0000
0000
,  // measure 25
1001
0000
0000
0000
,  // measure 26
1001
0000
0000
0000
,  // measure 27
1001
0000
0000
0000
,  // measure 28
0110
0000
0000
0000
,  // measure 29
0110
0000
0000
0000
,  // measure 30
0110
0000
0000
0000
,  // measure 31
0110
0000
0000
0000
,  // measure 32
0002
0000
0003
0000
,  // measure 33
2000
0000
3000
0000
,  // measure 34
0020
0000
0030
0000
,  // measure 35
0200
0000
0300
0000
,  // measure 36
0001
0001
0000
0000
,  // measure 37
0100
0100
0000
0000
,  // measure 38
1000
1000
0000
0000
,  // measure 39
0010
0010
0000
0000
,  // measure 40
0001
0001
0000
0000
,  // measure 41
0010
0010
0000
0000
,  // measure 42
0100
0100
0000
0000
,  // measure 43
1000
1000
0000
0000
,  // measure 44
0001
0000
0001
0000
,  // measure 45
1000
0000
1000
0000
,  // measure 46
0001
0000
1000
0000
,  // measure 47
0010
0000
0100
0000
,  // measure 48
0001
0001
0000
0000
,  // measure 49
1000
1000
0000
0000
,  // measure 50
0001
0001
0000
0000
,  // measure 51
1000
1000
0000
0000
,  // measure 52
1000
0000
1000
0000
,  // measure 53
0001
0000
0001
0000
,  // measure 54
1000
0000
0001
0000
,  // measure 55
1000
0000
0001
0000
,  // measure 56
1001
0000
0000
0000
;
