#VERSION:0.83;
#TITLE:Fly Away;
#SUBTITLE:;
#ARTIST:Interphace;
#TITLETRANSLIT:;
#SUBTITLETRANSLIT:;
#ARTISTTRANSLIT:;
#GENRE:;
#ORIGIN:;
#CREDIT:;
#BANNER:Fly Away.png;
#BACKGROUND:;
#PREVIEWVID:;
#JACKET:Fly Away-jacket.png;
#CDIMAGE:;
#DISCIMAGE:;
#LYRICSPATH:;
#CDTITLE:;
#MUSIC:Fly Away.ogg;
#OFFSET:-0.060000;
#SAMPLESTART:72.680069;
#SAMPLELENGTH:12.000000;
#SELECTABLE:YES;
#BPMS:0.000=139.980;
#STOPS:;
#DELAYS:;
#WARPS:;
#TIMESIGNATURES:0.000=4=4;
#TICKCOUNTS:0.000=4;
#COMBOS:0.000=1;
#SPEEDS:0.000=1.000=0.000=0;
#SCROLLS:0.000=1.000;
#FAKES:;
#LABELS:0.000=Song Start;
#BGCHANGES:;
#KEYSOUNDS:;
#ATTACKS:
;

//---------------dance-single - ----------------
#NOTEDATA:;
#CHARTNAME:;
#STEPSTYPE:dance-single;
#DESCRIPTION:;
#CHARTSTYLE:;
#DIFFICULTY:Hard;
#METER:9;
#RADARVALUES:0.615746,0.705964,0.368637,0.198497,0.434803,456.000000,417.000000,39.000000,21.000000,0.000000,0.000000,0.000000,0.000000,0.000000,0.615746,0.705964,0.368637,0.198497,0.434803,456.000000,417.000000,39.000000,21.000000,0.000000,0.000000,0.000000,0.000000,0.000000;
#CREDIT:;
#NOTES:
0000
0000
0000
0000
,
0000
0000
0000
0000
,
0000
0000
0000
0000
,
0000
0000
0000
0000
,
1000
1100
0001
0101
,
1000
1100
0001
0101
,
1000
1100
0100
0110
,
0010
0011
0001
0101
,
1001
0001
1000
0001
1000
0001
1000
0001
,
0100
0010
0100
0010
0100
0010
0100
0010
,
1000
0100
0001
0100
1000
0100
0001
0100
,
1000
0100
0001
0100
1000
0100
0001
0100
,
1000
0010
1000
0010
1000
0010
1000
0010
,
0100
0001
0100
0001
0100
0001
0100
0001
,
1000
0001
0100
0010
1000
0001
0100
0010
,
1000
0100
0010
0001
1000
0100
0010
0001
,
2000
0000
0000
3001
0100
0010
1000
0100
,
2000
0000
0000
0000
0000
0000
3001
0000
0100
0000
0001
0100
0001
0000
1000
0000
,
0100
0000
1000
0010
1000
0000
0010
0000
0000
0000
0100
0010
0100
0000
0001
0000
,
1000
0000
0000
0000
1100
0000
0100
0000
0100
0000
1000
0001
0010
0000
0001
0000
,
0100
0000
0101
0001
1000
0100
0010
0100
,
1000
0000
0000
0000
1010
0000
0010
0000
0100
0000
0001
0100
0001
0000
0010
0000
,
0001
0000
1000
0001
1000
0000
0100
0000
0000
0000
0100
1000
0100
0000
1000
0000
,
0001
0000
0000
0000
0101
0000
0001
0000
0010
0000
0001
1000
0001
0000
0100
0000
,
0010
0000
1010
1000
0100
0010
0001
0010
,
0100
0000
0000
0000
1100
0000
0000
0000
1001
0000
0000
0000
1100
0000
0000
1000
,
0001
0000
0000
0000
0101
0000
0000
0000
1001
0000
0000
0000
0101
0000
0000
0001
,
1000
0000
0000
0000
1001
0000
0000
0000
1010
0000
0000
0000
1001
0000
0000
1000
,
0001
0000
0000
0000
0101
0000
0000
0000
1010
0000
0000
0000
0101
0000
0000
0001
,
1000
2000
3020
0230
,
0302
2003
3200
0320
,
0032
0203
0320
2030
,
3200
0320
0032
2003
,
3001
0100
0001
0100
0010
1000
0010
1000
0100
0010
0001
0100
,
0010
1000
0100
0010
0001
0100
0010
1000
0100
0010
0100
1000
,
0001
0100
0010
0100
0001
0010
0001
0100
0001
1000
0100
1000
,
0100
0010
0100
1000
0001
1000
0001
1000
0100
0010
0100
1000
,
0010
0100
0001
0010
0100
0010
0001
0100
0010
1000
0100
1000
,
0001
0100
0010
0100
0001
0010
0100
0010
0001
1000
0100
1000
,
0010
1000
1000
1000
0001
0001
0001
0100
0100
0100
0010
0010
,
0010
1000
1000
1000
0100
0100
0100
0010
0010
0010
0001
0001
,
0001
0001
0001
0001
,
0001
0010
0001
0100
0001
0010
0001
1000
,
2000
0000
0000
0000
0000
0000
3001
0000
0100
0000
0001
0100
0001
0000
1000
0000
,
0100
0000
1000
0010
1000
0000
0010
0000
0000
0000
0100
0010
0100
0000
0001
0000
,
1000
0000
0000
0000
1100
0000
0100
0000
0100
0000
1000
0001
0010
0000
0001
0000
,
0100
0000
0101
0001
1000
0100
0010
0100
,
1000
0000
0000
0000
1010
0000
0010
0000
0100
0000
0001
0100
0001
0000
0010
0000
,
0001
0000
1000
0001
1000
0000
0100
0000
0000
0000
0100
1000
0100
0000
1000
0000
,
0001
0000
0000
0000
0101
0000
0001
0000
0010
0000
0001
1000
0001
0000
0100
0000
,
0010
0000
1010
1000
0100
0010
0001
1000
,
2000
0000
0000
0000
0000
0000
3001
0000
0100
0000
0001
0100
0001
0000
1000
0000
,
0100
0000
1000
0010
1000
0000
0010
0000
0000
0000
0100
0010
0100
0000
0001
0000
,
1000
0000
0000
0000
1100
0000
0100
0000
0100
0000
1000
0001
0010
0000
0001
0000
,
0100
0000
0101
0001
1000
0100
0010
0100
,
1000
0000
0000
0000
1010
0000
0010
0000
0100
0000
0001
0100
0001
0000
0010
0000
,
0001
0000
1000
0001
1000
0000
0100
0000
0000
0000
0100
1000
0100
0000
1000
0000
,
0001
0000
0000
0000
0101
0000
0001
0000
0010
0000
0001
1000
0001
0000
0100
0000
,
0010
1010
0101
0110
,
2002
0000
0000
3003
;

//---------------dance-single - ----------------
#NOTEDATA:;
#CHARTNAME:;
#STEPSTYPE:dance-single;
#DESCRIPTION:;
#CHARTSTYLE:;
#DIFFICULTY:Medium;
#METER:6;
#RADARVALUES:0.402395,0.395340,0.378090,0.491517,0.000000,298.000000,258.000000,40.000000,52.000000,0.000000,0.000000,0.000000,0.000000,0.000000,0.402395,0.395340,0.378090,0.491517,0.000000,298.000000,258.000000,40.000000,52.000000,0.000000,0.000000,0.000000,0.000000,0.000000;
#CREDIT:;
#NOTES:
0000
0000
0000
0000
,
0000
0000
0000
0000
,
0000
0000
0000
0000
,
0000
0000
0000
0000
,
1000
1000
0001
0101
,
0001
0001
1000
1100
,
1000
1000
0001
0101
,
0001
0001
1000
1100
,
1000
0001
1000
0001
1000
0000
1000
0000
,
0100
0010
0100
0010
0100
0000
0100
0000
,
1000
0100
0001
0100
1000
0000
0001
0000
,
0001
0100
1000
0100
0001
0000
1000
0000
,
1000
0010
1000
0010
1000
0000
1000
0000
,
0100
0001
0100
0001
0100
0000
0100
0000
,
0001
1000
0100
0010
0001
0000
0100
0000
,
0001
0100
0010
1000
0100
0000
1000
0000
,
2000
0000
0000
3001
0100
0010
1000
0100
,
1000
0000
1000
0000
1000
1000
1000
0000
,
0001
0000
0001
0000
0001
0001
0001
0000
,
0100
0000
0100
0000
0100
0100
0100
0000
,
0010
0000
0010
0000
0010
0010
0010
0000
,
2001
0000
0001
0000
0001
0001
3001
0000
,
1002
0000
1000
0000
1000
1000
1003
0000
,
0210
0000
0010
0000
0010
0010
0310
0000
,
0120
0000
0100
0000
0100
0100
0130
0000
,
1000
1100
1000
1100
,
0001
0101
0001
0101
,
1000
1001
1000
1001
,
0001
0101
0010
0101
,
0002
2003
3020
0230
,
0302
2003
3200
0320
,
0032
0203
0320
2030
,
3200
0320
0032
1003
,
2001
0100
0001
3100
,
1002
0100
1000
0103
,
2001
0010
0001
3010
,
1002
0010
1000
0013
,
2001
3100
1002
0103
,
2001
3010
1002
0013
,
2001
3100
1002
0103
,
2001
3010
1002
0013
,
0001
0001
0001
0001
,
0001
0010
0001
0100
0001
0010
0001
0000
,
1000
0000
1000
0000
1000
1000
1000
0000
,
0001
0000
0001
0000
0001
0001
0001
0000
,
0100
0000
0100
0000
0100
0100
0100
0000
,
0010
0000
0010
0000
0010
0010
0010
0000
,
2001
0000
0001
0000
0001
0001
3001
0000
,
1002
0000
1000
0000
1000
1000
1003
0000
,
0210
0000
0010
0000
0010
0010
0310
0000
,
0120
0000
0100
0000
0100
0100
0130
0000
,
1000
1100
1000
1100
,
0001
0101
0001
0101
,
1000
1001
1000
1001
,
0001
0101
1000
0101
,
1000
2000
3020
0230
,
0302
2003
3200
0320
,
0032
0203
0320
2030
,
3200
0320
0032
2003
,
0002
0000
0000
3003
;

//---------------dance-single - ----------------
#NOTEDATA:;
#CHARTNAME:;
#STEPSTYPE:dance-single;
#DESCRIPTION:;
#CHARTSTYLE:;
#DIFFICULTY:Easy;
#METER:4;
#RADARVALUES:0.275465,0.338863,0.160688,0.652205,0.000000,204.000000,187.000000,17.000000,69.000000,0.000000,0.000000,0.000000,0.000000,0.000000,0.275465,0.338863,0.160688,0.652205,0.000000,204.000000,187.000000,17.000000,69.000000,0.000000,0.000000,0.000000,0.000000,0.000000;
#CREDIT:;
#NOTES:
0000
0000
0000
0000
,
0000
0000
0000
0000
,
0000
0000
0000
0000
,
0000
0000
0000
0000
,
1000
1000
0100
0100
,
0010
0010
0001
0001
,
0010
0010
0100
0100
,
1000
1000
1001
0110
,
1001
1000
1000
1000
,
0100
0100
0100
0100
,
0010
0010
0010
0010
,
0001
0001
0001
0001
,
1000
1000
0010
0010
,
0100
0100
0001
0001
,
1000
0100
0010
0001
,
1000
0100
0010
0001
,
2002
0000
0000
3003
,
1000
1000
2000
3000
,
0001
0001
0002
0003
,
0100
0100
0200
0300
,
0010
0010
0020
0030
,
2001
0001
0002
3003
,
1002
1000
2000
3003
,
0210
0010
0020
0330
,
0120
0100
0200
0330
,
1000
1000
1000
0000
,
0001
0001
0001
0000
,
1000
1000
1000
0000
,
0001
0001
0001
0000
,
2000
0000
3002
0000
,
0203
0000
0320
0000
,
2030
0000
3200
0000
,
0320
0000
0032
0000
,
2003
3002
0203
0320
,
2030
3200
0320
0032
,
2003
3002
2003
3002
,
0203
0320
0230
0320
,
1030
1000
1000
1100
,
0001
0001
0001
0101
,
1000
1000
1000
1010
,
0001
0001
0001
0011
,
1000
0001
1000
0001
,
2002
0000
0000
3003
,
1000
1000
2000
3000
,
0001
0001
0002
0003
,
0100
0100
0200
0300
,
0010
0010
0020
0030
,
2001
0001
0002
3003
,
1002
1000
2000
3003
,
0210
0010
0020
0330
,
0120
0100
0200
0330
,
1000
0100
1000
0100
,
0001
0100
0001
0100
,
1000
0010
1000
0010
,
0001
0010
0001
0010
,
2000
3020
0230
0302
,
2003
3200
0320
0032
,
0203
0320
2030
3200
,
0320
0032
2003
3002
,
2000
0000
0000
3003
;

//---------------dance-single - ----------------
#NOTEDATA:;
#CHARTNAME:;
#STEPSTYPE:dance-single;
#DESCRIPTION:;
#CHARTSTYLE:;
#DIFFICULTY:Beginner;
#METER:2;
#RADARVALUES:0.160688,0.197670,0.018904,0.085070,0.000000,119.000000,117.000000,2.000000,9.000000,0.000000,0.000000,0.000000,0.000000,0.000000,0.160688,0.197670,0.018904,0.085070,0.000000,119.000000,117.000000,2.000000,9.000000,0.000000,0.000000,0.000000,0.000000,0.000000;
#CREDIT:;
#NOTES:
// measure 0
0000
0000
0000
0000
,  // measure 1
0000
0000
0000
0000
,  // measure 2
0000
0000
0000
0000
,  // measure 3
0000
0000
0000
0000
,  // measure 4
1000
1000
0000
0000
,  // measure 5
0010
0010
0000
0000
,  // measure 6
0001
0001
0000
0000
,  // measure 7
0100
0100
0000
0000
,  // measure 8
1000
1000
1000
0000
,  // measure 9
0100
0100
0100
0000
,  // measure 10
0010
0010
0010
0000
,  // measure 11
0001
0001
0001
0000
,  // measure 12
1000
1000
0000
0000
,  // measure 13
0100
0100
0000
0000
,  // measure 14
0010
0010
0000
0000
,  // measure 15
0001
0001
0000
0000
,  // measure 16
2000
0000
0000
3000
,  // measure 17
1000
1000
0000
0000
,  // measure 18
0001
0001
0000
0000
,  // measure 19
0100
0100
0000
0000
,  // measure 20
0010
0010
0000
0000
,  // measure 21
0001
0001
0000
0000
,  // measure 22
1000
1000
0000
0000
,  // measure 23
0010
0010
0000
0000
,  // measure 24
0100
0100
0000
0000
,  // measure 25
1000
1000
1000
0000
,  // measure 26
0001
0001
0001
0000
,  // measure 27
1000
1000
1000
0000
,  // measure 28
0001
0001
0001
0000
,  // measure 29
2000
0000
3000
0000
,  // measure 30
0200
0000
0300
0000
,  // measure 31
0020
0000
0030
0000
,  // measure 32
0002
0000
0003
0000
,  // measure 33
1000
0000
0100
0000
,  // measure 34
0010
0000
0001
0000
,  // measure 35
1000
0000
0001
0000
,  // measure 36
0100
0000
0010
0000
,  // measure 37
1000
1000
1000
0000
,  // measure 38
0001
0001
0001
0000
,  // measure 39
1000
1000
1000
0000
,  // measure 40
0001
0001
0001
0000
,  // measure 41
1000
0000
0001
0000
,  // measure 42
2002
0000
3003
0000
,  // measure 43
1000
1000
0000
0000
,  // measure 44
0001
0001
0000
0000
,  // measure 45
0100
0100
0000
0000
,  // measure 46
0010
0010
0000
0000
,  // measure 47
0001
0001
0000
0000
,  // measure 48
1000
1000
0000
0000
,  // measure 49
0010
0010
0000
0000
,  // measure 50
0100
0100
0000
0000
,  // measure 51
1000
0000
1000
0000
,  // measure 52
0001
0000
0001
0000
,  // measure 53
1000
0000
1000
0000
,  // measure 54
0001
0000
0001
0000
,  // measure 55
1000
0000
0100
0000
,  // measure 56
0010
0000
0001
0000
,  // measure 57
0100
0000
0010
0000
,  // measure 58
1000
0000
0001
0000
,  // measure 59
2002
0000
0000
3003
;
