#TITLE:Flow;
#SUBTITLE:(The Acolyte's Zero Tolerance Remix);
#ARTIST:Scotty D. revisits U1;
#TITLETRANSLIT:;
#SUBTITLETRANSLIT:;
#ARTISTTRANSLIT:;
#GENRE:;
#CREDIT:;
#BANNER:Flow (The Acolyte's Zero Tolerance Remix).png;
#BACKGROUND:;
#LYRICSPATH:;
#CDTITLE:;
#MUSIC:Flow (The Acolyte's Zero Tolerance Remix).ogg;
#OFFSET:-0.060000;
#SAMPLESTART:55.439972;
#SAMPLELENGTH:15.000000;
#SELECTABLE:YES;
#BPMS:0.000000=130.000229
,128.000000=260.000793
,256.000000=130.000198
;
#STOPS:
;
#BGCHANGES:;
#KEYSOUNDS:;
#ATTACKS:;

//---------------dance-single - ----------------
#NOTES:
     dance-single:
     :
     Hard:
     8:
     0.510566,0.613079,0.195961,0.205293,0.018663,383.000000,362.000000,21.000000,22.000000,0.000000,0.000000,0.510566,0.613079,0.195961,0.205293,0.018663,383.000000,362.000000,21.000000,22.000000,0.000000,0.000000:
0000
0000
0000
0000
,
0000
0000
0000
0000
,
0000
0000
0000
0000
,
0000
0000
0000
0000
,
1100
1000
1100
1000
,
0101
0001
0101
0001
,
1010
1000
1010
1000
,
0011
0001
0011
0001
,
1000
0001
0100
1001
,
1000
0100
0010
1001
,
0100
0010
0100
0110
,
1000
0001
1000
0110
,
1000
0001
1000
0001
0100
0010
0100
0010
,
1000
0100
0010
0001
1000
0100
0010
0001
,
1000
0010
1000
0010
0100
0001
0100
0001
,
1000
0010
0100
0001
1000
0010
0100
0001
,
2100
0000
0100
0100
0100
0000
3100
0000
,
0102
0000
0100
0100
0100
0000
0103
0000
,
2010
0000
0010
0010
0010
0000
3010
0000
,
0012
0000
0010
0010
0010
0000
0013
0000
,
2001
0000
0001
0001
0001
0000
3001
0000
,
0102
0000
0100
0100
0100
0000
0103
0000
,
0210
0000
0010
0010
0010
0000
0310
0000
,
1020
0000
1000
1000
1000
0000
1030
0000
,
1000
0100
1000
0100
1000
0100
1000
0000
,
0001
0100
0001
0100
0001
0100
0001
0000
,
1000
0100
0001
0100
1000
0100
1000
0000
,
0001
0100
1000
0100
0001
0100
0001
0000
,
1000
0100
0010
0001
0001
0010
0100
1000
,
1000
0100
0010
0001
0001
0010
0100
1000
,
1000
0001
0100
0010
0010
0100
0001
1000
,
0100
0010
0100
1000
0001
0010
0100
0010
,
0001
0100
0001
0100
,
0010
0000
1000
0000
0010
0000
1000
0100
,
0010
0001
1000
0001
,
1000
0000
0010
0000
1000
0000
0010
0100
,
0010
1000
0100
0010
,
0100
0000
1000
0000
0010
0000
0100
0010
,
0100
0001
0010
0001
,
1000
0000
0010
0000
0100
0000
0001
0100
,
0001
1000
0100
0010
,
0100
0000
1000
0000
0010
0000
0100
0010
,
0100
0001
1000
0010
,
0100
0000
0001
0000
0010
0000
0001
1000
,
0001
1000
0100
0010
,
0001
0000
0100
0000
0010
0000
1000
0001
,
1000
0010
0100
0001
,
1000
0000
0001
0000
0010
0000
0100
1000
,
0100
1000
0100
0000
1000
0000
0010
0000
,
0100
0001
0010
0001
,
0100
0001
0100
0000
0010
0000
1000
0000
,
0100
1000
0010
0100
,
0001
0010
0001
0000
0100
0000
0010
0000
,
0100
0001
1000
0100
,
1000
0010
1000
0000
0010
0000
0100
0000
,
0001
0010
0001
0100
,
0001
1000
0001
0000
0010
0000
0100
0000
,
1000
0001
0010
0100
,
1000
0100
1000
0000
0100
0000
0010
0000
,
0001
1000
0100
0010
,
0001
0000
0010
0000
0001
1000
0100
0000
,
1000
0001
0100
0000
0001
1000
0010
0000
,
0010
1000
0010
1000
0001
0100
0001
0100
,
0001
0010
0001
0010
0100
1000
0100
1000
,
0002
0000
0100
0000
0100
0000
0100
0100
,
2003
0000
0100
0000
0100
0000
0100
0100
,
3002
0000
0100
0000
0100
0000
0100
0100
,
2003
0000
0100
0000
0100
0000
0100
0100
,
3002
0203
0320
2030
,
3200
0320
0032
0203
,
0310
1000
0000
0000
1000
0001
0000
0000
0001
0100
0000
0000
0100
0010
0000
0000
,
0010
1000
0001
0100
0001
0010
0100
1000
,
2002
0000
0000
0000
,
3003
0000
0000
0000
;

//---------------dance-single - ----------------
#NOTES:
     dance-single:
     :
     Medium:
     6:
     0.361262,0.476839,0.083983,0.270613,0.000000,271.000000,262.000000,9.000000,29.000000,0.000000,0.000000,0.361262,0.476839,0.083983,0.270613,0.000000,271.000000,262.000000,9.000000,29.000000,0.000000,0.000000:
0000
0000
0000
0000
,
0000
0000
0000
0000
,
0000
0000
0000
0000
,
0000
0000
0000
0000
,
0100
1000
0100
1000
,
0100
0001
0100
0001
,
0100
1000
0100
0001
,
0100
1000
0100
0001
,
0100
1000
0100
1000
,
1000
0100
0010
0001
,
0001
0010
0100
1000
,
1000
0001
0100
0010
,
1000
0001
1000
0000
0100
1000
0100
0000
,
0010
0001
0010
0000
0001
1000
0001
0000
,
1000
0010
1000
0000
0010
0100
0010
0000
,
0100
0001
0100
0000
0001
1000
0001
0000
,
2100
0100
0100
3100
,
0102
0100
0100
0103
,
2010
0010
0010
3010
,
0012
0010
0010
0013
,
2001
0001
0001
3001
,
0102
0100
0100
0103
,
0210
0010
0010
0310
,
1020
1000
1000
1030
,
1000
0100
1000
0000
1000
0001
1000
0000
,
0001
0100
0001
0000
0001
1000
0001
0000
,
1000
0100
1000
0000
0001
0100
0001
0000
,
1000
0100
1000
0000
0001
0100
0001
0000
,
1000
0100
0010
0000
0001
0010
0100
0000
,
1000
0100
0010
0000
0001
0010
0100
0000
,
1000
0001
0100
0000
0001
1000
0100
0000
,
1000
0010
0100
0000
0001
0100
0010
0000
,
0010
0000
0100
0000
,
0010
1000
0010
1000
,
0010
0000
1000
0000
,
1000
0100
1000
0100
,
1000
0000
0100
0000
,
0010
0001
0010
0001
,
0010
0000
0001
0000
,
1000
0010
0100
0001
,
1000
0000
0100
0000
,
0010
0001
0010
0001
,
1000
0000
1000
0000
,
0010
0100
0010
0100
,
0001
0000
0100
0000
,
0010
0100
0010
1000
,
0010
0000
0100
0000
,
0001
0010
0100
1000
,
0001
1000
0001
0000
,
1001
0000
0100
0000
,
0100
0000
0010
0000
,
0100
0000
0010
0000
,
1000
0000
0001
0000
,
0100
0000
0001
0000
,
1000
1000
0010
0100
,
0001
0010
0001
0100
,
0001
0000
0010
0000
,
0100
0000
1000
0000
,
1000
0000
0100
0000
,
0010
0000
0001
0000
,
0001
0100
0001
0100
,
0010
1000
0010
1000
,
0001
0010
0001
0010
,
0100
1000
0100
1000
,
0002
0100
0100
0100
,
2003
0100
0100
0100
,
3002
0100
0100
0100
,
2003
0100
0100
0100
,
3002
0203
0320
2030
,
3200
0320
0032
0203
,
0320
2030
3002
0203
,
0320
0230
0302
2003
,
0002
0000
0000
0000
,
3003
0000
0000
0000
;

//---------------dance-single - ----------------
#NOTES:
     dance-single:
     :
     Easy:
     4:
     0.285277,0.476839,0.270613,0.335934,0.000000,214.000000,185.000000,29.000000,36.000000,0.000000,0.000000,0.285277,0.476839,0.270613,0.335934,0.000000,214.000000,185.000000,29.000000,36.000000,0.000000,0.000000:
0000
0000
0000
0000
,
0000
0000
0000
0000
,
0000
0000
0000
0000
,
0000
0000
0000
0000
,
1000
0100
0001
0100
,
1000
0100
0001
0100
,
1000
0100
0001
0100
,
1000
0100
0001
0100
,
1000
1000
1000
1000
,
0001
0001
0001
0001
,
0100
0010
0100
0010
,
1000
0001
1000
0001
,
1000
1000
0100
0100
,
0010
0010
0001
0001
,
1000
1000
0010
0010
,
0100
0100
0001
0001
,
2000
0100
0100
3000
,
0002
0100
0100
0003
,
2000
0010
0010
3000
,
0002
0010
0010
0003
,
2000
0001
0001
3000
,
0002
0100
0100
0003
,
0200
0010
0010
0300
,
0020
1000
1000
0030
,
1002
1000
1000
1003
,
2001
0001
0001
3001
,
1020
1030
0201
0301
,
1020
1030
0201
0301
,
2010
3010
0102
0103
,
2010
3010
0102
0103
,
1002
0103
2001
3100
,
1002
0103
2001
3100
,
0010
0000
0100
0000
,
0010
0000
1001
0000
,
0010
0000
1000
0000
,
1000
0000
1001
0000
,
1000
0000
0100
0000
,
0010
0000
1001
0000
,
0010
0000
0001
0000
,
1000
0000
1001
0000
,
1000
0000
0100
0000
,
0010
0000
1001
0000
,
1000
0000
1000
0000
,
0010
0000
1001
0000
,
0001
0000
0100
0000
,
0010
0000
1001
0000
,
0010
0000
0100
0000
,
0001
0000
1001
0000
,
0001
0000
0001
0000
,
1000
0000
0110
0000
,
0100
0000
0010
0000
,
0100
0000
0110
0000
,
1000
0000
0001
0000
,
0100
0000
0110
0000
,
1000
0000
0010
0000
,
0100
0000
0110
0000
,
0001
0000
0010
0000
,
0100
0000
0110
0000
,
1000
0000
0100
0000
,
0010
0000
0110
0000
,
0001
0000
0001
0000
,
0010
0000
0010
0000
,
0100
0000
0100
0000
,
1000
0000
1000
0000
,
0002
0000
0000
0000
,
2003
0000
0000
0000
,
3020
0000
0000
0000
,
0230
0000
0000
0000
,
0302
0000
2003
0000
,
3020
0000
0230
0000
,
0302
2003
3020
0230
,
0301
1000
0010
0100
,
2002
0000
0000
0000
,
3003
0000
0000
0000
;

//---------------dance-single - ----------------
#NOTES:
     dance-single:
     :
     Beginner:
     3:
     0.110645,0.272480,0.018663,0.149304,0.000000,83.000000,81.000000,2.000000,16.000000,0.000000,0.000000,0.110645,0.272480,0.018663,0.149304,0.000000,83.000000,81.000000,2.000000,16.000000,0.000000,0.000000:
// measure 0
0000
0000
0000
0000
,  // measure 1
0000
0000
0000
0000
,  // measure 2
0000
0000
0000
0000
,  // measure 3
0000
0000
0000
0000
,  // measure 4
1000
0000
0001
0000
,  // measure 5
1000
0000
0001
0000
,  // measure 6
1000
0000
0001
0000
,  // measure 7
1000
0000
0001
0000
,  // measure 8
0100
0000
0100
0000
,  // measure 9
0010
0000
0010
0000
,  // measure 10
0100
0000
0100
0000
,  // measure 11
0010
0000
0010
0000
,  // measure 12
1000
1000
0000
0000
,  // measure 13
0010
0010
0000
0000
,  // measure 14
0100
0100
0000
0000
,  // measure 15
0001
0001
0000
0000
,  // measure 16
2000
0000
0000
3000
,  // measure 17
0002
0000
0000
0003
,  // measure 18
2000
0000
0000
3000
,  // measure 19
0002
0000
0000
0003
,  // measure 20
0200
0000
0000
0300
,  // measure 21
0020
0000
0000
0030
,  // measure 22
0200
0000
0000
0300
,  // measure 23
0020
0000
0000
0030
,  // measure 24
1000
1000
1000
0000
,  // measure 25
0001
0001
0001
0000
,  // measure 26
1000
1000
1000
0000
,  // measure 27
0001
0001
0001
0000
,  // measure 28
0100
0100
0100
0000
,  // measure 29
0010
0010
0010
0000
,  // measure 30
0100
0100
0100
0000
,  // measure 31
0010
0010
0010
0000
,  // measure 32
1001
0000
0000
0000
,  // measure 33
0000
0000
0000
0000
,  // measure 34
0010
0000
0000
0000
,  // measure 35
0000
0000
0000
0000
,  // measure 36
1000
0000
0000
0000
,  // measure 37
0000
0000
0000
0000
,  // measure 38
0010
0000
0000
0000
,  // measure 39
0000
0000
0000
0000
,  // measure 40
0001
0000
0000
0000
,  // measure 41
0000
0000
0000
0000
,  // measure 42
1000
0000
0000
0000
,  // measure 43
0000
0000
0000
0000
,  // measure 44
0100
0000
0000
0000
,  // measure 45
0000
0000
0000
0000
,  // measure 46
0010
0000
0000
0000
,  // measure 47
0000
0000
0000
0000
,  // measure 48
0001
0000
0000
0000
,  // measure 49
0000
0000
0000
0000
,  // measure 50
0100
0000
0000
0000
,  // measure 51
0000
0000
0000
0000
,  // measure 52
1000
0000
0000
0000
,  // measure 53
0000
0000
0000
0000
,  // measure 54
0010
0000
0000
0000
,  // measure 55
0000
0000
0000
0000
,  // measure 56
0001
0000
0000
0000
,  // measure 57
0000
0000
0000
0000
,  // measure 58
1000
0000
0000
0000
,  // measure 59
0000
0000
0000
0000
,  // measure 60
0001
0000
0000
0000
,  // measure 61
0010
0000
0000
0000
,  // measure 62
0100
0000
0000
0000
,  // measure 63
1000
0000
0000
0000
,  // measure 64
0002
0000
0000
0000
,  // measure 65
0000
0000
0003
0000
,  // measure 66
2000
0000
0000
0000
,  // measure 67
0000
0000
3000
0000
,  // measure 68
0002
0000
0003
0000
,  // measure 69
2000
0000
3000
0000
,  // measure 70
0020
0000
0030
0000
,  // measure 71
0200
0000
0300
0000
,  // measure 72
2002
0000
0000
0000
,  // measure 73
3003
0000
0000
0000
;
