#VERSION:0.83;
#TITLE:Faded;
#SUBTITLE:(22 Green Club Mix);
#ARTIST:soulDecision;
#TITLETRANSLIT:;
#SUBTITLETRANSLIT:;
#ARTISTTRANSLIT:;
#GENRE:;
#ORIGIN:;
#CREDIT:;
#BANNER:Faded (22 Green Club Mix).png;
#BACKGROUND:;
#PREVIEWVID:;
#JACKET:Faded (22 Green Club Mix)-jacket.png;
#CDIMAGE:;
#DISCIMAGE:;
#LYRICSPATH:;
#CDTITLE:;
#MUSIC:Faded (22 Green Club Mix).ogg;
#OFFSET:-0.040000;
#SAMPLESTART:45.219978;
#SAMPLELENGTH:12.000000;
#SELECTABLE:YES;
#BPMS:0.000=127.520;
#STOPS:;
#DELAYS:;
#WARPS:;
#TIMESIGNATURES:0.000=4=4;
#TICKCOUNTS:0.000=4;
#COMBOS:0.000=1;
#SPEEDS:0.000=1.000=0.000=0;
#SCROLLS:0.000=1.000;
#FAKES:;
#LABELS:0.000=Song Start;
#BGCHANGES:;
#KEYSOUNDS:;
#ATTACKS:
;

//---------------dance-single - ----------------
#NOTEDATA:;
#CHARTNAME:;
#STEPSTYPE:dance-single;
#DESCRIPTION:;
#CHARTSTYLE:;
#DIFFICULTY:Hard;
#METER:8;
#RADARVALUES:0.462293,0.450843,0.110206,0.100187,0.345646,323.000000,312.000000,11.000000,10.000000,0.000000,0.000000,0.000000,0.000000,0.000000,0.462293,0.450843,0.110206,0.100187,0.345646,323.000000,312.000000,11.000000,10.000000,0.000000,0.000000,0.000000,0.000000,0.000000;
#CREDIT:;
#NOTES:
0000
0000
0000
0000
,
0000
0000
0000
0000
,
0000
0000
0000
0000
,
0000
0000
0000
0000
,
0001
0000
0000
0001
0000
0000
0001
0000
0000
0000
0100
0000
0000
0000
0100
0000
,
1000
0000
0000
1000
0000
0000
1000
0000
0000
0000
0100
0000
0000
0000
0100
0000
,
0001
0000
0000
0001
0000
0000
0001
0000
0000
0000
0010
0000
0000
0000
0010
0000
,
1000
0000
0000
1000
0000
0000
1000
0000
0000
0000
0010
0000
0000
0000
0010
0000
,
0001
0001
0100
0100
0001
0001
1000
0000
,
1000
1000
0100
0100
1000
1000
0001
0000
,
1000
0100
0100
1000
1000
0010
0010
0000
,
0100
0001
0001
0010
0010
0001
0001
0000
,
1000
0001
1000
0001
1000
0001
0100
0000
,
0001
1000
0001
1000
0001
1000
0010
0000
,
1000
0100
0010
0100
1000
0010
0100
0001
,
0010
0001
0100
0010
0100
0001
0010
0001
,
1000
0100
0010
0100
1000
0001
1001
0000
,
0001
0100
0010
0100
0001
1000
1001
0000
,
1000
0010
0100
0001
1000
0010
1001
0000
,
0001
0100
0010
1000
0001
0100
1001
0000
,
1000
0001
0200
0000
0001
0001
0301
0000
,
0001
1000
0200
0000
1000
1000
1300
0000
,
1000
0100
0010
0001
1000
0100
0010
0001
,
1000
0100
0010
0001
2002
0000
3003
0000
,
1000
0000
0000
1000
0001
0000
0000
0001
1000
0000
0000
1000
0001
0000
0000
0001
,
0100
0000
0000
0100
0010
0000
0000
0010
0100
0000
0000
0100
0010
0000
0000
0010
,
1000
0000
0000
1000
0100
0000
0000
0100
0010
0000
0000
0010
0001
0000
0000
0001
,
1000
0000
0000
1000
0001
0000
0000
0001
0100
0000
0000
0100
0010
0000
0000
0010
,
0100
0000
0000
0100
0001
0000
0000
0001
1000
0000
0000
1000
0100
0000
0000
0100
,
1000
0000
0000
1000
0010
0000
0000
0010
0100
0000
0000
0100
0001
0000
0000
0001
,
0010
0000
0000
0010
0001
0000
0000
0001
0100
0000
0000
0100
0010
0000
0000
0010
,
1000
0000
0000
1000
0001
0000
0000
0001
1000
0000
0000
1000
0100
0000
0000
0000
,
2001
0100
0100
3100
,
1002
0100
0100
0103
,
2001
0010
0010
3010
,
1002
0010
0010
0013
,
2002
0000
0000
0000
,
0000
0000
0000
3003
0000
0000
1000
0010
1000
1010
0000
0000
,
1000
0000
0000
1000
0001
0000
0000
0001
1000
0000
0000
1000
0001
0000
0000
0001
,
0100
0000
0000
0100
0010
0000
0000
0010
0100
0000
0000
0100
0010
0000
0000
0010
,
1000
0000
0000
1000
0100
0000
0000
0100
0010
0000
0000
0010
0001
0000
0000
0001
,
1000
0000
0000
1000
0001
0000
0000
0001
0100
0000
0000
0100
0010
0000
0000
0010
,
0100
0000
0000
0100
0001
0000
0000
0001
1000
0000
0000
1000
0100
0000
0000
0100
,
1000
0000
0000
1000
0010
0000
0000
0010
0100
0000
0000
0100
0001
0000
0000
0001
,
0010
0000
0000
0010
0001
0000
0000
0001
0100
0000
0000
0100
0010
0000
0000
0010
,
1000
0000
0000
1000
0001
0000
0000
0001
1000
0000
0000
1000
0100
0000
0000
0100
,
1000
0100
1000
0100
1000
0010
1000
0010
,
0100
0001
0100
0001
0010
0001
0010
0001
,
1000
0001
1000
0001
0100
0010
0100
0010
,
1000
0100
0010
0100
1000
0001
0100
0010
,
0100
0000
0000
0000
;

//---------------dance-single - ----------------
#NOTEDATA:;
#CHARTNAME:;
#STEPSTYPE:dance-single;
#DESCRIPTION:;
#CHARTSTYLE:;
#DIFFICULTY:Medium;
#METER:5;
#RADARVALUES:0.313443,0.350656,0.120225,0.100187,0.030056,219.000000,207.000000,12.000000,10.000000,0.000000,0.000000,0.000000,0.000000,0.000000,0.313443,0.350656,0.120225,0.100187,0.030056,219.000000,207.000000,12.000000,10.000000,0.000000,0.000000,0.000000,0.000000,0.000000;
#CREDIT:;
#NOTES:
0000
0000
0000
0000
,
0000
0000
0000
0000
,
0000
0000
0000
0000
,
0000
0000
0000
0000
,
0001
0000
0000
0001
0000
0000
0001
0000
0000
0000
0000
0000
0000
0000
0000
0000
,
1000
0000
0000
1000
0000
0000
1000
0000
0000
0000
0000
0000
0000
0000
0000
0000
,
0001
0000
0000
0001
0000
0000
0001
0000
0000
0000
0000
0000
0000
0000
0000
0000
,
1000
0000
0000
1000
0000
0000
1000
0000
0000
0000
0000
0000
0000
0000
0000
0000
,
0001
0000
0100
0100
0001
0000
1000
1000
,
1000
0000
0100
0100
1000
0000
0001
0001
,
1000
0000
0100
1000
1000
0000
0010
0010
,
0100
0000
0001
0010
0010
0000
0001
0001
,
1000
0000
1000
0001
1000
0000
0100
0001
,
0001
0000
0001
1000
0001
0000
0010
1000
,
1000
0000
0010
0100
0001
0000
0100
1000
,
0010
0000
0100
0010
0100
0000
0010
0100
,
0001
0000
0010
0100
0001
0000
1001
0000
,
0001
0000
1000
0100
1000
0000
1001
0000
,
1000
0000
0001
0001
1000
0000
1001
0000
,
0001
0000
1000
1000
0001
0000
1001
0000
,
1001
0000
0200
0000
0001
0001
0301
0000
,
1001
0000
0200
0000
1000
1000
1300
0000
,
1000
0100
0010
0001
,
1000
0001
2002
3003
,
1000
0001
1000
0001
,
0100
0010
0100
0010
,
1000
0100
0010
0001
,
1000
0001
0100
0010
,
0100
0001
1000
0100
,
1000
0010
0100
0001
,
0010
0001
0100
0010
,
1000
0001
1000
0100
,
2001
0100
0100
3100
,
1002
0100
0100
0103
,
2001
0010
0010
3010
,
1002
0010
0010
0013
,
2002
0000
0000
0000
,
0000
0000
0000
3003
0000
0000
1000
0001
1000
0001
0000
0000
,
1000
0001
1000
0001
,
0100
0010
0100
0010
,
1000
0100
0010
0001
,
1000
0001
0100
0010
,
0100
0001
1000
0100
,
1000
0010
0100
0001
,
0010
0001
0100
0010
,
1000
0001
1000
0100
,
1000
0100
1000
0000
0001
0010
0001
0000
,
0100
0001
0100
0000
0001
0010
0001
0000
,
1000
0001
1000
0000
0100
0010
0100
0000
,
1000
0100
0010
0000
0001
0100
0010
0000
,
0100
0000
0000
0000
;

//---------------dance-single - ----------------
#NOTEDATA:;
#CHARTNAME:;
#STEPSTYPE:dance-single;
#DESCRIPTION:;
#CHARTSTYLE:;
#DIFFICULTY:Easy;
#METER:3;
#RADARVALUES:0.264781,0.300562,0.120225,0.140262,0.000000,185.000000,173.000000,12.000000,14.000000,0.000000,0.000000,0.000000,0.000000,0.000000,0.264781,0.300562,0.120225,0.140262,0.000000,185.000000,173.000000,12.000000,14.000000,0.000000,0.000000,0.000000,0.000000,0.000000;
#CREDIT:;
#NOTES:
0000
0000
0000
0000
,
0000
0000
0000
0000
,
0000
0000
0000
0000
,
0000
0000
0000
0000
,
1002
1000
1003
0000
,
2001
0001
3001
0000
,
0120
0100
0130
0000
,
0210
0010
0310
0000
,
0001
0100
0001
1000
,
1000
0100
1000
0001
,
1000
0100
1000
0010
,
0100
0001
0010
0001
,
1000
0001
0001
0100
,
0001
0001
1000
0010
,
1000
0010
1000
0100
,
0010
0100
1000
0010
,
0100
0010
0100
1001
,
0001
1000
1000
1001
,
1000
0001
0001
1001
,
0001
1000
1000
1001
,
1001
0200
0001
0301
,
1001
0200
1000
1300
,
1000
0100
0010
0001
,
1000
0001
2002
3003
,
1000
0001
1000
0001
,
0100
0010
0100
0010
,
1000
0100
0010
0001
,
1000
0001
0100
0010
,
0100
0001
1000
0100
,
1000
0010
0100
0001
,
0010
0001
0100
0010
,
1000
0001
1000
0100
,
2000
0100
0100
3100
,
0002
0100
0100
0103
,
2000
0010
0010
3010
,
0002
0010
0010
0013
,
2002
0000
0000
0000
,
0000
0000
0000
3003
,
1000
0001
1000
0001
,
0100
0010
0100
0010
,
1000
0100
0010
0001
,
1000
0001
0100
0010
,
0100
0001
1000
0100
,
1000
0010
0100
0001
,
0010
0001
0100
0010
,
1000
0001
1000
0100
,
1000
1000
0100
0100
,
0001
0001
0010
0010
,
1000
1000
0100
0100
,
0001
0001
0010
0010
,
1000
0000
0000
0000
;

//---------------dance-single - ----------------
#NOTEDATA:;
#CHARTNAME:;
#STEPSTYPE:dance-single;
#DESCRIPTION:;
#CHARTSTYLE:;
#DIFFICULTY:Beginner;
#METER:2;
#RADARVALUES:0.134537,0.175328,0.040075,0.060112,0.000000,94.000000,90.000000,4.000000,6.000000,0.000000,0.000000,0.000000,0.000000,0.000000,0.134537,0.175328,0.040075,0.060112,0.000000,94.000000,90.000000,4.000000,6.000000,0.000000,0.000000,0.000000,0.000000,0.000000;
#CREDIT:;
#NOTES:
// measure 0
0000
0000
0000
0000
,  // measure 1
0000
0000
0000
0000
,  // measure 2
0000
0000
0000
0000
,  // measure 3
0000
0000
0000
0000
,  // measure 4
1000
1000
1000
0000
,  // measure 5
0001
0001
0001
0000
,  // measure 6
0100
0100
0100
0000
,  // measure 7
0010
0010
0010
0000
,  // measure 8
0001
0000
0001
0000
,  // measure 9
1000
0000
1000
0000
,  // measure 10
0001
0000
0001
0000
,  // measure 11
0100
0000
0010
0000
,  // measure 12
1000
0000
0001
0000
,  // measure 13
0001
0000
1000
0000
,  // measure 14
1000
0000
0001
0000
,  // measure 15
0010
0000
0100
0000
,  // measure 16
1000
0000
0001
0000
,  // measure 17
0001
0000
1000
0000
,  // measure 18
1000
0000
0001
0000
,  // measure 19
0001
0000
1000
0000
,  // measure 20
1001
0000
0001
0000
,  // measure 21
1001
0000
1000
0000
,  // measure 22
0100
0000
0010
0000
,  // measure 23
1000
0000
0001
0000
,  // measure 24
1000
1000
0000
0000
,  // measure 25
0100
0100
0000
0000
,  // measure 26
0010
0010
0000
0000
,  // measure 27
0001
0001
0000
0000
,  // measure 28
0001
0001
0000
0000
,  // measure 29
1000
1000
0000
0000
,  // measure 30
0010
0010
0000
0000
,  // measure 31
0100
0100
0000
0000
,  // measure 32
2000
0000
0000
3000
,  // measure 33
0002
0000
0000
0003
,  // measure 34
2000
0000
0000
3000
,  // measure 35
0002
0000
0000
0003
,  // measure 36
2002
0000
0000
0000
,  // measure 37
0000
0000
0000
3003
,  // measure 38
1000
1000
0000
0000
,  // measure 39
0100
0100
0000
0000
,  // measure 40
0010
0010
0000
0000
,  // measure 41
0001
0001
0000
0000
,  // measure 42
0001
0001
0000
0000
,  // measure 43
1000
1000
0000
0000
,  // measure 44
0010
0010
0000
0000
,  // measure 45
0100
0100
0000
0000
,  // measure 46
1000
0000
1000
0000
,  // measure 47
0001
0000
0001
0000
,  // measure 48
0100
0000
0100
0000
,  // measure 49
0010
0000
0010
0000
,  // measure 50
1001
0000
0000
0000
;
