#TITLE:Do It Well;
#SUBTITLE:(Moto Blanco Radio Edit);
#ARTIST:Jennifer Lopez;
#TITLETRANSLIT:;
#SUBTITLETRANSLIT:;
#ARTISTTRANSLIT:;
#GENRE:;
#CREDIT:;
#BANNER:Do It Well (Moto Blanco Radio Edit).png;
#BACKGROUND:;
#LYRICSPATH:;
#CDTITLE:;
#MUSIC:Do It Well (Moto Blanco Radio Edit).ogg;
#OFFSET:-0.560000;
#SAMPLESTART:39.779995;
#SAMPLELENGTH:14.999998;
#SELECTABLE:YES;
#BPMS:0.000000=126.850006
;
#STOPS:
;
#BGCHANGES:;
#KEYSOUNDS:;
#ATTACKS:;

//---------------dance-single - ----------------
#NOTES:
     dance-single:
     :
     Hard:
     8:
     0.473353,0.513254,0.420152,0.200527,0.000000,347.000000,303.000000,44.000000,21.000000,0.000000,0.000000,0.473353,0.513254,0.420152,0.200527,0.000000,347.000000,303.000000,44.000000,21.000000,0.000000,0.000000:
0000
0000
0000
0000
,
0000
0000
0000
0000
,
0000
0000
0000
0000
,
0000
0000
0000
0000
,
0000
0000
0000
0000
,
0001
1000
0100
0001
0100
1000
0010
0100
,
0010
1000
0001
0100
0001
0010
0100
1000
,
0010
0100
0010
0001
0010
0100
0010
1000
,
2002
0000
0000
3003
,
1000
1000
0001
0100
0001
1000
0010
1000
,
0001
0001
0100
0001
0010
0001
1000
0010
,
0100
0100
0010
1000
0001
0100
0010
0100
,
0010
0010
1000
0001
0100
0010
1000
0100
,
1000
0001
0100
0001
1000
0100
1000
0001
,
0010
0001
1000
0010
1000
0001
1000
0001
,
1000
0100
0010
0001
0100
0010
1000
0100
,
0010
0001
1000
0001
1000
0010
0100
0001
,
1002
0100
1000
0103
,
2001
0100
0001
3100
,
1000
0001
1000
0001
1000
0001
1000
0001
,
0100
0100
0100
0110
,
1001
0100
0001
0100
0001
0100
1001
0000
,
0110
0010
1000
0010
0100
0010
1010
0000
,
1100
1000
0100
0010
0001
0100
0101
0000
,
1000
0001
0000
0001
1000
0000
0010
0000
,
1001
0001
0100
0010
0100
0001
0101
0000
,
0011
0001
0010
0100
1000
0100
1100
0000
,
1001
1000
0001
0100
0010
0100
0110
0000
,
0100
0010
0000
0010
0100
0000
0001
0000
,
0001
0001
0001
0001
,
1001
0001
0001
0001
,
1001
0001
1001
0001
,
0001
1000
0001
1000
0001
1000
0001
0000
,
2000
3200
2300
3020
,
0230
0302
0023
0032
,
0203
0320
2030
3200
,
0320
0032
0203
0310
,
1001
0100
0001
0100
0001
0100
1001
0000
,
0110
0010
1000
0010
0100
0010
1010
0000
,
1100
1000
0100
0010
0001
0100
0101
0000
,
1000
0001
0000
0001
1000
0000
0010
0000
,
1001
0001
0100
0010
0100
0001
0101
0000
,
0011
0001
0010
0100
1000
0100
1100
0000
,
1001
1000
0001
0100
0010
0100
0110
0000
,
0100
0010
0000
0010
0100
0000
0001
0000
,
1001
0100
0001
0100
0001
0100
1001
0000
,
0110
0010
1000
0010
0100
0010
1010
0000
,
1100
1000
0100
0010
0001
0100
0101
0000
,
1000
0001
0000
0001
1000
0000
0010
0000
,
1001
0001
0100
0010
0100
0001
0101
0000
,
0011
0001
0010
0100
1000
0100
1100
0000
,
1001
1000
0001
0100
0010
0100
0110
0000
,
1000
0001
1000
0001
1000
0001
1000
0000
,
2002
0000
0000
3003
;

//---------------dance-single - ----------------
#NOTES:
     dance-single:
     :
     Medium:
     6:
     0.331484,0.359278,0.229174,0.200527,0.000000,243.000000,219.000000,24.000000,21.000000,0.000000,0.000000,0.331484,0.359278,0.229174,0.200527,0.000000,243.000000,219.000000,24.000000,21.000000,0.000000,0.000000:
0000
0000
0000
0000
,
0000
0000
0000
0000
,
0000
0000
0000
0000
,
0000
0000
0000
0000
,
0000
0000
0000
0000
,
0100
0100
0100
0101
,
0001
0001
0001
0011
,
0010
0010
0010
0110
,
2002
0000
0000
3003
,
1000
1000
0000
0100
0000
1000
0000
1000
,
0000
0001
0000
0001
0000
0001
0000
0010
,
0100
0100
0000
1000
0000
0100
0000
0100
,
0000
0010
0000
0001
0000
0010
0000
0100
,
1000
0001
0000
0001
0000
0100
0000
0001
,
0000
0001
0000
0010
0000
0001
0000
0001
,
1000
0100
0000
1000
0000
0010
0000
0100
,
0000
0001
0000
0001
0000
0010
0000
0001
,
0002
0100
1000
0103
,
2000
0100
0001
3100
,
1000
0001
1000
0001
,
0100
0100
0100
0100
,
0001
0000
0001
0100
0001
0000
1001
0000
,
0010
0000
1000
0010
0100
0000
1010
0000
,
1000
0000
0100
0010
0001
0000
0101
0000
,
1000
0001
0000
0001
1000
0000
0010
0000
,
1000
0000
0100
0010
0100
0000
1001
0000
,
0001
0000
0010
0100
1000
0000
1100
0000
,
1000
0000
0001
0100
0010
0000
0110
0000
,
0100
0010
0000
0010
0100
0000
0001
0000
,
0001
0001
0001
0001
,
0001
0001
0001
0001
,
0001
0001
0001
0001
,
0001
1000
0000
1000
0001
0000
1001
0000
,
2000
3200
2300
3020
,
0230
0302
0023
0032
,
0203
0320
2030
3200
,
0320
0032
0203
0310
,
0001
0000
0001
0100
0001
0000
1001
0000
,
0010
0000
1000
0010
0100
0000
1010
0000
,
1000
0000
0100
0010
0001
0000
0101
0000
,
1000
0001
0000
0001
1000
0000
0010
0000
,
1000
0000
0100
0010
0100
0000
1001
0000
,
0001
0000
0010
0100
1000
0000
1100
0000
,
1000
0000
0001
0100
0010
0000
0110
0000
,
0100
0010
0000
0010
0100
0000
0001
0000
,
1000
0000
0001
0100
0001
0000
1001
0000
,
0010
0000
1000
0010
0100
0000
1010
0000
,
1000
0000
0100
0010
0001
0000
0101
0000
,
1000
0001
0000
0001
1000
0000
0010
0000
,
1000
0000
0100
0010
0100
0000
1001
0000
,
0001
0000
0010
0100
1000
0000
1100
0000
,
1000
0000
0001
0100
0010
0000
0110
0000
,
0100
0010
0000
0010
0100
0000
0001
0000
,
2002
0000
0000
3003
;

//---------------dance-single - ----------------
#NOTES:
     dance-single:
     :
     Easy:
     3:
     0.222353,0.307952,0.133685,0.200527,0.000000,163.000000,149.000000,14.000000,21.000000,0.000000,0.000000,0.222353,0.307952,0.133685,0.200527,0.000000,163.000000,149.000000,14.000000,21.000000,0.000000,0.000000:
0000
0000
0000
0000
,
0000
0000
0000
0000
,
0000
0000
0000
0000
,
0000
0000
0000
0000
,
0000
0000
0000
0000
,
1000
0000
0100
0000
,
0001
0000
0010
0000
,
1000
0000
0001
0000
,
2002
0000
0000
3003
,
1000
0100
1000
1000
,
0001
0001
0001
0010
,
0100
1000
0100
0100
,
0010
0001
0010
0100
,
0001
0001
0100
0001
,
0001
0010
0001
0001
,
0100
1000
0010
0100
,
0001
0001
0010
0001
,
0002
0100
1000
0103
,
2000
0100
0001
3100
,
1000
0001
1000
0001
,
0220
0000
0000
0330
,
0001
0001
0001
0000
,
1000
1000
1000
0000
,
1000
0100
0010
0001
,
1000
0001
1001
0000
,
0001
0001
0001
0000
,
1000
1000
1000
0000
,
0001
0010
0100
1000
,
0001
1000
1001
0000
,
0002
0000
0000
0003
,
2000
0000
0000
3000
,
0002
0000
0000
0003
,
2000
0000
0000
3000
,
2000
0000
3200
0000
,
0320
0000
0032
0000
,
2003
0000
3002
0000
,
0203
0000
0320
0000
,
1030
1000
1000
0000
,
0001
0001
0001
0000
,
1000
0100
0010
0001
,
1000
0001
1001
0000
,
0001
0001
0001
0000
,
1000
1000
1000
0000
,
0001
0010
0100
1000
,
0001
1000
1001
0000
,
1000
0001
1000
1001
,
0010
0100
0010
0110
,
0001
0100
0001
0101
,
1000
0100
1000
0010
,
1000
0100
0100
1001
,
0001
0010
0001
1001
,
1000
0001
0010
0110
,
0201
0001
0001
0301
,
2002
0000
0000
3003
;

//---------------dance-single - ----------------
#NOTES:
     dance-single:
     :
     Beginner:
     1:
     0.111859,0.150395,0.009549,0.057293,0.000000,82.000000,81.000000,1.000000,6.000000,0.000000,0.000000,0.111859,0.150395,0.009549,0.057293,0.000000,82.000000,81.000000,1.000000,6.000000,0.000000,0.000000:
// measure 0
0000
0000
0000
0000
,  // measure 1
0000
0000
0000
0000
,  // measure 2
0000
0000
0000
0000
,  // measure 3
0000
0000
0000
0000
,  // measure 4
0000
0000
0000
0000
,  // measure 5
1000
0000
0000
0000
,  // measure 6
0001
0000
0000
0000
,  // measure 7
0100
0000
0000
0000
,  // measure 8
0010
0000
0000
0000
,  // measure 9
1000
0000
1000
0000
,  // measure 10
0001
0000
0001
0000
,  // measure 11
0100
0000
0100
0000
,  // measure 12
0010
0000
0010
0000
,  // measure 13
0001
0000
0100
0000
,  // measure 14
0001
0000
0001
0000
,  // measure 15
0100
0000
0010
0000
,  // measure 16
1000
0000
1000
0000
,  // measure 17
0001
0000
1000
0000
,  // measure 18
1000
0000
0001
0000
,  // measure 19
1000
0000
0001
0000
,  // measure 20
1001
0000
0000
0000
,  // measure 21
0001
0001
0000
0000
,  // measure 22
1000
1000
0000
0000
,  // measure 23
1000
0000
0001
0000
,  // measure 24
1000
0000
0001
0000
,  // measure 25
0001
0001
0000
0000
,  // measure 26
1000
1000
0000
0000
,  // measure 27
0001
0000
1000
0000
,  // measure 28
0001
0000
1000
0000
,  // measure 29
0002
0000
0000
0003
,  // measure 30
0000
0000
0000
0000
,  // measure 31
2000
0000
0000
3000
,  // measure 32
0000
0000
0000
0000
,  // measure 33
0002
0000
0003
0000
,  // measure 34
2000
0000
3000
0000
,  // measure 35
0020
0000
0030
0000
,  // measure 36
0200
0000
0300
0000
,  // measure 37
1000
1000
0000
0000
,  // measure 38
0001
0001
0000
0000
,  // measure 39
1000
0000
0010
0000
,  // measure 40
0100
0000
0001
0000
,  // measure 41
0001
0001
0000
0000
,  // measure 42
1000
1000
0000
0000
,  // measure 43
0001
0000
0100
0000
,  // measure 44
0010
0000
1000
0000
,  // measure 45
1000
0000
1000
0000
,  // measure 46
0010
0000
0010
0000
,  // measure 47
0100
0000
0100
0000
,  // measure 48
0001
0000
0001
0000
,  // measure 49
1000
0000
0100
0000
,  // measure 50
0001
0000
0010
0000
,  // measure 51
1000
0000
0001
0000
,  // measure 52
0100
0000
0010
0000
;
