#TITLE:Desperado;
#SUBTITLE:;
#ARTIST:Croove;
#TITLETRANSLIT:;
#SUBTITLETRANSLIT:;
#ARTISTTRANSLIT:;
#GENRE:;
#CREDIT:;
#BANNER:Desperado.png;
#BACKGROUND:;
#LYRICSPATH:;
#CDTITLE:;
#MUSIC:Desperado.ogg;
#OFFSET:-0.060000;
#SAMPLESTART:44.339981;
#SAMPLELENGTH:15.000000;
#SELECTABLE:YES;
#BPMS:0.000000=130.000092
;
#STOPS:
;
#BGCHANGES:;
#KEYSOUNDS:;
#ATTACKS:;

//---------------dance-single - ----------------
#NOTES:
     dance-single:
     :
     Hard:
     9:
     0.576600,0.604130,0.020805,0.052013,0.603350,388.000000,386.000000,2.000000,5.000000,0.000000,0.000000,0.576600,0.604130,0.020805,0.052013,0.603350,388.000000,386.000000,2.000000,5.000000,0.000000,0.000000:
0000
0000
0000
0000
,
0000
0000
0000
0000
,
0000
0000
0000
0000
,
0000
0000
0000
0000
0000
0000
0000
0000
0000
1000
0001
0000
0000
0100
0000
0000
,
1001
0000
1000
0000
0100
0000
1000
0100
0000
0100
1000
0000
0100
1000
0000
1000
,
0000
0001
0000
0100
0000
0100
0010
0100
0000
0001
0010
0001
0000
1000
0000
0100
,
1000
0000
1000
0000
0001
0000
0001
0100
0000
0001
0100
0000
0010
1000
0000
0100
,
0000
0010
0000
0001
0000
0100
0010
0000
1000
0010
0100
0010
1000
0100
0010
0100
,
1000
0100
1000
0100
1000
0010
0100
0001
,
0100
0010
1000
0100
1000
0010
0100
0001
,
0100
0010
0100
0001
1000
0100
0010
0100
,
1000
0010
0100
0010
1000
0001
0100
0010
,
0100
0001
0010
0100
0010
0001
0100
0010
,
0100
0001
1000
0100
0010
0001
0100
0010
,
1000
0100
0001
0100
1000
0100
0001
0100
,
1000
0010
0001
0010
1000
0010
0001
0010
,
1000
0000
0100
0000
0010
0000
0100
1000
0000
1000
0000
0010
0100
0000
0001
0000
,
0100
0000
0010
0000
1000
0000
0001
0100
0000
0100
0000
0001
0010
0000
0001
0000
,
1000
0000
0010
0000
0100
0000
0001
0010
0000
0001
0000
1000
0100
0000
1000
0000
,
1000
0000
0010
0000
0100
0000
0010
1000
0000
0010
0000
0100
0000
0001
0000
0010
,
0001
0000
1000
0000
0001
0000
0100
0010
0000
0010
0000
1000
0100
0000
1000
0000
,
0100
0000
1000
0000
0100
0000
1000
0010
0000
0100
0000
0001
0010
0000
0001
0000
,
1000
0000
0001
0000
0100
0000
0001
0100
0000
0001
0100
0000
0001
0000
0100
0000
,
0010
0000
1000
0000
0100
0000
1000
0010
0000
1000
0010
0000
1000
0000
0010
0000
,
1000
0001
0000
1000
0001
0000
1000
0001
0000
1000
0002
0003
1000
0000
0001
0000
,
0100
0010
0000
0100
0010
0000
0100
0010
0000
0100
0010
0000
0100
0000
0010
0000
,
1000
0010
0000
1000
0010
0000
1000
0010
0000
1000
0010
0000
1000
0000
0010
0000
,
0100
0001
0000
0100
0001
0000
0100
0001
0000
0100
0001
0000
0100
0000
0001
0000
,
0010
0001
0000
0010
0001
0000
0010
0001
0000
0010
0001
0000
0010
0000
0001
0000
,
1000
0100
0000
1000
0100
0000
1000
0100
0000
1000
0100
0000
1000
0000
0100
0000
,
1000
0010
0000
0100
0001
0000
1000
0010
0000
0100
0001
0000
1000
0000
0001
0000
,
2002
0000
0000
0000
0000
0000
0000
3003
,
1000
0000
0000
1000
0000
0000
1000
0000
0001
0000
0000
0001
0000
0000
0001
0000
,
1000
0000
0000
1000
0000
0000
1000
0000
0001
0000
0000
0001
0000
0000
0001
0000
,
0100
0000
0000
0100
0000
0000
0100
0000
0010
0000
0000
0010
0000
0000
0010
0000
,
0100
0000
0000
0100
0000
0000
0100
0000
0010
0000
0000
0010
0000
0000
0010
0000
,
1000
0000
0000
1000
0000
0000
1000
0000
0100
0000
0000
0100
0000
0000
0100
0000
,
0010
0000
0000
0010
0000
0000
0010
0000
0001
0000
0000
0001
0000
0000
0001
0000
,
1000
0000
0000
0001
0000
0000
1000
0000
0001
0000
0000
1000
0000
0000
0001
0000
,
0100
0000
0000
0010
0000
0000
0100
0000
0010
0000
0000
0100
0000
0000
0010
0000
,
1000
0000
0100
0000
1000
0000
0001
1000
0000
0001
1000
0000
0001
0000
0100
0000
,
0010
0000
0100
0000
0001
0000
0010
0001
0000
1000
0001
0000
1000
0000
0100
0000
,
1000
0000
0010
0000
0100
0000
0010
1000
0000
1000
0100
0000
0010
0000
0001
0000
,
0100
0000
0010
0000
0100
0000
0001
0010
0000
0001
1000
0000
0001
0000
1000
0000
,
0010
0000
1000
0000
0100
0000
1000
0100
0000
0100
1000
0000
0010
0000
1000
0000
,
0010
0000
0100
0000
0010
0000
1000
0100
0000
0100
1000
0000
0010
0000
0100
0000
,
0001
0000
0010
0000
0001
0000
1000
0001
0000
0001
0100
0000
0010
0000
1000
0000
,
0100
0000
1000
0000
0010
0000
0100
0001
0000
0001
0010
0000
0001
0000
0100
0000
,
0010
0000
0100
0000
0001
0000
1000
0001
0000
0001
1000
0000
0000
0100
0000
0000
,
0000
0000
1000
0000
0000
0100
0000
0000
0000
1000
0000
0000
0001
0000
0000
0200
,
0000
0002
0000
0000
0000
0000
0000
0000
0303
0000
0000
0000
0000
0000
0000
0000
;

//---------------dance-single - ----------------
#NOTES:
     dance-single:
     :
     Medium:
     7:
     0.364090,0.393998,0.062415,0.291272,0.197649,245.000000,239.000000,6.000000,28.000000,0.000000,0.000000,0.364090,0.393998,0.062415,0.291272,0.197649,245.000000,239.000000,6.000000,28.000000,0.000000,0.000000:
0000
0000
0000
0000
,
0000
0000
0000
0000
,
0000
0000
0000
0000
,
0000
0000
0000
0000
,
2002
0000
0000
0000
,
3003
0000
0000
0220
0000
0000
0000
0000
0000
0000
0000
0000
0330
0000
0000
0000
,
2002
0000
0000
3003
,
0000
0220
0000
0000
0000
0000
0000
0000
0000
0000
0000
0000
0330
0000
0000
0000
,
1001
0000
1000
1000
1000
0000
0001
0001
,
0001
0000
0100
0100
0100
0000
0010
0010
,
0010
0000
1000
1000
1000
0000
0100
0100
,
0100
0000
0010
0010
0010
0000
0001
0001
,
0001
0000
1000
0001
1000
0000
0001
1000
,
0001
0000
0100
0010
0100
0000
0010
0100
,
0010
0000
1000
0100
1000
0000
0001
0010
,
0001
0000
1000
0010
1000
0000
0001
0100
,
0001
0100
0020
0000
0100
0000
0130
0001
,
0100
0010
2000
0000
0001
0000
3010
0100
,
0010
0100
0002
0000
0010
0000
0103
0010
,
1000
0010
0100
0010
2000
0000
0001
0000
,
3001
1000
0001
0100
0020
0000
0100
0000
,
0130
0001
0100
0010
2000
0000
0010
0000
,
3001
0100
0001
0100
0001
0100
0001
0000
,
1000
0100
1000
0100
1000
0100
1000
0000
,
1000
0000
0000
1000
0000
0000
1000
0000
0000
1000
0000
0000
1000
0000
0000
0000
,
0100
0000
0000
0100
0000
0000
0100
0000
0000
0100
0000
0000
0100
0000
0000
0000
,
0010
0000
0000
0010
0000
0000
0010
0000
0000
0010
0000
0000
0010
0000
0000
0000
,
0001
0000
0000
0001
0000
0000
0001
0000
0000
0001
0000
0000
0001
0000
0000
0000
,
0010
0000
0000
0010
0000
0000
0010
0000
0000
0010
0000
0000
0010
0000
0000
0000
,
0100
0000
0000
0100
0000
0000
0100
0000
0000
0100
0000
0000
0100
0000
0000
0000
,
1000
0000
0000
1000
0000
0000
1000
0000
0000
1000
0000
0000
1000
0000
0000
0000
,
2002
0000
0000
0000
0000
0000
0000
3003
,
1000
0000
0000
1000
0000
0000
1000
0000
0001
0000
0000
0001
0000
0000
0001
0000
,
1000
0000
0000
1000
0000
0000
1000
0000
0001
0000
0000
0001
0000
0000
0001
0000
,
0100
0000
0000
0100
0000
0000
0100
0000
0010
0000
0000
0010
0000
0000
0010
0000
,
0100
0000
0000
0100
0000
0000
0100
0000
0010
0000
0000
0010
0000
0000
0010
0000
,
1000
0000
0000
1000
0000
0000
1000
0000
0100
0000
0000
0100
0000
0000
0100
0000
,
0010
0000
0000
0010
0000
0000
0010
0000
0001
0000
0000
0001
0000
0000
0001
0000
,
1000
0000
0000
0001
0000
0000
1000
0000
0001
0000
0000
1000
0000
0000
0001
0000
,
0100
0000
0000
0010
0000
0000
0100
0000
0010
0000
0000
0100
0000
0000
0010
0000
,
1000
0000
1000
0100
2000
0000
3001
0000
,
0001
0000
0001
0100
0002
0000
1003
0000
,
1000
0000
1000
0010
2000
0000
3001
0000
,
0001
0000
0001
0010
0002
0000
0103
0000
,
0010
1000
0010
0000
0100
0001
0100
0000
,
0001
1000
0001
0000
1000
0001
1000
0000
,
0010
0100
0010
0000
0100
0010
0100
0000
,
0002
2003
3002
2003
,
3002
0000
0000
0000
2003
0000
0000
3001
0000
0000
1000
0000
0000
0100
0000
0000
,
0000
0000
1000
0000
0000
0100
0000
0000
0000
1000
0000
0000
0001
0000
0000
0200
,
0000
0002
0000
0000
0000
0000
0000
0000
0303
0000
0000
0000
0000
0000
0000
0000
;

//---------------dance-single - ----------------
#NOTES:
     dance-single:
     :
     Easy:
     4:
     0.252634,0.367731,0.197649,0.457714,0.020805,170.000000,151.000000,19.000000,44.000000,0.000000,0.000000,0.252634,0.367731,0.197649,0.457714,0.020805,170.000000,151.000000,19.000000,44.000000,0.000000,0.000000:
// measure 0
0000
0000
0000
0000
,  // measure 1
0000
0000
0000
0000
,  // measure 2
0000
0000
0000
0000
,  // measure 3
0000
0000
0000
0000
,  // measure 4
2002
0000
0000
0000
,  // measure 5
3003
0000
0000
0220
0000
0000
0000
0000
0000
0000
0000
0000
0330
0000
0000
0000
,  // measure 6
2002
0000
0000
3003
,  // measure 7
0000
0220
0000
0000
0000
0000
0000
0000
0000
0000
0000
0000
0330
0000
0000
0000
,  // measure 8
1001
1000
1000
0001
,  // measure 9
0001
0100
0100
0010
,  // measure 10
0010
1000
1000
0100
,  // measure 11
0100
0010
0010
0001
,  // measure 12
0001
1000
1000
0001
,  // measure 13
0001
0100
0100
0010
,  // measure 14
0010
1000
1000
0001
,  // measure 15
0001
1000
1000
0001
,  // measure 16
0001
0020
0100
0130
,  // measure 17
0100
2000
0001
3001
,  // measure 18
0001
0002
0010
0100
,  // measure 19
1003
0100
2000
0001
,  // measure 20
3001
0100
0020
0100
,  // measure 21
0130
0001
2000
0010
,  // measure 22
3001
0001
0001
0001
,  // measure 23
1000
1000
1000
1000
,  // measure 24
1000
0101
1000
0101
,  // measure 25
0001
1100
0001
1100
,  // measure 26
1000
0001
1000
1001
,  // measure 27
0001
1000
0001
1001
,  // measure 28
1000
0011
1000
0011
,  // measure 29
0001
1010
0001
1010
,  // measure 30
0010
0110
0100
0110
,  // measure 31
2002
0000
0000
0000
0000
0000
0000
3003
,  // measure 32
2000
0000
3002
0000
,  // measure 33
2003
0000
3002
0000
,  // measure 34
0203
0000
0320
0000
,  // measure 35
0230
0000
0320
0000
,  // measure 36
2030
0000
3200
0000
,  // measure 37
0320
0000
0032
0000
,  // measure 38
2003
0000
3002
0000
,  // measure 39
0203
0000
0320
0000
,  // measure 40
1030
1000
2000
3001
,  // measure 41
0001
0001
0002
1003
,  // measure 42
1000
1000
2000
3001
,  // measure 43
0001
0001
0002
0103
,  // measure 44
0010
0010
0100
0100
,  // measure 45
0001
0001
1000
1000
,  // measure 46
0010
0010
0100
0100
,  // measure 47
0002
2003
3002
2003
,  // measure 48
3002
0000
2003
0000
3000
0100
0000
0000
,  // measure 49
0000
0000
0010
0000
0000
0000
0000
0000
0000
0001
0000
0000
0000
0000
0000
0000
,  // measure 50
0000
2002
0000
0000
0000
0000
0000
0000
3003
0000
0000
0000
0000
0000
0000
0000
;

//---------------dance-single - ----------------
#NOTES:
     dance-single:
     :
     Beginner:
     2:
     0.117401,0.183866,0.020805,0.124831,0.005201,79.000000,77.000000,2.000000,12.000000,0.000000,0.000000,0.117401,0.183866,0.020805,0.124831,0.005201,79.000000,77.000000,2.000000,12.000000,0.000000,0.000000:
// measure 0
0000
0000
0000
0000
,  // measure 1
0000
0000
0000
0000
,  // measure 2
0000
0000
0000
0000
,  // measure 3
0000
0000
0000
0000
,  // measure 4
0000
0000
0000
0000
,  // measure 5
0000
0000
0000
0000
,  // measure 6
0000
0000
0000
0000
,  // measure 7
0000
0000
0000
0000
,  // measure 8
1000
0000
1000
0000
,  // measure 9
0001
0000
0100
0000
,  // measure 10
0010
0000
1000
0000
,  // measure 11
0100
0000
0010
0000
,  // measure 12
0001
0000
1000
0000
,  // measure 13
0001
0000
0100
0000
,  // measure 14
0010
0000
1000
0000
,  // measure 15
0001
0000
1000
0000
,  // measure 16
0001
0000
0100
0000
,  // measure 17
0100
0000
0001
0000
,  // measure 18
0001
0000
0010
0000
,  // measure 19
1000
0000
1000
0000
,  // measure 20
0001
0000
0010
0000
,  // measure 21
0100
0000
1000
0000
,  // measure 22
0001
0001
0001
0000
,  // measure 23
1000
1000
1000
0000
,  // measure 24
1000
0000
1000
0000
,  // measure 25
0001
0000
0001
0000
,  // measure 26
1000
0000
1000
0000
,  // measure 27
0001
0000
0001
0000
,  // measure 28
1000
0000
1000
0000
,  // measure 29
0001
0000
0001
0000
,  // measure 30
0010
0000
0100
0000
,  // measure 31
2002
0000
3003
0000
,  // measure 32
2000
0000
3000
0000
,  // measure 33
0002
0000
0003
0000
,  // measure 34
0200
0000
0300
0000
,  // measure 35
0020
0000
0030
0000
,  // measure 36
2000
0000
3000
0000
,  // measure 37
0020
0000
0030
0000
,  // measure 38
0200
0000
0300
0000
,  // measure 39
0002
0000
0003
0000
,  // measure 40
1000
1000
0000
0000
,  // measure 41
0001
0001
0000
0000
,  // measure 42
1000
1000
0000
0000
,  // measure 43
0001
0001
0000
0000
,  // measure 44
0010
0010
0000
0000
,  // measure 45
0100
0100
0000
0000
,  // measure 46
0010
0010
0000
0000
,  // measure 47
0100
0100
0000
0000
,  // measure 48
0001
0000
0000
0000
0000
0100
0000
0000
,  // measure 49
0000
0010
0000
0000
0000
0000
0000
0000
,  // measure 50
0000
2002
0000
0000
0000
0000
0000
0000
3003
0000
0000
0000
0000
0000
0000
0000
;
