#TITLE:DanceDanceRevolution II;
#SUBTITLE:;
#ARTIST:Various Artists;
#TITLETRANSLIT:;
#SUBTITLETRANSLIT:;
#ARTISTTRANSLIT:;
#GENRE:;
#CREDIT:;
#BANNER:DanceDanceRevolution II.png;
#BACKGROUND:DanceDanceRevolution II-bg.png;
#LYRICSPATH:;
#CDTITLE:;
#MUSIC:DanceDanceRevolution II.ogg;
#OFFSET:-0.180000;
#SAMPLESTART:18.360001;
#SAMPLELENGTH:15.000000;
#SELECTABLE:YES;
#DISPLAYBPM:87.000000:370.000000;
#BPMS:0.000000=155.000000
,142.000000=147.000000
,143.000000=145.000000
,144.000000=148.000000
,246.000000=149.619995
,247.000000=151.339996
,248.000000=135.000000
,316.000000=134.979996
,336.500000=134.960007
,339.000000=121.340004
,340.000000=181.000000
,450.000000=172.459991
,451.000000=162.039993
,531.500000=188.179993
,532.000000=370.000000
,660.000000=185.000000
,691.000000=370.000000
,818.000000=153.438995
,819.000000=118.000000
,883.000000=87.500000
,899.000000=175.000000
;
#STOPS:691.000000=0.320000
;
#BGCHANGES:;
#KEYSOUNDS:;
#ATTACKS:;

//---------------dance-single - ----------------
#NOTES:
     dance-single:
     :
     Beginner:
     4:
     0.169152,0.293484,0.018996,0.079149,0.000000,374.000000,368.000000,6.000000,25.000000,0.000000,0.000000,0.169152,0.293484,0.018996,0.079149,0.000000,374.000000,368.000000,6.000000,25.000000,0.000000,0.000000:
0000
0000
0000
0000
,
0000
0000
0000
0000
,
0000
0000
0000
0000
,
0000
0000
0000
0000
,
1000
0000
0000
0000
,
0100
0000
0000
0000
,
0001
0000
0000
0000
,
0010
0000
0000
0000
,
1000
0000
1000
0000
,
0100
0000
0100
0000
,
0001
0000
0001
0000
,
0010
0000
0010
0000
,
1000
0000
1000
0000
,
0100
0000
0100
0000
,
0001
0000
0001
0000
,
0010
0000
0010
0000
,
1000
0000
1000
0000
,
0100
0000
0100
0000
,
1000
0000
0001
0000
,
1000
0000
0001
0000
,
0100
0000
0100
0000
,
0001
0000
0001
0000
,
0010
0000
0010
0000
,
1000
0000
1000
0000
,
0010
0000
0000
0000
,
1000
0000
0000
0000
,
0100
0000
0000
0000
,
0001
0000
0000
0000
,
1000
0000
1000
0000
,
0100
0000
0100
0000
,
0001
0000
0001
0000
,
0010
0000
0010
0000
,
0001
0000
0000
0000
,
0100
0000
0000
0000
,
1000
0000
0000
0000
,
0010
0000
0000
0000
,
0001
0001
0001
0000
,
0001
0000
0001
0000
,
1000
1000
1000
0000
,
1000
0000
1000
0000
,
0100
0000
0000
0000
,
0010
0000
0000
0000
,
1000
0000
0001
0000
,
1000
0000
0000
0000
,
0020
0000
0030
0000
,
0000
0000
0000
0000
,
0001
0000
0001
0000
,
1000
0000
1000
0000
,
0001
0000
0001
0000
,
0001
0000
0000
0000
,
1000
0000
1000
0000
,
0001
0000
0001
0000
,
1000
0000
1000
0000
,
1000
0000
0000
0000
,
0100
0000
0000
0000
,
0100
0000
0000
0000
,
0001
0000
0000
0000
,
1000
0000
0000
0000
,
0100
0000
0000
0000
,
0010
0000
0000
0000
,
0001
0000
0000
0000
,
1000
0000
0000
0000
,
0010
0000
0001
0000
,
0010
0010
0010
0000
,
1000
0000
0010
0000
,
1000
1000
1000
0000
,
0010
0000
0001
0000
,
0010
0010
0010
0000
,
1000
0000
0010
0000
,
1000
1000
1000
0000
,
0001
0000
0000
0000
,
1000
0000
0000
0000
,
0010
0000
0000
0000
,
0100
0000
0000
0000
,
0001
0000
0000
0000
,
1000
0000
0000
0000
,
0010
0000
0000
0000
,
0100
0000
0000
0000
,
2000
0000
3000
0000
,
0020
0000
0030
0000
,
0200
0000
0300
0000
,
0002
0000
0003
0000
,
2000
0000
3000
0000
,
0020
0000
0030
0000
,
0200
0000
0300
0000
,
2002
0000
0000
0000
,
0000
0000
3003
0000
,
0001
0000
0000
0000
,
1000
0000
0000
0000
,
0001
0000
0000
0000
,
1000
1000
1000
0000
,
0010
0000
0000
0000
,
0100
0000
0000
0000
,
0010
0000
0010
0000
,
0100
0000
0100
0000
,
0000
0000
0000
0000
,
0001
0000
0000
0000
,
0000
0000
0000
0000
,
0010
0000
0000
0000
,
0000
0000
0000
0000
,
1000
0000
0000
0000
,
0000
0000
0000
0000
,
0100
0000
0000
0000
,
0000
0000
0000
0000
,
0001
0000
0000
0000
,
0010
0000
0000
0000
,
1000
0000
0000
0000
,
0100
0000
0000
0000
,
0001
0000
0001
0000
,
1000
0000
1000
0000
,
0001
0000
1000
0000
,
0001
0000
1000
0000
,
1001
0000
0000
0000
,
0001
0000
0001
0000
,
0001
0000
0000
0000
,
1000
0000
1000
0000
,
1000
0000
0000
0000
,
0001
0000
0001
0000
,
0001
0000
0000
0000
,
1000
0000
1000
0000
,
1000
0000
0000
0000
,
0100
0000
0100
0000
,
0100
0000
0000
0000
,
0010
0000
0010
0000
,
0010
0000
0000
0000
,
0100
0000
0100
0000
,
0100
0000
0000
0000
,
0010
0000
0010
0000
,
0010
0000
0000
0000
,
0001
0000
0000
0000
,
1000
0000
0000
0000
,
0001
0000
0000
0000
,
1000
0000
0000
0000
,
0001
0000
0001
0000
,
1000
0000
1000
0000
,
0001
0000
1000
0000
,
0001
0000
1000
0000
,
0010
0000
0010
0000
,
0100
0000
0100
0000
,
0010
0000
0100
0000
,
0010
0000
0100
0000
,
0010
0000
0010
0000
,
0001
0000
0001
0000
,
0100
0000
0100
0000
,
1000
0000
1000
0000
,
0200
0000
0000
0300
,
0002
0000
0000
0003
,
2000
0000
0000
3000
,
0020
0000
0000
0030
,
0001
0000
0010
0000
,
0001
0000
0001
0000
,
1000
0000
0010
0000
,
1000
0000
1000
0000
,
0100
0000
0010
0000
,
0100
0000
0100
0000
,
0001
0000
1000
0000
,
0001
0000
0001
0000
,
0002
0000
0000
0003
,
2000
0000
0000
3000
,
0002
0000
0000
0003
,
2000
0000
0000
3000
,
0010
0000
0010
0000
,
0001
0000
0001
0000
,
0100
0000
0100
0000
,
1000
0000
1000
0000
,
0220
0000
0000
0000
,
0000
0000
0000
0330
,
2002
0000
0000
0000
,
0000
3003
0100
0100
,
0001
0100
0000
0100
,
1000
0100
0000
0100
,
0001
0000
0000
1000
0000
0000
0001
0000
,
0000
1000
0000
0000
0001
0000
1001
0000
,
0000
1000
0000
0010
,
0000
0100
0000
0001
,
0000
0100
0000
0010
,
0000
0010
0000
1000
,
0000
0010
0000
0100
,
0000
1000
0000
0010
,
0000
0010
0000
0100
,
0000
0010
0000
1000
,
0000
0100
0000
1000
,
0000
0010
0000
1000
,
0000
0100
0000
0010
,
0000
0001
0000
1000
,
0000
0010
0000
0001
,
0000
0100
0000
0010
,
0000
0001
0000
0100
,
0000
1000
0000
0010
,
0000
0000
0000
1000
,
0000
0000
0000
0100
,
0000
0000
0000
0001
,
0000
0000
0000
0010
,
0000
0000
0000
1000
,
0000
0000
0000
0100
,
0000
0000
0000
0001
,
0000
0000
0000
0010
,
0000
0000
0000
0001
,
0000
0000
0000
0100
,
0000
0000
0000
1000
,
0000
0000
0000
0010
,
0000
0000
0000
0001
,
0000
0000
0000
0100
,
0000
0000
0000
2002
,
0000
0000
3003
0001
,
0000
1000
1000
0001
,
1000
0001
1000
0001
,
0000
1000
0000
0010
,
0000
1000
0000
1000
,
0000
0001
0001
1000
,
0000
0001
0001
1000
,
0001
1000
0001
1000
,
0000
0001
0001
0001
,
0000
1000
1000
0001
,
1000
0001
1000
0001
,
0000
1000
0000
0010
,
0000
1000
0000
1000
,
0000
0001
0001
1000
,
0000
0001
0001
1000
,
0001
1000
0001
1000
,
0000
0001
0001
1000
,
0000
0100
0000
0001
,
0000
0010
0000
0001
,
0000
0100
0000
1000
,
0000
0010
0000
1000
,
0000
0000
0000
0100
,
0000
0000
0000
0001
,
0000
0000
0000
0010
,
0000
0000
0000
1000
,
0000
0100
0000
0001
,
0000
0010
0000
0200
,
0000
0000
0000
0310
;

//---------------dance-single - ----------------
#NOTES:
     dance-single:
     :
     Easy:
     6:
     0.272724,0.368042,0.075983,0.164629,0.047489,603.000000,579.000000,24.000000,52.000000,0.000000,0.000000,0.272724,0.368042,0.075983,0.164629,0.047489,603.000000,579.000000,24.000000,52.000000,0.000000,0.000000:
// measure 0
0000
0000
0000
0000
,  // measure 1
0000
0000
0000
0000
,  // measure 2
0000
0000
0000
0000
,  // measure 3
0000
0000
0000
0000
,  // measure 4
0001
0000
0100
0000
,  // measure 5
0001
0000
0010
0000
,  // measure 6
0100
0000
1000
0000
,  // measure 7
0100
0000
0001
0000
,  // measure 8
0010
0000
1000
0000
,  // measure 9
0010
0000
0001
0010
,  // measure 10
1000
0000
0100
0000
,  // measure 11
0001
0000
0100
1000
,  // measure 12
0020
0000
1030
0100
,  // measure 13
0002
0000
0013
1000
,  // measure 14
0001
0100
1000
0100
,  // measure 15
0202
0303
1000
0100
,  // measure 16
0020
0030
0001
0100
,  // measure 17
0010
1000
0001
0100
,  // measure 18
0101
0000
1010
0000
,  // measure 19
2002
3003
0001
0100
,  // measure 20
0010
0020
1030
2000
,  // measure 21
3100
0200
0301
0002
,  // measure 22
0103
0200
1300
0100
,  // measure 23
2200
3300
0001
0100
,  // measure 24
0020
0000
1030
0100
,  // measure 25
0002
0000
0103
1000
,  // measure 26
1100
0000
0011
0000
,  // measure 27
2002
0000
0000
3003
,  // measure 28
1000
0000
0100
1000
0000
0000
0000
0000
,  // measure 29
0100
0000
0001
0100
0000
0000
0000
0000
,  // measure 30
1000
0000
0100
1000
0000
0000
0000
0000
,  // measure 31
0100
0000
0001
0100
0000
0000
0000
0000
,  // measure 32
0010
0000
0001
0010
0000
0000
0000
0000
,  // measure 33
0001
0000
0100
0001
0000
0000
0000
0000
,  // measure 34
1000
0000
0100
1000
0000
0000
0000
0000
,  // measure 35
0001
0100
1000
0100
,  // measure 36
1000
0100
1000
0000
,  // measure 37
1000
0100
0010
0000
,  // measure 38
0001
0100
0001
0100
,  // measure 39
0001
0000
1000
0000
,  // measure 40
0010
0000
0010
0100
,  // measure 41
0001
0000
1000
0000
,  // measure 42
0001
1000
0001
1000
,  // measure 43
1001
0000
1001
0000
,  // measure 44
0020
0000
0030
0000
,  // measure 45
0000
0000
0000
0000
,  // measure 46
1000
0001
1000
0001
,  // measure 47
0100
0100
0100
0000
,  // measure 48
0001
1000
0001
1000
,  // measure 49
0100
0100
0100
0000
,  // measure 50
0010
0001
0010
0001
,  // measure 51
1000
1000
1000
0000
,  // measure 52
0100
1000
0100
1000
,  // measure 53
0010
0010
0010
0000
,  // measure 54
0200
0000
0000
0300
,  // measure 55
0002
0000
0000
0003
,  // measure 56
2000
0000
0000
3000
,  // measure 57
0200
0000
0000
0300
,  // measure 58
1000
0000
0001
0000
,  // measure 59
0200
0000
0000
0300
,  // measure 60
0010
0000
0010
0000
,  // measure 61
0020
0030
0200
0300
,  // measure 62
0010
0100
1000
0100
,  // measure 63
1000
0100
0010
0000
,  // measure 64
0001
0100
0010
0100
,  // measure 65
0001
0100
0010
0000
,  // measure 66
0010
0100
0001
0100
,  // measure 67
0001
0100
0010
0000
,  // measure 68
1000
0100
0010
0100
,  // measure 69
1000
0100
0010
0000
,  // measure 70
0001
0000
1000
0000
,  // measure 71
0010
0010
1000
0000
,  // measure 72
0100
0000
0100
0000
,  // measure 73
0001
0001
0010
0000
,  // measure 74
1000
0000
0001
0000
,  // measure 75
0010
0010
0001
0000
,  // measure 76
0100
0000
0100
0000
,  // measure 77
1000
1000
0010
0000
,  // measure 78
2000
0000
0000
0000
,  // measure 79
3002
0000
0000
0000
,  // measure 80
0203
0000
0000
0000
,  // measure 81
0310
0000
0000
0000
,  // measure 82
0002
0000
0000
0000
,  // measure 83
2003
0000
0000
0000
,  // measure 84
3200
0000
0000
0000
,  // measure 85
0310
0000
0001
0000
,  // measure 86
1000
0001
2002
3003
,  // measure 87
1000
0000
0000
0000
,  // measure 88
0001
0000
0000
0000
,  // measure 89
1000
0000
0000
0000
,  // measure 90
0010
0100
0110
0000
,  // measure 91
1000
0001
0100
0010
,  // measure 92
1000
0000
0001
0000
,  // measure 93
1000
0100
0010
0001
,  // measure 94
1000
0000
0001
0000
,  // measure 95
1000
0001
0000
1001
,  // measure 96
0020
0000
0000
0030
,  // measure 97
2000
0000
0000
3000
,  // measure 98
0002
0000
0000
0003
,  // measure 99
0020
0000
0000
0030
,  // measure 100
0200
0000
0000
0000
,  // measure 101
0000
0000
0000
0300
,  // measure 102
2000
0000
0000
0000
,  // measure 103
0000
0000
0000
3000
,  // measure 104
0001
0000
0010
0000
,  // measure 105
1000
0100
0001
0100
,  // measure 106
1000
0000
0010
0000
,  // measure 107
0001
0100
1000
0100
,  // measure 108
0010
0010
0001
0001
,  // measure 109
0100
0100
1000
1000
,  // measure 110
0010
0010
0001
0001
,  // measure 111
1000
0001
1000
0001
,  // measure 112
2002
0000
0000
3003
,  // measure 113
1000
1000
0100
0000
,  // measure 114
0001
0001
0100
0000
,  // measure 115
1000
1000
0100
0000
,  // measure 116
0001
0001
0010
0100
,  // measure 117
1000
1000
0100
0000
,  // measure 118
0001
0001
0100
0000
,  // measure 119
1000
1000
0100
0000
,  // measure 120
1001
0000
1001
0000
,  // measure 121
0010
0010
0100
0000
,  // measure 122
0010
1000
0001
0000
,  // measure 123
0010
0010
0100
0000
,  // measure 124
0010
0001
1000
0000
,  // measure 125
0001
0001
1000
1000
,  // measure 126
0010
0100
0010
0000
,  // measure 127
1000
1000
0001
0001
,  // measure 128
0100
0010
0100
0000
,  // measure 129
0100
0000
0000
0000
,  // measure 130
1000
0000
0000
0000
,  // measure 131
0001
0000
0000
0000
,  // measure 132
0100
0000
0000
0000
,  // measure 133
0001
0000
1000
0000
,  // measure 134
0010
0000
0100
0000
,  // measure 135
0001
0000
1000
0000
,  // measure 136
0001
1000
0001
0000
,  // measure 137
0010
0000
1000
0000
,  // measure 138
0100
0000
0010
0000
,  // measure 139
0001
0010
0001
0000
,  // measure 140
0010
1000
0010
0000
,  // measure 141
0100
0001
0100
0000
,  // measure 142
0100
0010
0100
0000
,  // measure 143
0010
1000
0010
0000
,  // measure 144
0100
1000
0100
0000
,  // measure 145
0010
0100
0010
0000
,  // measure 146
1000
0100
1000
0000
,  // measure 147
0001
1000
0001
0000
,  // measure 148
0100
0001
0100
0000
,  // measure 149
1000
0000
0100
0000
,  // measure 150
1000
0100
1000
0000
,  // measure 151
0001
0000
0100
0000
,  // measure 152
0001
0100
0001
0000
,  // measure 153
0010
0000
0100
0000
,  // measure 154
0010
0100
0010
0000
,  // measure 155
1000
0000
0001
0000
,  // measure 156
1000
0001
1000
0000
,  // measure 157
1000
0000
0010
0000
,  // measure 158
0001
0000
0010
0000
,  // measure 159
1000
0000
0010
0000
,  // measure 160
0001
0000
0010
0000
,  // measure 161
0100
0001
0100
0000
,  // measure 162
1000
0100
1000
0000
,  // measure 163
0010
0001
0010
0000
,  // measure 164
1000
0010
1000
0000
,  // measure 165
0220
0000
0000
0000
,  // measure 166
0000
0000
0000
0330
,  // measure 167
0002
0000
0000
2000
0000
0000
0000
0000
,  // measure 168
0000
3003
0010
0010
,  // measure 169
1000
0000
0010
0000
0000
0100
0001
0000
,  // measure 170
0010
0000
0100
0000
0000
1000
0001
0000
,  // measure 171
1000
0000
0000
0001
0000
0000
1000
0000
,  // measure 172
0000
0001
0000
0000
0110
0000
1001
0000
,  // measure 173
0000
0001
0000
0100
,  // measure 174
1000
0010
0000
1000
,  // measure 175
0001
0010
0000
0100
,  // measure 176
1000
0100
0000
0001
,  // measure 177
0000
0100
0000
0010
,  // measure 178
0100
0001
0000
0100
,  // measure 179
0010
0100
0000
0010
,  // measure 180
1000
0100
0000
0001
,  // measure 181
0000
0010
0000
0001
,  // measure 182
0010
0100
0000
0001
,  // measure 183
1000
0010
0000
0100
,  // measure 184
0010
1000
0000
0001
,  // measure 185
0000
0100
0000
1000
,  // measure 186
0001
0010
0000
0100
,  // measure 187
0001
1000
0000
0010
,  // measure 188
1000
0001
0000
0100
,  // measure 189
0000
0100
0000
0000
0000
0100
0000
0000
0000
0001
0000
0000
,  // measure 190
0000
0001
0000
0000
0000
0001
0000
0000
0000
0010
0000
0000
,  // measure 191
0000
0010
0000
0000
0000
0010
0000
0000
0000
1000
0000
0000
,  // measure 192
0000
1000
0000
0000
0000
1000
0000
0000
0000
0100
0000
0000
,  // measure 193
0000
0100
0000
0000
0000
0100
0000
0000
0000
0001
0000
0000
,  // measure 194
0000
0001
0000
0000
0000
0001
0000
0000
0000
0010
0000
0000
,  // measure 195
0000
0010
0000
0000
0000
0010
0000
0000
0000
1000
0000
0000
,  // measure 196
0000
1000
0000
0000
0000
1000
0000
0000
0000
0100
0000
0000
,  // measure 197
0000
0100
0000
0000
0000
0100
0000
0000
0000
1000
0000
0000
,  // measure 198
0000
1000
0000
0000
0000
1000
0000
0000
0000
0010
0000
0000
,  // measure 199
0000
0010
0000
0000
0000
0010
0000
0000
0000
0001
0000
0000
,  // measure 200
0000
0001
0000
0000
0000
0001
0000
0000
0000
0100
0000
0000
,  // measure 201
0000
0100
0000
0000
0000
0100
0000
0000
0000
1000
0000
0000
,  // measure 202
0000
1000
0000
0000
0000
1000
0000
0000
0000
0010
0000
0000
,  // measure 203
0000
0010
0000
0000
0000
0010
0000
0000
0000
2002
0000
0000
,  // measure 204
0000
0000
3003
1000
,  // measure 205
0000
0010
0000
1000
,  // measure 206
0001
0100
0010
1000
,  // measure 207
0000
0001
0000
0110
,  // measure 208
0000
1001
0000
0001
,  // measure 209
0000
0010
0000
0001
,  // measure 210
1000
0100
0010
0001
,  // measure 211
0000
1000
0000
1000
,  // measure 212
0001
1000
0000
1000
,  // measure 213
0000
0010
0000
1000
,  // measure 214
0001
0100
0010
1000
,  // measure 215
0000
0001
0000
0110
,  // measure 216
0000
1001
0000
0001
,  // measure 217
0000
0010
0000
0001
,  // measure 218
1000
0100
0010
0001
,  // measure 219
0000
1000
0000
1000
,  // measure 220
0001
1000
0000
2000
,  // measure 221
0000
0100
0000
0001
,  // measure 222
0000
0010
3000
0002
,  // measure 223
0000
0100
0000
1000
,  // measure 224
0000
0100
0003
2000
,  // measure 225
0000
0000
0000
0100
,  // measure 226
0000
0000
0000
0001
,  // measure 227
0000
0000
0000
0010
,  // measure 228
0000
0000
3000
0001
,  // measure 229
0000
0010
0000
0100
,  // measure 230
0000
1000
0000
0001
,  // measure 231
0100
0010
1000
0002
,  // measure 232
0000
0000
0003
0000
;

//---------------dance-single - ----------------
#NOTES:
     dance-single:
     :
     Medium:
     9:
     0.445494,0.625671,0.316595,0.186791,0.055404,985.000000,885.000000,100.000000,59.000000,0.000000,0.000000,0.445494,0.625671,0.316595,0.186791,0.055404,985.000000,885.000000,100.000000,59.000000,0.000000,0.000000:
0000
0000
0000
0000
,
0000
0000
0000
0000
,
0000
0000
0000
0000
,
0000
0000
0000
0000
,
0010
0001
0100
1000
,
0001
0010
0100
0000
1000
0000
0010
0000
,
1000
0100
0001
0010
,
1000
0100
0010
0000
1000
0000
0010
0000
,
1000
0001
0100
0010
,
1000
0000
0100
0010
1000
0000
0001
0000
,
0100
0001
0100
1000
,
0010
0001
0100
0000
1000
0000
0010
0000
,
0100
0001
1000
0010
0100
0000
1000
0000
,
0100
0010
1000
0001
,
0010
0001
0100
1000
,
0202
0003
0010
1300
,
0010
0000
0100
0000
1000
0001
0100
0010
,
1000
0100
0010
0100
,
2020
0000
3030
0001
0000
0100
1000
0000
,
0220
0030
1000
0301
,
1000
0001
0100
0001
1000
0000
0100
0000
,
0010
0001
0100
1000
,
0010
1000
0100
0001
,
2200
0300
0010
3001
,
0100
0000
0010
0000
0100
1000
0010
1000
,
0100
0000
1000
0000
0100
0001
1000
0000
,
0101
0000
0010
0001
0000
1000
0100
0000
,
2020
0000
0000
3030
,
0100
0001
1000
0000
0000
0010
0100
0001
,
1000
0100
2020
3030
,
0100
0001
1000
0000
0000
0100
0010
1000
,
0100
1000
0022
0033
,
0100
0001
1000
0000
0000
0100
0001
1000
,
0100
0010
0202
0303
,
0010
1000
0001
0000
0000
1000
0001
0010
,
1000
0000
0000
0010
0000
0000
0001
0000
0100
0000
0000
0000
1000
0000
0000
0000
,
0001
0101
1000
0010
,
0100
0000
1000
0000
0001
0000
0100
0010
,
1000
0001
0010
0100
,
1001
0000
0010
0000
,
0100
0001
0010
1000
,
0100
0000
0010
0010
,
1100
0000
0101
0000
,
0020
0000
0230
0000
,
2300
0000
0000
0000
,
0002
0000
0000
3003
,
0010
1100
0010
0101
,
0010
1000
0100
0001
,
0010
0101
0010
1100
,
0010
0000
0100
0000
0001
1000
0001
0000
,
1000
0110
0001
0110
,
1000
0010
0001
0100
,
1000
0101
0001
1100
,
1001
0000
0100
0000
0010
0100
0010
0000
,
2000
0000
0100
3000
,
0002
0000
1000
0003
,
0100
0010
1000
0001
,
0200
0000
0010
0300
,
1000
1000
0001
0010
,
0200
0000
0010
0300
,
0010
0100
0010
0100
,
1100
0000
0101
0000
,
0010
0000
0100
0000
1000
0100
0010
0100
,
1000
1100
0001
0011
,
0100
0000
0010
0000
1000
0100
0010
0100
,
0010
0011
0100
1100
,
0010
0000
0100
0000
0001
0100
0010
0100
,
0001
0101
1000
1010
,
0100
0000
0010
0000
0001
0100
0010
0100
,
0010
1010
0100
0101
,
1000
0000
0010
0000
1000
0010
0100
0010
,
1000
0000
0100
0000
1000
0010
0100
0100
,
0001
0000
0010
0000
0001
0100
0001
0100
,
0001
0010
0100
1000
,
0001
0000
0010
0000
0001
0010
0100
0010
,
0001
0000
0100
0000
0001
0010
0100
0100
,
1000
0000
0010
0000
1000
0100
1000
0100
,
1000
0010
0100
0001
,
2000
0000
0100
0100
,
3020
0000
1000
1000
,
0230
0000
0001
0001
,
0320
0000
0100
0130
,
0002
0000
1000
0100
,
0023
0000
0100
0001
,
0230
0000
1000
0001
,
0310
1001
0100
1001
,
0110
1001
0220
0330
,
0001
0000
0000
0000
0000
1000
0000
0000
,
0001
0000
0000
0000
0010
0100
0010
0000
,
1000
0000
0000
0000
0000
0001
0000
0000
,
0110
0000
1001
0000
0010
1000
0100
0000
,
0010
0010
0001
0001
,
0100
0000
0100
0000
0010
1000
0001
0000
,
0010
0010
1000
1000
,
0101
0000
1100
0000
,
0001
0001
1000
1001
,
0020
0000
0000
0000
,
2000
0000
0000
3030
,
0200
0000
0000
0000
,
0020
0000
0000
0330
,
0002
0000
0000
0000
,
0000
0000
0000
0003
,
2000
0000
0000
0000
,
0000
0000
3000
0110
,
0001
0000
0010
0000
0001
0100
0001
0000
,
1000
0010
0100
0001
,
1000
0000
0010
0000
1000
0100
1000
0000
,
0001
0010
0100
1000
,
0010
1000
0010
0000
1000
0100
1000
0000
,
0001
0100
0001
0000
0010
0001
0010
0000
,
1000
0100
0001
0010
,
1100
0010
0101
0010
,
2000
0002
0000
0000
0000
0000
3003
0000
,
0110
0000
1000
0000
0001
0010
0001
0000
,
0200
0010
0010
0310
,
0001
1000
0001
0000
1000
0000
1000
0000
,
0002
0100
0100
0103
,
1010
0000
0100
0000
0010
0001
0010
0000
,
2000
0100
0100
3100
,
1000
0001
1000
0000
0001
0000
0100
0000
,
0100
1000
0010
0001
,
0100
0000
0011
0000
1000
0001
0100
0000
,
0002
0100
1000
0103
,
0010
0000
1100
0000
0001
1000
0010
0000
,
1000
0000
0100
0000
0001
1000
1001
0000
,
0010
0000
1001
0000
0100
0001
0010
0000
,
2000
0001
0010
3001
,
0100
0100
0010
0010
,
0010
1000
0100
0000
0010
0001
0100
0000
,
0011
0000
0000
1000
0000
0000
1000
0000
,
1100
0000
0000
0001
0000
0000
0001
0000
,
1010
0000
0000
0010
0000
0000
0010
0000
,
0101
0000
0000
0100
0000
0000
0100
0000
,
0001
1000
0001
1000
,
0001
0100
0001
0100
,
0010
1000
0010
1000
,
0100
1000
0100
1000
,
0001
0010
0001
0010
,
0001
1000
0001
1000
,
0001
0010
0100
1000
,
0001
0010
0100
1000
,
0100
1000
0100
1000
,
0100
0010
0100
0010
,
0001
0010
0001
0010
,
0001
0100
0001
0100
,
0010
0100
0020
0030
,
0001
0100
0002
0003
,
1000
0001
2000
3000
,
0100
1000
0200
0300
,
0001
1000
0100
0010
,
0001
0010
0001
0000
,
0100
0010
0001
0100
,
0010
1000
0010
0000
,
0100
0010
0001
0100
,
0010
1000
0010
0000
,
1000
0010
1000
0001
,
0010
0001
1000
0000
,
0001
0100
0010
0000
,
1000
0100
0010
0000
,
0001
0100
0010
0000
,
1000
0100
0010
0000
,
0100
1000
0100
1000
,
0001
0100
0001
0100
,
0010
1000
0010
1000
,
0001
0010
0001
0000
,
0220
0000
0000
0000
,
0000
0000
0000
0000
0000
0000
0330
0001
,
2000
0000
0000
0002
0000
0000
0000
0000
,
0000
3003
0110
0110
,
0001
0001
0010
0100
0000
0100
1000
0000
,
0010
0010
0100
0001
0000
0001
1000
0001
,
0001
0000
1000
1100
0000
0001
0101
0000
,
1000
1001
0000
0010
0100
0010
0110
0000
,
0001
1000
0010
0100
,
0001
0010
0010
0001
,
1000
0000
0010
0000
0100
0010
0100
0000
,
0001
0100
0001
1000
,
0010
0100
0001
0100
,
0010
1000
1000
0100
,
0010
0000
0100
0000
0010
0001
0010
0000
,
0001
0100
0010
1000
,
0001
0010
0001
1000
,
0010
0100
0010
1000
,
0001
0000
0010
0000
0100
0010
0100
0000
,
0010
0001
1000
0100
,
1000
0001
0100
0001
,
1000
0010
1000
0100
,
1000
0000
0001
0000
0010
0100
0010
0000
,
0001
1000
0010
0100
,
0000
0001
0000
0000
0000
0101
0000
0000
0000
0010
0000
0000
,
0000
1000
0000
0000
0000
1010
0000
0000
0000
0001
0000
0000
,
0000
0010
0000
0000
0000
0011
0000
0000
0000
0100
0000
0000
,
0000
1000
0000
0000
0000
1100
0000
0000
0000
0010
0000
0000
,
0000
1000
0000
0000
0000
1010
0000
0000
0000
0001
0000
0000
,
0000
0010
0000
0000
0000
0011
0000
0000
0000
0100
0000
0000
,
0000
1000
0000
0000
0000
1100
0000
0000
0000
0001
0000
0000
,
0000
0100
0000
0000
0000
0101
0000
0000
0000
1100
0000
0000
,
0000
1100
0000
0000
0000
1100
0000
0000
0000
0011
0000
0000
,
0000
0011
0000
0000
0000
0011
0000
0000
0000
0101
0000
0000
,
0000
0101
0000
0000
0000
0101
0000
0000
0000
1010
0000
0000
,
0000
1010
0000
0000
0000
1010
0000
0000
0000
1100
0000
0000
,
0000
1100
0000
0000
0000
1100
0000
0000
0000
0101
0000
0000
,
0000
0101
0000
0000
0000
0101
0000
0000
0000
0110
0000
0000
,
0000
0110
0000
0000
0000
0110
0000
0000
0000
2002
0000
0000
,
0000
0000
3003
0001
,
1000
0100
0010
0000
0100
1000
0001
0000
,
0001
0000
0010
1000
0100
0010
0001
0000
,
0100
0010
1010
0100
,
0110
1000
0101
1000
,
0001
0100
0010
0000
0100
0001
1000
0000
,
1000
0000
0010
0001
0100
0010
1000
0000
,
0100
0010
0011
1000
,
0001
0000
0000
1000
0001
1000
0001
0000
0000
0001
0000
0000
,
1000
0100
0010
0000
0100
1000
0001
0000
,
0001
0000
0010
1000
0100
0010
0001
0000
,
0100
0010
1010
0100
,
0110
1000
0101
1000
,
0001
0100
0010
0000
0100
0001
1000
0000
,
1000
0000
0010
0001
0100
0010
1000
0000
,
0100
0010
0011
1000
,
0001
0000
0000
1000
0001
1000
0001
0000
0000
0200
0000
0000
,
1000
0000
0001
0000
,
0010
0000
0001
0001
0001
0000
0000
0000
,
1000
0000
0001
0000
,
0010
0000
1000
1000
1300
0000
0020
0000
,
0000
1000
1000
0000
,
0000
0001
0001
0000
,
0000
0100
0100
1000
,
1000
1000
0030
0100
,
0100
0001
0001
1000
,
1000
0000
0010
0000
0010
0000
1000
0100
,
0001
1000
0010
0001
0100
1000
0200
0000
,
0000
0000
0300
0000
;

//---------------dance-single - ----------------
#NOTES:
     dance-single:
     :
     Hard:
     10:
     0.610124,0.920104,0.449565,0.151966,0.265940,1349.000000,1207.000000,142.000000,48.000000,0.000000,0.000000,0.610124,0.920104,0.449565,0.151966,0.265940,1349.000000,1207.000000,142.000000,48.000000,0.000000,0.000000:
0000
0000
0000
0000
,
0000
0000
0000
0000
,
0000
0000
0000
0000
,
0000
0000
0000
0000
,
1000
0000
0100
0000
0001
0000
0100
1000
,
0000
0010
0000
0001
0010
1000
0100
1000
,
0001
0000
0010
0000
1000
0000
0010
0001
,
0000
0100
0000
1000
0100
0001
0010
0000
,
0001
0000
0100
0000
1000
0000
0100
0001
,
0000
0010
0000
1000
0010
0001
0100
0001
,
1000
0000
0010
0000
0001
0000
0010
1000
,
0000
0100
0000
0001
0100
1000
0010
0000
,
0101
0000
1000
1100
0000
0010
1000
0100
,
0010
0000
0001
0000
0010
0001
0000
0000
0100
0000
0001
0000
0100
0001
0000
0000
,
0010
0000
1000
0000
0010
1000
0000
0000
0100
0000
1000
0000
0100
1000
0000
0000
,
0001
0000
0100
0000
0001
0010
0001
0000
,
1100
0000
0001
0101
0000
0010
0001
0100
,
0010
0000
1000
0000
0010
1000
0000
0000
0100
0000
1000
0000
0100
1000
0000
0000
,
0011
0000
0000
0101
0000
0010
1000
0100
,
2200
3300
0001
0010
,
0001
0100
0000
0000
0001
1000
0000
0000
0001
0010
0000
0000
1000
0010
0000
0000
,
0001
0100
0000
0000
1000
0100
0000
0000
0001
0010
0000
0000
0001
1000
0000
0000
,
1000
0010
0000
0000
1000
0001
0000
0000
1000
0100
0000
0000
0001
0100
0000
0000
,
1000
0010
0000
0000
0001
0010
0000
0000
1000
0100
0000
0000
1000
0001
0000
0000
,
0001
0100
0001
0100
0001
1000
0001
0010
,
0100
1000
0001
1000
0010
1000
0010
1000
,
0101
0000
0000
0011
0000
0100
1000
0010
,
0001
0000
0010
0000
0001
0010
0000
0000
1000
0000
0010
0000
1000
0010
0000
0000
,
0102
0000
0000
0013
0000
0000
1100
0000
0000
0000
1000
0000
0010
0000
0001
0000
,
0020
0000
0000
0001
0000
0000
1030
0000
0100
0000
0000
0000
0011
0000
0000
0000
,
2100
0000
0000
3010
0000
0000
0101
0000
0000
0000
0001
0000
0010
0000
1000
0000
,
0020
0000
0000
1000
0000
0000
0031
0000
0100
0000
0000
0000
0101
0000
0000
0000
,
0012
0000
0000
0103
0000
0000
1010
0000
0000
0000
1000
0000
0100
0000
0001
0000
,
0200
0000
0000
0001
0000
0000
1300
0000
0010
0000
0000
0000
0101
0000
0000
0000
,
2010
0000
0000
3100
0000
0000
0011
0000
0000
0000
0001
0000
0100
0000
1000
0000
,
0200
0000
0000
1000
0000
0000
0301
0000
0010
0000
0000
0000
0011
0000
0000
0000
,
1000
0100
1000
0000
0001
0010
0001
0000
,
1000
0100
0010
0100
0001
0000
0100
0000
,
0010
0012
0100
0013
,
1100
0010
0001
1000
,
0010
1000
0010
1000
0001
0100
0001
0100
,
0010
1000
0001
0100
,
0012
0100
0010
0103
,
2020
3030
0202
0303
,
0001
0000
1000
0000
0001
0000
1000
0000
0001
1000
0001
0000
1000
0000
0001
0000
,
0010
0100
0010
0100
0200
0000
0300
0000
,
0011
1100
0011
1100
,
0010
0000
0000
0010
0001
0000
0100
0000
0010
0000
1000
0000
0001
0000
1000
0000
,
1010
0101
1010
0101
,
0010
0000
0000
0010
1000
0000
0001
0000
1000
0000
0100
0000
0010
0000
0001
0000
,
0011
1001
1010
1001
,
0100
0000
0000
0100
0010
0000
1000
0000
0010
0000
0100
0000
0001
0000
1000
0000
,
1001
0110
1001
0110
,
1001
0000
0000
0000
0000
0000
0000
0000
0010
0000
0010
0100
0000
0000
0010
0000
,
2000
0000
0100
3100
0000
0010
0001
0010
,
0002
1000
0000
0103
0000
0100
0010
1000
,
0020
0000
0100
0130
0000
0001
0000
1000
,
0200
0000
1000
0300
0010
0000
0001
0000
,
1001
0000
0010
0100
0000
0001
0010
0100
,
1100
0010
0100
0011
,
0101
0000
1000
0100
0000
0001
0100
0010
,
2000
0100
3002
0103
,
1000
0000
0000
1000
0010
0000
0000
0010
0100
0000
0000
0100
0001
0000
0000
0001
,
0010
0100
1000
0010
0100
0010
0100
0001
,
0010
0000
0000
0010
1000
0000
0000
1000
0010
0000
0000
0010
0100
0000
0000
0100
,
1000
0001
0100
0000
1000
0001
0100
0000
,
0001
0000
0000
0001
0010
0000
0000
0010
0100
0000
0000
0100
1000
0000
0000
1000
,
0010
0100
0001
0010
0100
0010
0100
1000
,
0010
0000
0000
0010
0001
0000
0000
0001
0010
0000
0000
0010
0100
0000
0000
0100
,
0001
1000
0100
0000
0001
1000
0100
0000
,
0010
0000
0000
0010
0001
0000
0000
0001
0010
0000
0000
0010
0001
0000
0000
0001
,
0100
0000
0000
0100
1000
0000
0000
1000
0100
0000
0000
0100
1000
0000
0100
0000
,
0001
0000
0000
0001
1000
0000
0000
1000
0001
0000
0000
0001
1000
0000
0000
1000
,
0100
0000
0000
0100
0010
0000
0000
0010
0001
0000
0000
0001
1000
0000
0100
0000
,
0010
0000
0000
0010
0001
0000
0000
0001
0010
0000
0000
0010
0001
0000
0000
0001
,
0100
0000
0000
0100
1000
0000
0000
1000
0100
0000
0000
0100
1000
0000
0100
0000
,
0001
0000
0000
0001
1000
0000
0000
1000
0001
0000
0000
0001
1000
0000
0000
1000
,
0100
0000
0000
0100
0010
0000
0000
0010
0001
0000
0000
0001
1000
0000
0100
0000
,
0020
0000
0000
0000
0100
0000
0000
0000
0000
0000
0000
0000
0130
0000
0000
1000
,
0002
0000
0000
0000
0100
0000
0000
0000
0000
0000
0000
0000
0103
0000
0000
0010
,
0200
0000
0000
0000
0001
0000
0000
0000
0000
0000
0000
0000
0301
0000
0000
0010
,
2000
0100
0000
3100
,
0020
0000
0000
0000
0100
0000
0000
0000
0001
0000
0000
0000
0130
0000
0000
0001
,
2000
0000
0000
0000
0100
0000
0000
0000
0001
0000
0000
0000
3100
0000
0000
0010
,
0200
1000
0001
1300
,
0010
1000
1001
0000
0010
0001
1001
0000
,
1000
0001
1000
0001
0100
0010
0100
0010
1000
0000
0001
0000
1001
0000
0000
0000
,
0001
0000
1000
0000
0010
0000
0100
0000
0010
0000
0000
0010
0000
0000
0010
0000
,
1000
0000
0000
1000
0000
0000
1000
0000
0001
0000
0010
0000
0100
0000
0000
0000
,
1000
0000
0010
0000
0100
0000
0010
0000
1000
0000
0000
1000
0000
0000
1000
0000
,
0001
0000
0011
0000
0100
1000
0001
0000
,
0100
0000
0010
0000
1000
0000
0100
0000
0010
0000
0000
0010
0000
0000
0010
0000
,
0001
0000
0000
0001
0000
0000
0001
0000
1000
0000
0010
0000
0100
0000
0000
0000
,
0001
0000
0010
0000
0100
0000
0010
0000
0001
0000
0000
0001
0000
0000
0001
0000
,
1000
0000
0000
0010
0100
0000
0010
0000
1000
0000
0000
0100
0000
0010
0100
0000
,
1000
1000
0010
0110
,
2001
0000
0000
0000
,
0200
0000
0000
3000
,
0020
0000
0000
0300
,
0002
0000
0000
0030
,
2000
0000
0000
0000
,
0000
0000
0000
0003
,
0020
0000
0000
0000
,
0000
0000
3030
0110
,
0001
0000
0010
0000
0100
1000
0001
0000
,
0100
0000
0010
0000
1000
0010
1000
0010
,
0100
0000
0100
0000
0010
1000
0100
0000
,
0010
0100
1000
0001
,
0100
0001
0100
0010
0100
0001
0100
0010
,
1000
0100
0010
0100
1000
0100
0010
0100
,
1000
0010
0100
0001
0010
0100
1000
0010
,
0101
1100
1010
0011
,
2000
0002
0000
0000
0000
0000
3003
0000
,
0010
0000
0001
0000
0010
0000
0000
0100
0000
0000
0010
0000
0001
0000
0000
0000
,
0100
0000
0001
0000
0100
0000
0000
0010
0000
0000
1000
0000
0010
0000
0100
0000
,
0001
0000
1000
0000
0010
0000
0000
0100
0000
0000
0010
0000
1000
0000
0000
0000
,
0001
1000
0100
0010
0001
0010
0110
0000
,
0100
0000
1000
0000
0100
0000
0000
0010
0000
0000
0100
0000
1000
0000
0000
0000
,
0001
0000
0010
0000
0001
0000
0000
1000
0000
0000
0100
0000
0010
0000
0001
0000
,
0100
0000
0001
0000
0100
0000
0000
0010
0000
0000
1000
0000
0100
0000
0000
0000
,
0100
0010
0001
0100
0010
1000
1001
0000
,
0010
0000
0001
0000
1000
0100
0000
0100
0000
0000
1000
0000
0010
0000
0000
0000
,
1000
0000
0001
0000
1000
0100
0000
0100
0000
0000
0010
0000
0100
0000
0001
0000
,
0100
0000
0010
0000
0100
1000
0000
1000
0000
0000
0010
0000
0100
0000
0000
0000
,
0001
0000
1000
0000
0100
0000
0010
0100
0000
0100
0010
0000
0100
0000
0001
0000
,
0100
0000
1000
0000
0100
1000
0000
0001
0000
0000
0010
0000
0100
0000
0000
0000
,
0010
0000
0001
0000
0010
0100
0000
1000
0000
0000
0001
0000
1000
0000
0010
0000
,
0100
0000
0001
0000
1000
0100
0000
0010
0000
0000
0001
0000
1000
0000
0000
0000
,
0110
0000
1001
0000
0100
0010
1001
0000
,
0100
0000
0000
1000
0000
0000
1000
0000
0000
0000
0010
0000
0001
0000
0100
0000
,
0010
0000
0000
1000
0000
0000
1000
0000
0000
0000
0001
0000
1000
0000
0100
0000
,
0010
0000
0000
0001
0000
0000
0001
0000
0000
0000
0100
0000
0001
0000
1000
0000
,
0100
0000
0000
0010
0000
0000
0010
0000
0000
0000
0001
0000
1000
0000
0001
0000
,
1000
0100
0010
0100
,
1000
0010
0100
0010
,
1000
0001
0010
0100
,
0010
0001
0100
0010
,
0100
0001
1000
0100
,
0010
0001
1000
0001
,
0100
0010
1000
0100
,
0010
0001
1000
0001
,
0010
0001
1000
0010
,
0100
0010
1000
0100
,
0010
0001
0100
0010
,
0100
0001
1000
0100
,
1000
0010
0100
0001
,
0010
0100
1000
0001
,
1000
0100
0010
0100
,
1000
0010
0100
0010
,
1000
0001
0010
0100
,
1000
0100
1000
0100
,
0010
0100
1000
0010
,
0100
0001
0100
0001
,
0010
0100
1000
0100
,
0001
0100
1000
0100
,
0001
0100
0001
0100
,
0001
0100
1000
0010
,
1000
0010
0100
0001
,
0010
0100
1000
0010
,
0100
0001
0010
0100
,
1000
0010
0100
0001
,
0010
0001
0010
0001
,
1000
0010
1000
0010
,
0100
0001
0100
0001
,
1000
0100
1000
0100
,
0220
0000
0000
0000
,
0000
0000
0000
0000
0000
0000
0330
1000
,
0002
0000
0000
2000
0000
0000
0000
0000
,
0000
3003
0011
1100
,
1000
0000
1000
0000
0100
0000
0010
0100
0010
0100
0010
0000
0001
0000
0100
0010
,
0100
0000
0100
0000
0010
0000
1000
0100
1000
0100
1000
0000
0001
0000
1000
0100
,
1000
0001
0010
0101
0000
0010
1100
0000
,
0010
1001
0000
0100
0010
0100
0110
0000
,
1000
0000
0001
0000
0100
0010
0100
0000
,
0001
0000
1000
0100
1000
0000
0001
0100
,
0001
0000
0010
0000
0100
0010
0100
0000
,
1000
0000
0010
0000
0100
0000
0001
0010
,
0001
0000
1000
0000
0010
0100
0010
0000
,
0100
0000
0001
1000
0001
0000
0010
0100
,
0010
0000
0100
0000
1000
0010
1000
0000
,
0001
0000
0010
0000
0100
0000
0010
0001
,
0100
0000
0010
0000
0100
0001
0010
0000
,
0100
0000
0010
0001
0100
0000
0010
1000
,
0100
0000
0010
0000
0100
1000
0010
0000
,
1000
0000
0001
0000
0010
0000
0100
1000
,
0001
0000
0100
0000
0001
1000
0100
0000
,
0010
0000
0100
1000
0001
0000
0100
0001
,
1000
0000
0100
0000
1000
0010
0100
0000
,
0001
1000
0100
0011
,
0000
1100
0000
0000
0000
0101
0000
0000
0000
1010
0000
0000
,
0000
0101
0000
0000
0000
1100
0000
0000
0000
0011
0000
0000
,
0000
1001
0000
0000
0000
0101
0000
0000
0000
1010
0000
0000
,
0000
1001
0000
0000
0000
1100
0000
0000
0000
1010
0000
0000
,
0000
0101
0000
0000
0000
1100
0000
0000
0000
0011
0000
0000
,
0000
1100
0000
0000
0000
0101
0000
0000
0000
1010
0000
0000
,
0000
1001
0000
0000
0000
1100
0000
0000
0000
0011
0000
0000
,
0000
1001
0000
0000
0000
0101
0000
0000
0000
1010
0000
0000
,
0000
0101
0000
0000
0000
1100
0000
0000
0000
0011
0000
0000
,
0000
1010
0000
0000
0000
1100
0000
0000
0000
0101
0000
0000
,
0000
1100
0000
0000
0000
1010
0000
0000
0000
0011
0000
0000
,
0000
1100
0000
0000
0000
0101
0000
0000
0000
1001
0000
0000
,
0000
1001
0000
0000
0000
1001
0000
0000
0000
0110
0000
0000
,
0000
0110
0000
0000
0000
0110
0000
0000
0000
1010
0000
0000
,
0000
0110
0000
0000
0000
0101
0000
0000
0000
2002
0000
0000
,
0000
0000
3003
1100
,
0001
1000
1100
0000
0001
0000
1000
0100
,
1000
0010
1000
0001
1000
0000
0110
0000
,
0100
0010
1001
0000
0100
0000
0010
0001
,
0010
0100
0011
0000
1010
0000
0101
0000
,
1000
0001
0101
0000
1000
0000
0001
0100
,
0001
0010
0001
1000
0001
0000
0110
0000
,
0100
0010
1001
0000
0100
0000
0010
0100
,
1000
0100
1100
0000
0011
0000
1100
0000
,
0001
1000
1100
0000
0001
0000
1000
0100
,
1000
0010
1000
0001
1000
0000
0110
0000
,
0100
0010
1001
0000
0100
0000
0010
0001
,
0010
0100
0011
0000
1010
0000
0101
0000
,
1000
0001
0101
0000
1000
0000
0001
0100
,
0001
0010
0001
0100
0001
0000
0110
0000
,
0100
0010
1001
0000
0100
0000
0010
0100
,
1000
0100
1100
0000
0011
0000
0210
0000
,
1000
0000
0001
0001
0010
0000
1000
0000
,
0001
0000
0000
0000
1000
0000
1000
0000
0310
0000
1000
0100
0020
0000
0000
0000
,
0001
0000
1000
1000
0100
0000
0001
0000
,
1000
0000
0001
0001
0130
0000
0210
0000
,
0000
0001
0001
1000
,
1000
0010
0010
0001
,
0001
1000
1000
0001
,
0001
0000
0010
0000
0301
0100
0010
0000
,
0100
0000
1000
0000
0001
0000
0100
0010
,
1000
0000
0001
0000
0010
0000
0100
0000
1000
0000
0001
0000
0010
0001
0010
0001
,
0100
0010
0100
0010
1000
0001
0010
0100
1000
0010
0100
0001
0200
0000
0000
0000
,
0000
0000
0300
0000
;
