#TITLE:DIGITiZE;
#SUBTITLE:;
#ARTIST:MoriHime;
#TITLETRANSLIT:;
#SUBTITLETRANSLIT:;
#ARTISTTRANSLIT:;
#GENRE:;
#CREDIT:;
#BANNER:DIGITiZE.png;
#BACKGROUND:;
#LYRICSPATH:;
#CDTITLE:;
#MUSIC:DIGITiZE.ogg;
#OFFSET:0.000000;
#SAMPLESTART:58.179943;
#SAMPLELENGTH:15.000000;
#SELECTABLE:YES;
#BPMS:0.000000=164.960007
;
#STOPS:
;
#BGCHANGES:;
#KEYSOUNDS:;
#ATTACKS:;

//---------------dance-single - ----------------
#NOTES:
     dance-single:
     :
     Hard:
     9:
     0.679699,0.739605,0.094737,0.115789,0.205263,452.000000,443.000000,9.000000,11.000000,0.000000,0.000000,0.679699,0.739605,0.094737,0.115789,0.205263,452.000000,443.000000,9.000000,11.000000,0.000000,0.000000:
0000
0000
0000
0000
,
0000
0000
0000
0000
,
0000
0000
0000
0000
,
0000
0000
0000
0000
,
1002
1000
1000
1003
,
2001
0001
0001
3001
,
1020
1000
1000
1030
,
0201
0001
0002
0303
,
1001
0000
0000
0000
1000
0000
1000
0100
0000
0100
0010
0000
0001
0000
0100
0000
,
0001
0000
0000
0000
0001
0000
0001
0100
0000
0100
0010
0000
0010
0000
1000
0000
,
0100
0000
0000
0000
0100
0000
0100
1000
0000
1000
0010
0000
0010
0000
0100
0000
,
0001
0000
0000
0000
0001
0000
0001
1000
0000
1000
0100
0000
0100
0000
0010
0000
,
0001
0000
0000
0000
0001
0000
1000
0010
0000
0010
1000
0000
1000
0000
0100
0000
,
0100
0000
0000
0000
1000
0000
0001
1000
0000
0010
0100
0000
0001
0000
1000
0000
,
0100
0000
0000
0000
1000
0000
0010
0100
0000
0001
0100
0000
0010
0000
1000
0000
,
0100
0000
0000
0000
1000
0000
0001
0100
0000
0020
2000
0000
0000
0030
3000
0000
,
1001
0000
0100
0001
0010
0001
0100
0001
,
0010
0001
1000
0100
1000
0010
1000
0100
,
1000
0010
0100
0010
1000
0100
0010
0100
,
1000
0010
0100
0001
0100
0010
0001
0010
,
0100
0001
1000
0100
0010
0100
1000
0010
,
0100
0001
0100
0010
1000
0100
0010
0001
,
0100
0010
1000
0010
0100
0001
1000
0100
,
0010
0001
0100
0010
0100
0001
0010
0001
,
1000
0100
1000
0010
0100
0010
1000
0100
,
0010
0001
0100
0010
0100
0001
0100
0010
,
0100
0001
1000
0100
0010
0100
1000
0010
,
0100
0010
1000
0100
1000
0100
0010
0001
,
1001
0000
0001
0100
0000
0100
0001
0100
,
0010
0000
1000
0010
0000
0010
1000
0010
,
0100
0000
0100
0001
0000
0001
0010
0001
,
0010
0000
0001
1000
0000
1000
0100
1000
,
0100
0000
0100
1000
0000
1000
0010
1000
,
0010
0000
0010
0100
0000
0100
0001
0100
,
0001
0000
0001
1000
0000
1000
0100
1000
,
0100
0000
0100
1000
0000
1000
0100
0010
,
0001
1000
0001
1000
0001
1000
0001
1000
,
0010
0100
0010
0100
0010
0100
0010
0100
,
0001
0100
1000
0100
0001
0100
1000
0100
,
0001
0000
0100
0001
0000
2000
0020
0000
0000
0000
0000
0000
3000
0030
0000
0000
,
1001
1000
0100
1000
0010
0100
0001
0001
,
1000
0010
0100
0010
1000
0100
1000
1000
,
0010
0100
0001
0100
0010
1000
0001
0001
,
1000
0010
0100
0001
0100
0010
1000
1000
,
0100
0010
0001
1000
0100
0010
0001
0001
,
1000
0100
0010
0001
1000
0100
1000
1000
,
0010
0100
0001
1000
0010
0100
0001
0001
,
1000
0100
0010
0100
1000
0001
1000
1000
,
0010
0100
0001
0100
0010
1000
0010
0010
,
1000
0010
0100
0001
1000
0010
0100
0100
,
0010
1000
0100
0010
0001
0100
0010
0010
,
1000
0010
0100
0010
1000
0010
0100
0100
,
0010
0100
0001
0100
0001
0100
0010
0010
,
1000
0001
1000
0001
0100
0010
0100
0100
,
0001
1000
0001
1000
0010
0100
0010
0010
,
1000
0000
0001
0100
0001
0100
0001
0000
0000
0010
1000
0010
1000
0010
1000
0000
,
1001
0000
0000
0000
1000
0000
1000
0100
0000
0100
0010
0000
0001
0000
0100
0000
,
0001
0000
0000
0000
0001
0000
0001
0100
0000
0100
0010
0000
0010
0000
1000
0000
,
0100
0000
0000
0000
0100
0000
0100
1000
0000
1000
0010
0000
0010
0000
0100
0000
,
0001
0000
0000
0000
0001
0000
0001
1000
0000
1000
0100
0000
0100
0000
0010
0000
,
0001
0000
0000
0000
0001
0000
1000
0010
0000
0010
1000
0000
1000
0000
0100
0000
,
0100
0000
0000
0000
1000
0000
0001
1000
0000
0010
0100
0000
0001
0000
1000
0000
,
0100
0000
0000
0000
1000
0000
0010
0100
0000
0001
0100
0000
0010
0000
1000
0000
,
0100
0000
0000
0000
1000
0000
0001
0100
0000
0020
2000
0000
0000
0030
3000
0000
;

//---------------dance-single - ----------------
#NOTES:
     dance-single:
     :
     Medium:
     7:
     0.469173,0.470658,0.094737,0.115789,0.089474,312.000000,303.000000,9.000000,11.000000,0.000000,0.000000,0.469173,0.470658,0.094737,0.115789,0.089474,312.000000,303.000000,9.000000,11.000000,0.000000,0.000000:
0000
0000
0000
0000
,
0000
0000
0000
0000
,
0000
0000
0000
0000
,
0000
0000
0000
0000
,
0002
0000
0000
0000
,
2003
0000
0000
0000
,
3020
0100
0100
0100
,
0230
0001
0002
0303
,
1001
0000
0000
0000
1000
0000
0000
0100
0000
0000
0010
0000
0001
0000
0100
0000
,
0001
0000
0000
0000
0001
0000
0000
0100
0000
0000
0010
0000
0010
0000
1000
0000
,
0100
0000
0000
0000
0100
0000
0000
1000
0000
0000
0010
0000
0010
0000
0100
0000
,
0001
0000
0000
0000
0001
0000
0000
1000
0000
0000
0100
0000
0100
0000
0010
0000
,
0001
0000
0000
0000
0001
0000
0000
1000
0000
0000
0010
0000
1000
0000
0100
0000
,
0100
0000
0000
0000
1000
0000
0000
0010
0000
0000
0100
0000
0001
0000
1000
0000
,
0100
0000
0000
0000
1000
0000
0000
0100
0000
0000
0100
0000
0010
0000
0001
0000
,
0100
0000
0000
0000
0001
0000
0000
0010
0000
0000
0202
0000
0000
0000
0303
0000
,
1001
0000
0100
0001
0010
0000
0001
0100
,
0010
0000
1000
0100
1000
0000
0001
0100
,
0010
0000
0100
0010
1000
0000
0010
0100
,
0001
0000
0100
0001
0100
0000
0001
0010
,
0100
0000
1000
0100
0010
0000
0001
0010
,
0100
0000
1000
0010
0100
0000
0010
0100
,
0001
0000
1000
0010
0100
0000
0010
0100
,
0010
0000
0100
0010
0100
0000
0010
1000
,
0100
0000
1000
0010
0100
0000
0001
0100
,
0010
0000
0100
0010
0100
0000
0001
0010
,
0100
0000
1000
0100
0010
0000
0001
0010
,
0100
0000
1000
0100
0010
0000
0001
1000
,
0001
0000
0001
0100
0000
0100
0001
0100
,
0010
0000
1000
0010
0000
0010
1000
0010
,
0100
0000
0100
0001
0000
0001
0010
0001
,
0010
0000
0001
1000
0000
1000
0100
1000
,
0100
0000
0100
1000
0000
1000
0010
0000
,
0010
0000
0010
0100
0000
0100
0001
0000
,
0001
0000
0001
1000
0000
1000
0100
0000
,
0100
0000
0100
1000
0000
1000
0001
0000
,
0001
1000
0001
1000
,
0010
0100
0010
0100
,
0001
0010
0100
1000
,
1001
0000
0000
0110
0000
0000
2002
0000
0000
0000
0000
0000
3003
0000
0000
0000
,
1001
0100
0010
0001
,
1000
0100
1000
1000
,
0010
0100
0010
0100
,
0001
0100
0010
1000
,
1000
0001
0100
0001
,
1000
0010
1000
1000
,
0010
0100
0010
1000
,
0001
0010
0001
1000
,
0010
0100
0001
0000
0010
0000
0010
0001
,
1000
0000
0100
0000
1000
0010
0100
0000
,
0010
1000
0100
0000
1000
0000
0010
0000
,
1000
0001
0100
0000
0010
1000
0100
0000
,
1000
0001
1000
0010
,
1000
1000
0001
0001
,
1000
0001
0100
0010
,
0100
0000
0001
0001
0000
1000
1000
0000
,
1001
0000
0000
0000
1000
0000
0000
0100
0000
0000
0010
0000
0001
0000
0100
0000
,
0001
0000
0000
0000
0001
0000
0000
0100
0000
0000
0010
0000
0010
0000
1000
0000
,
0100
0000
0000
0000
0100
0000
0000
1000
0000
0000
0010
0000
0010
0000
0100
0000
,
0001
0000
0000
0000
0001
0000
0000
1000
0000
0000
0100
0000
0100
0000
0010
0000
,
0001
0000
0000
0000
0001
0000
0000
1000
0000
0000
0010
0000
1000
0000
0100
0000
,
0100
0000
0000
0000
1000
0000
0000
0010
0000
0000
0100
0000
0001
0000
1000
0000
,
0100
0000
0000
0000
1000
0000
0000
0100
0000
0000
0100
0000
0010
0000
0001
0000
,
0100
0000
0000
0000
0001
0000
0000
0010
0000
0000
0202
0000
0000
0000
0303
0000
;

//---------------dance-single - ----------------
#NOTES:
     dance-single:
     :
     Easy:
     5:
     0.378947,0.436184,0.294737,0.084211,0.000000,252.000000,224.000000,28.000000,8.000000,0.000000,0.000000,0.378947,0.436184,0.294737,0.084211,0.000000,252.000000,224.000000,28.000000,8.000000,0.000000,0.000000:
0000
0000
0000
0000
,
0000
0000
0000
0000
,
0000
0000
0000
0000
,
0000
0000
0000
0000
,
0002
0000
0000
0000
,
2003
0000
0000
0000
,
3020
0000
0000
0000
,
0230
0000
0000
0000
,
0301
1000
1001
0001
,
0001
0001
0110
0010
,
0100
0100
1001
0010
,
0001
0001
1001
0100
,
0001
0001
0110
1000
,
0100
1000
1001
0001
,
0100
1000
0110
0010
,
0100
0001
0202
0303
,
1001
0100
0010
0001
,
0010
1000
1000
0001
,
0010
0100
1000
0010
,
0001
0100
0100
0001
,
0100
1000
0010
0001
,
0100
1000
0100
0010
,
0001
1000
0100
0010
,
0010
0100
0100
0010
,
0100
1000
0100
0001
,
0010
0100
0100
0001
,
0100
1000
0010
0001
,
0100
1000
0010
0001
,
0001
0001
1001
0001
,
0010
1000
1001
1000
,
0100
0100
1001
0010
,
0010
0001
1001
0100
,
0100
0100
1001
0010
,
0010
0010
1001
0001
,
0001
0001
1001
0100
,
0100
0100
0110
0001
,
0001
1000
0001
1000
,
0010
0100
0010
0100
,
0001
0010
0100
1000
,
2002
0000
0000
3003
,
1001
0100
0010
0001
,
1000
0100
1000
1000
,
0010
0100
0010
0100
,
0001
0100
0010
1000
,
1000
0001
0100
0001
,
1000
0010
1000
1000
,
0010
0100
0010
1000
,
0001
0010
0001
1000
,
0010
0001
0010
0010
,
1000
0100
1000
0100
,
0010
0100
1000
0010
,
1000
0100
0010
0100
,
1000
0001
1000
0010
,
1000
1000
0001
0001
,
1000
0001
0100
0010
,
0100
0001
1001
1000
,
1001
1000
0110
0001
,
0001
0001
0110
0010
,
0100
0100
1010
0010
,
0001
0001
0101
0100
,
0001
0001
1010
1000
,
0100
1000
1001
0001
,
0100
1000
0010
0001
,
0100
1000
0010
0110
;

//---------------dance-single - ----------------
#NOTES:
     dance-single:
     :
     Beginner:
     3:
     0.181955,0.267368,0.031579,0.021053,0.000000,121.000000,118.000000,3.000000,2.000000,0.000000,0.000000,0.181955,0.267368,0.031579,0.021053,0.000000,121.000000,118.000000,3.000000,2.000000,0.000000,0.000000:
// measure 0
0000
0000
0000
0000
,  // measure 1
0000
0000
0000
0000
,  // measure 2
0000
0000
0000
0000
,  // measure 3
0000
0000
0000
0000
,  // measure 4
0001
0000
0000
0000
,  // measure 5
1000
0000
0000
0000
,  // measure 6
0010
0000
0000
0000
,  // measure 7
0100
0000
0000
0000
,  // measure 8
0001
0000
1000
0000
,  // measure 9
0001
0000
0100
0000
,  // measure 10
0100
0000
0001
0000
,  // measure 11
0001
0000
1000
0000
,  // measure 12
0001
0000
0010
0000
,  // measure 13
0100
0000
1000
0000
,  // measure 14
0100
0000
0010
0000
,  // measure 15
0100
0000
0001
0000
,  // measure 16
1001
0000
0010
0000
,  // measure 17
0010
0000
1000
0000
,  // measure 18
0010
0000
1000
0000
,  // measure 19
0001
0000
0100
0000
,  // measure 20
0100
0000
0010
0000
,  // measure 21
0100
0000
0100
0000
,  // measure 22
0001
0000
0100
0000
,  // measure 23
0010
0000
0100
0000
,  // measure 24
1000
0000
0100
0000
,  // measure 25
0010
0000
0100
0000
,  // measure 26
0001
0000
0010
0000
,  // measure 27
1000
0000
0010
0000
,  // measure 28
0001
0001
0000
0000
,  // measure 29
0010
0010
0000
0000
,  // measure 30
0100
0100
0000
0000
,  // measure 31
1000
1000
0000
0000
,  // measure 32
0100
0100
0000
0000
,  // measure 33
0010
0010
0000
0000
,  // measure 34
0001
0001
0000
0000
,  // measure 35
1000
1000
0000
0000
,  // measure 36
0001
0000
0001
0000
,  // measure 37
1000
0000
1000
0000
,  // measure 38
0001
0000
1000
0000
,  // measure 39
2002
0000
0000
3003
,  // measure 40
1001
0000
0010
0000
,  // measure 41
1000
0000
1000
0000
,  // measure 42
0010
0000
0010
0000
,  // measure 43
0001
0000
0010
0000
,  // measure 44
1000
0000
0100
0000
,  // measure 45
1000
0000
1000
0000
,  // measure 46
0010
0000
0010
0000
,  // measure 47
0001
0000
0001
0000
,  // measure 48
0010
0000
0010
0000
,  // measure 49
1000
0000
1000
0000
,  // measure 50
0010
0000
1000
0000
,  // measure 51
1000
0000
0010
0000
,  // measure 52
1000
0000
1000
0000
,  // measure 53
1000
0000
0001
0000
,  // measure 54
1000
0000
0100
0000
,  // measure 55
0100
0000
0001
0000
,  // measure 56
0001
0000
0100
0000
,  // measure 57
0001
0000
0100
0000
,  // measure 58
0100
0000
0010
0000
,  // measure 59
0001
0000
0100
0000
,  // measure 60
0001
0000
1000
0000
,  // measure 61
0100
0000
1000
0000
,  // measure 62
0100
0100
0100
0100
,  // measure 63
0100
0100
0100
0000
;
