#TITLE:Crazy In Love;
#SUBTITLE:(Maurice's Nu Soul Remix);
#ARTIST:Beyonce;
#TITLETRANSLIT:;
#SUBTITLETRANSLIT:;
#ARTISTTRANSLIT:;
#GENRE:;
#CREDIT:;
#BANNER:;
#BACKGROUND:;
#LYRICSPATH:;
#CDTITLE:;
#MUSIC:Crazy In Love (Maurice's Nu Soul Remix).ogg;
#OFFSET:-0.040000;
#SAMPLESTART:30.759960;
#SAMPLELENGTH:15.000000;
#SELECTABLE:YES;
#BPMS:0.000000=125.019997
;
#STOPS:
;
#BGCHANGES:;
#KEYSOUNDS:;
#ATTACKS:;

//---------------dance-single - ----------------
#NOTES:
     dance-single:
     :
     Hard:
     8:
     0.539684,0.604446,0.145300,0.058120,0.116240,390.000000,375.000000,15.000000,6.000000,0.000000,0.000000,0.539684,0.604446,0.145300,0.058120,0.116240,390.000000,375.000000,15.000000,6.000000,0.000000,0.000000:
0000
0000
0000
0000
,
0000
0000
0000
0000
,
0000
0000
0000
0000
,
0000
0000
0000
0000
,
0010
0100
0010
1000
0010
0100
0010
0001
,
0010
0100
0010
1000
0010
0100
0010
0001
,
0010
0100
0010
1000
0010
0100
0010
0001
,
0010
0100
0010
0100
0010
0100
0010
0100
,
0101
0000
0001
1000
0001
1000
0001
0000
,
1100
0000
1000
0100
1000
0100
1000
0000
,
0011
0000
0010
0001
0010
0001
0010
0000
,
0101
0000
0001
0100
0001
0100
0001
0000
,
1010
0000
1000
0010
1000
0010
1000
0000
,
1100
0000
1000
0100
1000
0100
1000
0000
,
0011
0000
0001
0010
0001
0010
0001
0000
,
1001
0000
1000
0100
1000
0100
1000
0000
,
1000
0010
1000
0010
1000
0100
1000
0100
,
0010
0001
0010
0001
0100
0001
0100
0001
,
1000
0010
1000
0010
0100
0001
0100
0001
,
0010
0001
0010
0001
1000
0100
1000
0100
,
1000
0100
0010
0100
1000
0010
0100
0010
,
1000
0001
0100
0010
0100
0001
0010
0100
,
0010
0001
0010
0001
0010
0001
0010
0001
,
1000
0100
1000
0100
1000
0100
1000
0100
,
1000
0010
1000
0010
1000
0010
1000
0010
,
0100
0001
0100
0001
0100
0001
0100
0001
,
1000
0000
0100
1000
0100
0000
1000
0100
1000
0000
0100
1000
0100
0000
1000
0000
,
0010
0000
0100
0001
0100
0000
0001
0100
0001
0000
0100
0001
0100
0000
0001
0000
,
0010
0000
0001
0010
0001
0000
0010
0001
0010
0000
0001
0010
0001
0000
1000
0000
,
0010
0000
1000
0010
1000
0000
0010
1000
0010
0000
1000
0010
1000
0000
0010
0000
,
2001
0001
0001
0000
0100
0000
3100
0000
,
1002
1000
1000
0000
0100
0000
0103
0000
,
2001
0001
0001
0000
0010
0000
3010
0000
,
1002
1000
1000
0000
0100
0000
0103
0000
,
0120
0100
0100
0000
1000
0000
1030
0000
,
0210
0010
0010
0000
0001
0000
0301
0000
,
1000
0100
1000
0100
1000
0100
1000
0100
,
0010
0001
0010
0001
0010
0001
0010
0001
,
0100
0001
0100
0001
0100
0001
0100
0001
,
1000
0010
1000
0010
1000
0010
1000
0001
,
0001
0010
0001
0010
0001
0010
0001
0001
,
1000
0100
1000
0100
1000
0100
1000
1000
,
1000
0010
1000
0010
1000
0010
0010
0010
,
0100
0001
0100
0001
0100
0001
0001
0001
,
1000
0000
0100
1000
0100
0000
1000
0100
1000
0000
0100
1000
0100
0000
1000
0000
,
0010
0000
0100
0001
0100
0000
0001
0100
0001
0000
0100
0001
0100
0000
0001
0000
,
0010
0000
0001
0010
0001
0000
0010
0001
0010
0000
0001
0010
0001
0000
1000
0000
,
0010
0000
1000
0010
1000
0000
0010
1000
0010
0000
1000
0010
1000
0000
0010
0000
,
0010
0100
0010
1000
0010
0100
0010
0001
,
0010
0100
0010
1000
0010
0100
0010
0001
,
0010
0100
0010
1000
0010
0100
0010
0001
,
0010
0100
0010
0100
0010
0100
0010
0100
,
0110
0000
0000
0000
;

//---------------dance-single - ----------------
#NOTES:
     dance-single:
     :
     Medium:
     6:
     0.348719,0.402964,0.300286,0.213106,0.000000,252.000000,221.000000,31.000000,22.000000,0.000000,0.000000,0.348719,0.402964,0.300286,0.213106,0.000000,252.000000,221.000000,31.000000,22.000000,0.000000,0.000000:
0000
0000
0000
0000
,
0000
0000
0000
0000
,
0000
0000
0000
0000
,
0000
0000
0000
0000
,
1000
0001
0100
0001
,
1000
0100
1000
0001
,
0010
0001
1000
0010
,
1000
0101
0001
1100
,
1001
0000
0001
1000
0001
1000
0001
0000
,
1100
0000
1000
0100
1000
0100
1000
0000
,
0011
0000
0010
0001
0010
0001
0010
0000
,
0101
0000
0001
0100
0001
0100
0001
0000
,
1010
0000
1000
0010
1000
0010
1000
0000
,
1100
0000
1000
0100
1000
0100
1000
0000
,
0011
0000
0001
0010
0001
0010
0001
0000
,
1001
0000
1000
0100
1000
0100
1000
0000
,
1000
0010
1000
0000
0100
1000
0100
0000
,
0010
0001
0010
0000
0001
0100
0001
0000
,
1000
0010
1000
0000
0001
0100
0001
0000
,
0010
0001
0010
0000
0100
1000
0100
0000
,
1000
0010
1000
0000
0010
0100
0010
0000
,
1000
0001
1000
0000
0001
0010
0001
0000
,
0012
0010
0010
0013
,
2100
0100
0100
3100
,
1020
1000
1000
1030
,
0201
0001
0001
0301
,
1000
0000
1000
1000
1000
0000
1000
0000
,
0001
0000
0001
0001
0001
0000
0001
0000
,
0100
0000
0100
0100
0100
0000
0100
0000
,
0010
0000
0010
0010
0010
0000
0010
0000
,
2001
0001
0100
3100
,
1002
1000
0100
0103
,
2001
0001
0010
3010
,
1002
1000
0100
0103
,
0120
0100
1000
1030
,
0210
0010
0001
0301
,
2200
0000
0000
3300
,
0022
0000
0000
0033
,
0202
0000
0000
0303
,
2020
0000
0000
3030
,
0001
0010
0001
0000
0001
0010
0001
0000
,
1000
0100
1000
0000
1000
0100
1000
0000
,
0010
1000
0010
0000
0010
1000
0010
0000
,
0100
0001
0100
0000
0100
0001
0100
0000
,
2010
0010
0010
3010
,
0102
0100
0100
0103
,
0201
0001
0001
0301
,
1020
1000
1000
1030
,
1000
0001
0100
0001
,
1000
0100
1000
0001
,
0010
0001
1000
0010
,
1000
0101
0001
1100
,
0110
0000
0000
0000
;

//---------------dance-single - ----------------
#NOTES:
     dance-single:
     :
     Easy:
     4:
     0.293367,0.327408,0.300286,0.213106,0.000000,212.000000,181.000000,31.000000,22.000000,0.000000,0.000000,0.293367,0.327408,0.300286,0.213106,0.000000,212.000000,181.000000,31.000000,22.000000,0.000000,0.000000:
0000
0000
0000
0000
,
0000
0000
0000
0000
,
0000
0000
0000
0000
,
0000
0000
0000
0000
,
1000
0001
0100
0001
,
1000
0100
1000
0001
,
0010
0001
1000
0010
,
1000
0101
0001
1100
,
1001
0001
0001
0001
,
1100
1000
1000
1000
,
0011
0010
0010
0010
,
0101
0001
0001
0001
,
1010
1000
1000
1000
,
1100
1000
1000
1000
,
0011
0001
0001
0001
,
1001
1000
1000
1000
,
1000
1000
0100
0100
,
0010
0010
0001
0001
,
1000
1000
0001
0001
,
0010
0010
0100
0100
,
1000
1000
0010
0010
,
1000
1000
0001
0001
,
0012
0010
0010
0013
,
2100
0100
0100
3100
,
1020
1000
1000
1030
,
0201
0001
0001
0301
,
1000
1000
1000
1000
,
0001
0001
0001
0001
,
0100
0100
0100
0100
,
0010
0010
0010
0010
,
2001
0001
0100
3100
,
1002
1000
0100
0103
,
2001
0001
0010
3010
,
1002
1000
0100
0103
,
0120
0100
1000
1030
,
0210
0010
0001
0301
,
2200
0000
0000
3300
,
0022
0000
0000
0033
,
0202
0000
0000
0303
,
2020
0000
0000
3030
,
0001
0001
0001
0001
,
1000
1000
1000
1000
,
0010
0010
0010
0010
,
0100
0100
0100
0100
,
2010
0010
0010
3010
,
0102
0100
0100
0103
,
0201
0001
0001
0301
,
1020
1000
1000
1030
,
1000
0001
0100
0001
,
1000
0100
1000
0001
,
0010
0001
1000
0010
,
1000
0101
0001
1100
,
0110
0000
0000
0000
;

//---------------dance-single - ----------------
#NOTES:
     dance-single:
     :
     Beginner:
     2:
     0.145300,0.201482,0.058120,0.038747,0.000000,105.000000,99.000000,6.000000,4.000000,0.000000,0.000000,0.145300,0.201482,0.058120,0.038747,0.000000,105.000000,99.000000,6.000000,4.000000,0.000000,0.000000:
// measure 0
0000
0000
0000
0000
,  // measure 1
0000
0000
0000
0000
,  // measure 2
0000
0000
0000
0000
,  // measure 3
0000
0000
0000
0000
,  // measure 4
1000
0000
0100
0000
,  // measure 5
0001
0000
0001
0000
,  // measure 6
0010
0000
1000
0000
,  // measure 7
0100
0000
0001
0000
,  // measure 8
1001
0000
0001
0000
,  // measure 9
1000
0000
1000
0000
,  // measure 10
0001
0000
0010
0000
,  // measure 11
0100
0000
0001
0000
,  // measure 12
1000
0000
1000
0000
,  // measure 13
0100
0000
1000
0000
,  // measure 14
0001
0000
0001
0000
,  // measure 15
1000
0000
1000
0000
,  // measure 16
1000
1000
0000
0000
,  // measure 17
0010
0010
0000
0000
,  // measure 18
1000
1000
0000
0000
,  // measure 19
0010
0010
0000
0000
,  // measure 20
0001
0001
0000
0000
,  // measure 21
0100
0100
0000
0000
,  // measure 22
0001
0001
0000
0000
,  // measure 23
0100
0100
0000
0000
,  // measure 24
1000
1000
1000
0000
,  // measure 25
0001
0001
0001
0000
,  // measure 26
1000
1000
1000
0000
,  // measure 27
0001
0001
0001
0000
,  // measure 28
0100
0100
0100
0000
,  // measure 29
0010
0010
0010
0000
,  // measure 30
1001
0000
0100
0000
,  // measure 31
1001
0000
0100
0000
,  // measure 32
1001
0000
0010
0000
,  // measure 33
1001
0000
0100
0000
,  // measure 34
0100
0100
0000
0000
,  // measure 35
0010
0010
0000
0000
,  // measure 36
2000
0000
0000
3000
,  // measure 37
0002
0000
0000
0003
,  // measure 38
0200
0000
0000
0300
,  // measure 39
0020
0000
0000
0030
,  // measure 40
0001
0001
0000
0000
,  // measure 41
1000
1000
0000
0000
,  // measure 42
0010
0010
0000
0000
,  // measure 43
0100
0100
0000
0000
,  // measure 44
0010
0010
0000
0000
,  // measure 45
0100
0100
0000
0000
,  // measure 46
0001
0001
0000
0000
,  // measure 47
1000
1000
0000
0000
,  // measure 48
1000
0000
0100
0000
,  // measure 49
0001
0000
0010
0000
,  // measure 50
0010
0000
1000
0000
,  // measure 51
0100
0000
0001
0000
,  // measure 52
1001
0000
0000
0000
;
