#TITLE:Colored;
#SUBTITLE:;
#ARTIST:Yamajet;
#TITLETRANSLIT:;
#SUBTITLETRANSLIT:;
#ARTISTTRANSLIT:;
#GENRE:;
#CREDIT:;
#BANNER:Colored.png;
#BACKGROUND:Alone Tonight (Club Mix)-bg.png;
#LYRICSPATH:;
#CDTITLE:;
#MUSIC:Colored.ogg;
#OFFSET:-0.040000;
#SAMPLESTART:29.559975;
#SAMPLELENGTH:14.999999;
#SELECTABLE:YES;
#BPMS:0.000000=130.000122
;
#STOPS:
;
#BGCHANGES:;
#KEYSOUNDS:;
#ATTACKS:;

//---------------dance-single - ----------------
#NOTES:
     dance-single:
     :
     Hard:
     8:
     0.480148,0.592745,0.375835,0.246977,0.085905,313.000000,278.000000,35.000000,23.000000,0.000000,0.000000,0.480148,0.592745,0.375835,0.246977,0.085905,313.000000,278.000000,35.000000,23.000000,0.000000,0.000000:
0000
0000
0000
0000
,
0000
0000
0000
0000
,
0000
0000
0000
0000
,
0000
0000
0000
0000
,
1010
0000
0000
0000
0010
0000
1000
0010
0000
1000
0010
0000
1000
0010
0000
0000
,
0101
0000
0000
0000
0001
0000
0100
0001
0000
0100
0001
0000
0100
0001
0000
0000
,
0011
0000
0000
0000
0010
0000
0001
0010
0000
0001
0010
0000
0001
0010
0000
0000
,
1100
0000
0000
0000
1000
0000
0100
1000
0000
0100
1000
0000
0100
1000
0000
0000
,
2010
0000
0000
0000
0010
0000
0000
0010
0000
0000
0010
0000
3010
0000
0000
0000
,
0102
0000
0000
0000
0100
0000
0000
0100
0000
0000
0100
0000
0103
0000
0000
0000
,
2100
0000
0000
0000
0100
0000
0000
0100
0000
0000
0100
0000
3100
0000
0000
0000
,
0012
0000
0000
0000
0010
0000
0000
0010
0000
0000
0010
0000
0013
0000
0000
0000
,
1001
0000
1000
0100
0010
0001
1000
0000
,
1001
0000
0001
0010
0100
1000
0001
0000
,
1001
0001
0100
0001
1001
1000
0100
1000
,
1001
1001
0110
0110
2002
0000
3003
0000
,
1001
1000
0100
1000
0100
1000
0100
1000
,
0001
0010
0001
0010
0001
0010
0001
0010
,
0001
1000
0001
1000
0001
1000
0001
1000
,
0010
0100
0010
0100
0010
0100
0010
0100
,
0010
1000
0010
1000
0010
1000
0010
1000
,
0001
0100
0001
0100
0001
0100
0001
0100
,
0001
1000
0010
0100
0001
1000
0010
0100
,
2002
0000
0000
3003
,
1100
0000
1000
0010
1000
0010
0100
0000
,
0101
0000
0001
0100
0001
0100
0010
0000
,
1010
0000
1000
0010
1000
0010
0100
0000
,
0011
0000
0001
0100
0001
0100
0010
0000
,
1000
0100
1000
0000
0001
0100
0001
0000
,
1000
0100
1000
0000
0001
0100
0001
0000
,
1000
0010
1000
0000
0001
0010
0001
0000
,
1000
0010
1000
0000
0001
0010
0001
0000
,
1002
0103
2001
3100
,
1002
0103
1001
0110
,
2001
3100
1002
0103
,
2001
3100
1001
0110
,
2000
0000
0100
0100
3200
0000
0010
0010
,
0320
0000
0001
0001
0032
0000
0100
0100
,
0203
0000
0010
0010
0320
0000
1000
1000
,
2030
0000
0001
0001
3002
0000
0100
0100
,
0200
0000
0000
0000
,
0303
0000
1001
0100
0001
0100
0001
0100
,
0001
1000
0001
1000
0010
1000
0010
1000
,
0100
1000
0100
1000
0001
0010
0001
0010
,
0001
1000
0001
1000
0010
0100
0010
0100
,
0001
0100
0001
0100
0010
1000
0010
1000
,
0001
0010
0001
0010
0100
1000
0100
1000
,
0001
1000
0001
1000
0010
0100
0010
0100
,
1001
0000
0000
0000
;

//---------------dance-single - ----------------
#NOTES:
     dance-single:
     :
     Medium:
     6:
     0.362029,0.412345,0.343620,0.332882,0.000000,236.000000,204.000000,32.000000,31.000000,0.000000,0.000000,0.362029,0.412345,0.343620,0.332882,0.000000,236.000000,204.000000,32.000000,31.000000,0.000000,0.000000:
0000
0000
0000
0000
,
0000
0000
0000
0000
,
0000
0000
0000
0000
,
0000
0000
0000
0000
,
2020
0000
0000
3030
,
0202
0000
0000
0303
,
0022
0000
0000
0033
,
2200
0000
0000
3300
,
2010
0010
0010
3010
,
0102
0100
0100
0103
,
2100
0100
0100
3100
,
0012
0010
0010
0013
,
1001
0000
1000
0100
0010
0001
1000
0000
,
1001
0000
0001
0010
0100
1000
0001
0000
,
1001
0100
1001
0010
,
1001
0110
2002
3003
,
1001
0000
0100
1000
0100
0000
0100
1000
,
0001
0000
0001
0010
0001
0000
0001
0010
,
0001
0000
0001
1000
0001
0000
0001
1000
,
0010
0000
0010
0100
0010
0000
0010
0100
,
0010
0000
0010
1000
0010
0000
0010
1000
,
0001
0000
0001
0100
0001
0000
0001
0100
,
0001
0000
0010
0100
0001
0000
1000
0002
,
2000
0000
0000
3003
,
1100
0000
1000
0010
1000
0000
0100
0000
,
1001
0000
0001
0100
0001
0000
0010
0000
,
1001
0000
1000
0010
1000
0000
0100
0000
,
1001
0000
0001
0100
0001
0000
0001
0000
,
1000
0100
1000
0000
1000
0000
1000
0000
,
0001
0100
0001
0000
0001
0000
0001
0000
,
1000
0010
1000
0000
1000
0000
1000
0000
,
0001
0010
0001
0000
0001
0000
0001
0000
,
1002
0103
2001
3100
,
1002
0103
1001
0110
,
2001
3100
1002
0103
,
2001
3100
1001
0110
,
2000
0000
0100
0100
3200
0000
0010
0010
,
0320
0000
0001
0001
0032
0000
0100
0100
,
0203
0000
0010
0010
0320
0000
1000
1000
,
2030
0000
0001
0001
3002
0000
0100
0100
,
0200
0000
0000
0000
,
0303
0000
1001
0000
0001
0100
0001
0000
,
0001
1000
0001
0000
0010
1000
0010
0000
,
0100
1000
0100
0000
0001
0010
0001
0000
,
0001
1000
0001
0000
0010
0100
0010
0000
,
0001
0100
0001
0000
0010
1000
0010
0000
,
0001
0010
0001
0000
0100
1000
0100
0000
,
0001
1000
0001
0000
0010
0100
0010
0000
,
1001
0000
0000
0000
;

//---------------dance-single - ----------------
#NOTES:
     dance-single:
     :
     Easy:
     3:
     0.237773,0.309258,0.139596,0.311406,0.000000,155.000000,142.000000,13.000000,29.000000,0.000000,0.000000,0.237773,0.309258,0.139596,0.311406,0.000000,155.000000,142.000000,13.000000,29.000000,0.000000,0.000000:
0000
0000
0000
0000
,
0000
0000
0000
0000
,
0000
0000
0000
0000
,
0000
0000
0000
0000
,
2000
0000
0000
3000
,
0002
0000
0000
0003
,
0020
0000
0000
0030
,
0200
0000
0000
0300
,
2010
0010
0010
3000
,
0102
0100
0100
0003
,
2100
0100
0100
3000
,
0012
0010
0010
0003
,
1001
1000
0010
1000
,
1001
0001
0100
0001
,
1001
0000
1001
0000
,
1001
0100
2002
3003
,
1001
0100
0001
0100
,
0001
1000
0001
1000
,
0001
0100
0001
1000
,
0010
0100
0010
1000
,
0010
1000
0100
0010
,
0001
0100
0010
1000
,
0001
0010
0001
1000
,
2002
0000
0000
3003
,
1100
1000
1000
0100
,
1000
0001
0001
0010
,
0001
1000
1000
0100
,
1000
0001
0001
0001
,
1000
1000
1000
1000
,
0001
0001
0001
0001
,
1000
1000
1000
1000
,
0001
0001
0001
0001
,
0002
0103
2000
3100
,
0002
0103
2000
3100
,
2000
3100
0002
0103
,
2000
3100
0002
1003
,
2000
0000
3200
0000
,
0320
0000
0032
0000
,
0203
0000
0320
0000
,
2030
0000
3002
0000
,
2000
0000
0000
0000
,
0000
3003
0001
0001
,
1000
1000
0010
0010
,
0100
0100
0001
0001
,
1000
1000
0010
0010
,
0100
0100
0010
0010
,
1000
1000
0100
0100
,
0001
0001
0010
0010
,
1000
0000
0000
0000
;

//---------------dance-single - ----------------
#NOTES:
     dance-single:
     :
     Beginner:
     2:
     0.130392,0.180401,0.032214,0.118120,0.000000,85.000000,82.000000,3.000000,11.000000,0.000000,0.000000,0.130392,0.180401,0.032214,0.118120,0.000000,85.000000,82.000000,3.000000,11.000000,0.000000,0.000000:
// measure 0
0000
0000
0000
0000
,  // measure 1
0000
0000
0000
0000
,  // measure 2
0000
0000
0000
0000
,  // measure 3
0000
0000
0000
0000
,  // measure 4
1000
0000
0000
0000
,  // measure 5
0001
0000
0000
0000
,  // measure 6
0100
0000
0000
0000
,  // measure 7
0010
0000
0000
0000
,  // measure 8
0010
0010
0010
0000
,  // measure 9
0100
0100
0100
0000
,  // measure 10
1000
1000
1000
0000
,  // measure 11
0001
0001
0001
0000
,  // measure 12
1000
0000
0010
0000
,  // measure 13
0001
0000
0100
0000
,  // measure 14
1000
0000
0001
0000
,  // measure 15
0100
0100
0100
0000
,  // measure 16
1001
0000
0001
0000
,  // measure 17
0001
0000
0001
0000
,  // measure 18
1000
0000
1000
0000
,  // measure 19
1000
0000
1000
0000
,  // measure 20
0010
0000
0010
0000
,  // measure 21
0010
0000
0010
0000
,  // measure 22
0100
0000
0100
0000
,  // measure 23
0200
0000
0000
0300
,  // measure 24
0100
0000
0001
0000
,  // measure 25
1000
0000
0001
0000
,  // measure 26
0001
0000
1000
0000
,  // measure 27
1000
0000
0001
0000
,  // measure 28
1000
1000
0000
0000
,  // measure 29
0001
0001
0000
0000
,  // measure 30
1000
1000
0000
0000
,  // measure 31
0001
0001
0000
0000
,  // measure 32
0002
0003
0001
0000
,  // measure 33
2000
3000
1000
0000
,  // measure 34
0020
0030
0010
0000
,  // measure 35
0200
0300
0100
0000
,  // measure 36
2000
0000
3000
0000
,  // measure 37
0020
0000
0030
0000
,  // measure 38
0200
0000
0300
0000
,  // measure 39
0002
0000
0003
0000
,  // measure 40
2002
0000
0000
0000
,  // measure 41
0000
3003
0000
0000
,  // measure 42
1000
1000
0000
0000
,  // measure 43
0100
0100
0000
0000
,  // measure 44
0010
0010
0000
0000
,  // measure 45
0001
0001
0000
0000
,  // measure 46
1000
1000
0000
0000
,  // measure 47
0001
0001
0000
0000
,  // measure 48
1001
0000
0000
0000
;
