#TITLE:Breathe In;
#SUBTITLE:(DJ Encore Remix);
#ARTIST:Frou Frou;
#TITLETRANSLIT:;
#SUBTITLETRANSLIT:;
#ARTISTTRANSLIT:;
#GENRE:;
#CREDIT:;
#BANNER:;
#BACKGROUND:;
#LYRICSPATH:;
#CDTITLE:;
#MUSIC:Breathe In (DJ Encore Remix).ogg;
#OFFSET:-0.300000;
#SAMPLESTART:43.480030;
#SAMPLELENGTH:15.040000;
#SELECTABLE:YES;
#BPMS:0.000000=130.020325
;
#STOPS:
;
#BGCHANGES:;
#KEYSOUNDS:;
#ATTACKS:;

//---------------dance-single - ----------------
#NOTES:
     dance-single:
     :
     Hard:
     7:
     0.439809,0.481658,0.278246,0.260295,0.008976,343.000000,312.000000,31.000000,29.000000,0.000000,0.000000,0.439809,0.481658,0.278246,0.260295,0.008976,343.000000,312.000000,31.000000,29.000000,0.000000,0.000000:
0000
0000
0000
0000
,
0000
0000
0000
0000
,
0000
0000
0000
0000
,
0000
0000
0000
0000
,
0220
0000
0300
1000
,
2000
0000
0000
0000
3000
0000
1030
0001
,
0100
0001
2000
0000
0000
0000
0000
0000
0000
0000
0001
0000
0001
0000
0000
0000
,
0002
0000
3003
0000
,
1001
0100
0100
0100
,
1001
0100
0100
0100
,
1001
1000
0010
0100
,
1001
0001
0100
0010
,
0101
0001
0100
0001
,
1100
1000
0100
1000
,
2001
0010
0100
3010
,
1002
0100
0010
0103
,
1000
0100
1000
0100
1000
0001
1000
0001
,
0100
0001
0100
0001
0100
0010
0100
0010
,
1000
0010
1000
0010
0100
0001
0100
0001
,
0010
0001
0010
0001
1000
0100
1000
0100
,
1000
0010
0100
0001
1000
0010
0100
0001
,
1000
0100
0010
0001
1000
0100
0010
0001
,
1000
0010
0100
0010
1000
0100
0010
0100
,
1000
0001
0010
0100
0010
0001
0100
0010
,
0200
0001
0301
0002
1000
1003
2000
0100
,
3100
1000
0100
1000
0001
0010
0001
0010
,
0002
0100
0103
0020
1000
1030
2000
0100
,
3100
1000
0100
0010
0100
1000
0001
0100
,
0001
0100
0001
0100
0001
0100
0101
0000
,
1000
0100
1000
0100
1000
0100
1100
0000
,
0001
0010
0001
0010
0001
0010
0011
0000
,
1000
0010
1000
0010
1000
0010
1010
0000
,
1000
0100
0010
0001
1000
0001
1001
0000
,
0001
0010
0100
1000
0001
1000
1001
0000
,
1000
0001
0100
0010
1000
0001
1001
0000
,
0001
1000
0010
0100
0001
1000
1001
0000
,
2002
0000
0000
0000
0000
0000
0000
0000
0003
0000
0000
0000
0100
0000
0000
0200
,
0000
0000
3000
1000
,
2300
0020
3000
0100
,
0200
0000
0000
0330
,
1001
0100
0100
0100
,
1001
0100
0100
0100
,
1001
1000
0010
0100
,
1001
0001
0100
0010
,
0101
0001
0100
0001
,
1100
1000
0100
1000
,
2001
0010
0100
3010
,
1002
0100
0010
0103
,
1000
0100
1000
0100
1000
0001
1000
0001
,
0100
0001
0100
0001
0100
0010
0100
0010
,
1000
0010
1000
0010
0100
0001
0100
0001
,
0010
0001
0010
0001
1000
0100
1000
0100
,
1000
0010
0100
0001
1000
0010
0100
0001
,
1000
0100
0010
0001
1000
0100
0010
0001
,
1000
0010
0100
0010
1000
0100
0010
0100
,
1000
0001
0010
0100
0010
0001
0100
0001
,
2002
0000
3003
2200
0000
3300
0022
0000
,
0000
0000
0033
1000
0001
0000
0110
0000
,
2002
0000
3000
0100
0000
0100
0000
0100
,
0000
0100
0000
0100
0000
0103
0000
0000
;

//---------------dance-single - ----------------
#NOTES:
     dance-single:
     :
     Medium:
     5:
     0.329536,0.374623,0.269271,0.278246,0.000000,257.000000,227.000000,30.000000,31.000000,0.000000,0.000000,0.329536,0.374623,0.269271,0.278246,0.000000,257.000000,227.000000,30.000000,31.000000,0.000000,0.000000:
// measure 0
0000
0000
0000
0000
,  // measure 1
0000
0000
0000
0000
,  // measure 2
0000
0000
0000
0000
,  // measure 3
0000
0000
0000
0000
,  // measure 4
0220
0000
0300
0000
,  // measure 5
2000
0000
3000
0030
,  // measure 6
0002
2000
0000
0000
0003
0001
0001
0000
,  // measure 7
0020
0000
3030
0000
,  // measure 8
1001
0100
0100
0100
,  // measure 9
1001
0100
0100
0100
,  // measure 10
1001
1000
0010
0100
,  // measure 11
1001
0001
0100
0010
,  // measure 12
0101
0001
0100
0001
,  // measure 13
1100
1000
0100
1000
,  // measure 14
2001
0010
0100
3010
,  // measure 15
1002
0100
0010
0103
,  // measure 16
1000
0100
1000
0100
1000
0000
0000
0000
,  // measure 17
0001
0100
0001
0100
0001
0000
0000
0000
,  // measure 18
1000
0010
1000
0010
0100
0000
0000
0000
,  // measure 19
0001
0010
0001
1000
0100
0000
0000
0000
,  // measure 20
0100
0010
0100
0001
1000
0000
0000
0000
,  // measure 21
0100
0010
0001
1000
0100
0000
0000
0000
,  // measure 22
0100
0010
1000
0100
0010
0000
0000
0000
,  // measure 23
0100
0010
0001
0100
0010
0000
0000
0000
,  // measure 24
0200
0000
0300
0002
0000
0003
2000
0000
,  // measure 25
3100
1000
0100
1000
0001
0010
0001
0010
,  // measure 26
0002
0000
0003
2000
0000
3000
0200
0000
,  // measure 27
1300
0100
0010
0100
1000
0001
0100
0000
,  // measure 28
0001
0100
0001
0000
0001
0000
0101
0000
,  // measure 29
1000
0100
1000
0000
1000
0000
1100
0000
,  // measure 30
0001
0010
0001
0000
0001
0000
0011
0000
,  // measure 31
1000
0010
1000
0000
1000
0000
1010
0000
,  // measure 32
1000
0100
0010
0000
0001
0000
1001
0000
,  // measure 33
0001
0010
0100
0000
1000
0000
1001
0000
,  // measure 34
1000
0001
0100
0000
0010
0000
1001
0000
,  // measure 35
0001
1000
0010
0000
0100
0000
1001
0000
,  // measure 36
2002
0000
0003
0200
,  // measure 37
0000
0000
3000
1000
,  // measure 38
2300
0020
3000
0100
,  // measure 39
0200
0000
0000
0330
,  // measure 40
1001
0100
0100
0100
,  // measure 41
1001
0100
0100
0100
,  // measure 42
1001
1000
0010
0100
,  // measure 43
1001
0001
0100
0010
,  // measure 44
0101
0001
0100
0001
,  // measure 45
1100
1000
0100
1000
,  // measure 46
2001
0010
0100
3010
,  // measure 47
1002
0100
0010
0103
,  // measure 48
1000
0100
1000
0100
1000
0000
0000
0000
,  // measure 49
0001
0100
0001
0100
0010
0000
0000
0000
,  // measure 50
1000
0010
1000
0010
0100
0000
0000
0000
,  // measure 51
0001
0010
0001
1000
0100
0000
0000
0000
,  // measure 52
0100
0001
1000
0010
0100
0000
0000
0000
,  // measure 53
0001
1000
0100
0010
0001
0000
0000
0000
,  // measure 54
1000
0100
0010
0100
1000
0000
0000
0000
,  // measure 55
0001
0100
0001
0100
0001
0000
0000
0000
,  // measure 56
2002
0000
3003
0220
0000
0330
2002
0000
,  // measure 57
0000
0000
3003
1000
0001
0000
0210
0000
,  // measure 58
0002
0000
0300
2000
0000
0000
0000
0000
,  // measure 59
0000
0000
0000
0000
0000
3003
0000
0000
;

//---------------dance-single - ----------------
#NOTES:
     dance-single:
     :
     Easy:
     3:
     0.192336,0.213621,0.188490,0.179514,0.000000,150.000000,129.000000,21.000000,20.000000,0.000000,0.000000,0.192336,0.213621,0.188490,0.179514,0.000000,150.000000,129.000000,21.000000,20.000000,0.000000,0.000000:
// measure 0
0000
0000
0000
0000
,  // measure 1
0000
0000
0000
0000
,  // measure 2
0000
0000
0000
0000
,  // measure 3
0000
0000
0000
0000
,  // measure 4
0220
0000
0300
0000
,  // measure 5
2000
0000
3000
0030
,  // measure 6
2002
0000
0000
0003
,  // measure 7
0020
0000
3030
0000
,  // measure 8
1001
0000
0100
0000
,  // measure 9
1001
0000
0100
0000
,  // measure 10
1001
0000
0010
0000
,  // measure 11
1001
0000
0100
0000
,  // measure 12
0101
0000
0100
0000
,  // measure 13
1100
0000
0100
0000
,  // measure 14
2001
0000
0100
3000
,  // measure 15
1002
0000
0010
0003
,  // measure 16
1000
1000
1000
0000
,  // measure 17
0001
0001
0001
0000
,  // measure 18
1000
1000
0100
0000
,  // measure 19
0001
0001
0100
0000
,  // measure 20
1000
1000
0100
0000
,  // measure 21
0001
0001
0100
0000
,  // measure 22
1000
1000
0010
0000
,  // measure 23
0001
0001
0010
0000
,  // measure 24
0001
0001
0001
0000
,  // measure 25
0100
0100
0100
0000
,  // measure 26
0010
0010
0010
0000
,  // measure 27
1000
1000
1000
0000
,  // measure 28
0001
0001
0001
0000
,  // measure 29
1000
1000
1000
0000
,  // measure 30
0001
0001
0001
0000
,  // measure 31
1000
1000
1000
0000
,  // measure 32
0010
0010
0010
0000
,  // measure 33
0100
0100
0100
0000
,  // measure 34
0010
0010
0010
0000
,  // measure 35
0100
0100
0100
0000
,  // measure 36
2002
0000
0003
0200
,  // measure 37
0000
0000
3000
1000
,  // measure 38
2300
0020
3000
0100
,  // measure 39
0200
0000
0000
0330
,  // measure 40
1001
0000
0100
0000
,  // measure 41
1001
0000
0100
0000
,  // measure 42
1001
0000
0010
0000
,  // measure 43
1001
0000
0100
0000
,  // measure 44
0101
0000
0100
0000
,  // measure 45
1100
0000
0100
0000
,  // measure 46
2001
0000
0100
3000
,  // measure 47
1002
0000
0010
0003
,  // measure 48
1000
1000
1000
0000
,  // measure 49
0001
0001
0010
0000
,  // measure 50
1000
1000
0100
0000
,  // measure 51
0001
0001
0100
0000
,  // measure 52
1000
1000
0100
0000
,  // measure 53
0001
0001
0010
0000
,  // measure 54
1000
1000
0100
0000
,  // measure 55
0001
0001
0100
0000
,  // measure 56
0220
0000
0000
0000
,  // measure 57
0000
0000
0330
0000
,  // measure 58
2002
0000
0000
0000
,  // measure 59
0000
0000
3003
0000
;

//---------------dance-single - ----------------
#NOTES:
     dance-single:
     :
     Beginner:
     1:
     0.143611,0.185348,0.017951,0.071806,0.000000,112.000000,110.000000,2.000000,8.000000,0.000000,0.000000,0.143611,0.185348,0.017951,0.071806,0.000000,112.000000,110.000000,2.000000,8.000000,0.000000,0.000000:
// measure 0
0000
0000
0000
0000
,  // measure 1
0000
0000
0000
0000
,  // measure 2
0000
0000
0000
0000
,  // measure 3
0000
0000
0000
0000
,  // measure 4
1000
0000
0000
0000
,  // measure 5
1000
0000
0000
0000
,  // measure 6
0001
0000
0000
0000
,  // measure 7
0001
0000
0000
0000
,  // measure 8
1000
0000
0100
0000
,  // measure 9
0001
0000
0100
0000
,  // measure 10
1000
0000
0010
0000
,  // measure 11
0001
0000
0100
0000
,  // measure 12
0001
0000
0100
0000
,  // measure 13
1000
0000
0100
0000
,  // measure 14
0001
0000
0100
0000
,  // measure 15
1000
0000
0010
0000
,  // measure 16
1000
1000
0000
0000
,  // measure 17
0001
0001
0000
0000
,  // measure 18
1000
1000
0000
0000
,  // measure 19
0001
0001
0000
0000
,  // measure 20
1000
1000
0000
0000
,  // measure 21
0001
0001
0000
0000
,  // measure 22
1000
1000
0000
0000
,  // measure 23
0001
0001
0000
0000
,  // measure 24
0001
0001
0001
0000
,  // measure 25
0100
0100
0100
0000
,  // measure 26
0010
0010
0010
0000
,  // measure 27
1000
1000
1000
0000
,  // measure 28
0001
0001
0001
0000
,  // measure 29
1000
1000
1000
0000
,  // measure 30
0001
0001
0001
0000
,  // measure 31
1000
1000
1000
0000
,  // measure 32
0010
0010
0010
0000
,  // measure 33
0100
0100
0100
0000
,  // measure 34
0010
0010
0010
0000
,  // measure 35
0100
0100
0100
0000
,  // measure 36
0002
0000
0003
0000
,  // measure 37
2000
0000
3000
0000
,  // measure 38
0020
0000
0030
0000
,  // measure 39
0200
0000
0300
0000
,  // measure 40
0001
0000
0100
0000
,  // measure 41
0001
0000
0100
0000
,  // measure 42
1000
0000
0010
0000
,  // measure 43
1000
0000
0010
0000
,  // measure 44
0001
0000
0100
0000
,  // measure 45
1000
0000
0100
0000
,  // measure 46
0001
0000
0100
0000
,  // measure 47
1000
0000
0010
0000
,  // measure 48
1000
1000
0000
0000
,  // measure 49
0001
0001
0000
0000
,  // measure 50
1000
1000
0000
0000
,  // measure 51
0001
0001
0000
0000
,  // measure 52
1000
1000
0000
0000
,  // measure 53
0001
0001
0000
0000
,  // measure 54
1000
1000
0000
0000
,  // measure 55
0001
0001
0000
0000
,  // measure 56
0220
0000
0000
0000
,  // measure 57
0330
0000
0000
0000
,  // measure 58
2002
0000
0000
0000
,  // measure 59
3003
0000
0000
0000
;
