#TITLE:Better When You're Gone;
#SUBTITLE:;
#ARTIST:David Guetta, Brooks & Loote;
#TITLETRANSLIT:;
#SUBTITLETRANSLIT:;
#ARTISTTRANSLIT:;
#GENRE:;
#CREDIT:;
#BANNER:;
#BACKGROUND:;
#LYRICSPATH:;
#CDTITLE:;
#MUSIC:Better When You're Gone.ogg;
#OFFSET:-0.040000;
#SAMPLESTART:46.319988;
#SAMPLELENGTH:14.999996;
#SELECTABLE:YES;
#BPMS:0.000000=127.939995
;
#STOPS:
;
#BGCHANGES:;
#KEYSOUNDS:;
#ATTACKS:;

//---------------dance-single - ----------------
#NOTES:
     dance-single:
     :
     Hard:
     8:
     0.461681,0.518799,0.232422,0.121745,0.221354,292.000000,271.000000,21.000000,11.000000,0.000000,0.000000,0.461681,0.518799,0.232422,0.121745,0.221354,292.000000,271.000000,21.000000,11.000000,0.000000,0.000000:
// measure 0
0000
0000
0000
0000
,  // measure 1
0000
0000
0000
0000
,  // measure 2
0000
0000
0000
0000
,  // measure 3
1000
0001
0100
0010
,  // measure 4
1000
0001
1000
0001
,  // measure 5
0001
0010
1000
0010
0001
0000
1001
0000
,  // measure 6
0001
0010
1000
0010
0001
0000
1001
0000
,  // measure 7
1000
0100
0001
0100
1000
0000
1001
0000
,  // measure 8
1000
0100
0001
0100
1000
0000
1001
0000
,  // measure 9
1000
0000
0000
1000
0000
0000
1000
0000
0100
0000
0000
0000
0100
0000
0000
0000
,  // measure 10
0001
0000
0000
0001
0000
0000
0001
0000
0100
0000
0000
0000
0100
0000
0000
0000
,  // measure 11
1000
0000
0000
1000
0000
0000
1000
0000
0010
0000
0000
0000
0010
0000
0000
0000
,  // measure 12
0001
0000
0000
0001
0000
0000
0001
0000
0010
0000
0000
0000
0010
0000
0000
0000
,  // measure 13
1000
0001
1000
0001
1000
0000
1001
0000
,  // measure 14
0010
0100
0010
0100
0010
0000
0110
0000
,  // measure 15
1000
0010
1000
0010
1000
0000
1010
0000
,  // measure 16
0001
0010
0001
0010
0001
0000
0011
0000
,  // measure 17
1000
0001
0000
0000
0001
0100
0000
0000
0100
0010
0000
0000
0010
1000
0000
0000
,  // measure 18
1000
0100
0000
0000
0100
1000
0000
0000
1000
0001
0000
0000
0001
0100
0000
0000
,  // measure 19
0100
0010
0000
0000
0010
1000
0000
0000
1000
0001
0000
0000
0001
0100
0000
0000
,  // measure 20
0100
0001
0000
0000
0001
0010
0000
0000
0010
0001
0000
0000
0001
1000
0001
0000
,  // measure 21
1000
0100
1000
0100
1000
0100
1000
0100
,  // measure 22
0010
0001
0010
0001
0010
0001
0010
0001
,  // measure 23
1000
0010
1000
0010
0100
0001
0100
0001
,  // measure 24
0220
0000
0000
0330
,  // measure 25
2002
0000
0000
3003
,  // measure 26
0220
0000
0000
0330
,  // measure 27
1000
0000
0000
0000
1000
0000
0010
0000
1000
0000
0000
0000
1000
0000
0000
2000
,  // measure 28
0000
0000
0000
0000
0000
0000
0000
0000
3001
0000
0010
0000
0100
0000
0010
0002
,  // measure 29
0000
0000
0000
0000
1003
0000
0010
0000
0100
0000
0000
0000
0010
0000
0000
0020
,  // measure 30
0000
0000
0000
0000
0000
0000
0000
0000
0130
0000
0001
0000
0100
0001
0000
0200
,  // measure 31
0000
0000
0000
0000
0310
0000
0010
0000
1000
0000
0000
0000
1000
0000
0000
2000
,  // measure 32
0000
0000
0000
0000
0000
0000
0000
0000
3001
0000
0100
0000
0010
0000
0100
0001
,  // measure 33
0010
0000
0000
0000
0001
0000
1000
0000
0100
0000
0000
0000
1100
0000
0000
0101
,  // measure 34
0000
0000
1100
0000
0000
0101
0000
0000
1100
0000
1000
0000
0100
0000
0010
0000
,  // measure 35
0001
0100
0010
1000
0001
0100
0010
1000
,  // measure 36
0001
0010
0100
1000
0001
0010
0100
1000
,  // measure 37
0010
0100
0010
0100
0001
1000
0001
1000
,  // measure 38
1010
0101
0011
1100
,  // measure 39
1001
0000
0000
1000
0001
0000
0000
0001
0100
0000
0000
0100
0010
0000
0100
0000
,  // measure 40
0010
1000
0100
1000
0001
0100
0001
0010
,  // measure 41
0001
0000
0000
0001
0100
0000
0000
0100
0010
0000
0000
0010
1000
0000
0000
1000
,  // measure 42
0100
1000
0010
0100
0001
1000
0100
1000
,  // measure 43
0010
0000
0000
0010
0100
0000
0000
0100
0001
0000
0000
0001
1000
0000
0000
1000
,  // measure 44
0001
0100
0010
1000
0100
0010
0001
0100
,  // measure 45
0010
1000
0100
0010
0001
1000
0100
0010
,  // measure 46
0001
1000
0001
0100
0010
1000
0001
0100
;

//---------------dance-single - ----------------
#NOTES:
     dance-single:
     :
     Medium:
     6:
     0.346261,0.389099,0.088542,0.143880,0.066406,219.000000,211.000000,8.000000,13.000000,0.000000,0.000000,0.346261,0.389099,0.088542,0.143880,0.066406,219.000000,211.000000,8.000000,13.000000,0.000000,0.000000:
0000
0000
0000
0000
,
0000
0000
0000
0000
,
0000
0000
0000
0000
,
1000
1000
1000
1000
,
1000
1000
1000
1000
,
0001
0010
1000
0010
0001
0000
0001
0000
,
0001
0010
1000
0010
0001
0000
0001
0000
,
1000
0100
0001
0100
1000
0000
1000
0000
,
1000
0100
0001
0100
1000
0000
1000
0000
,
1000
0000
0000
1000
0000
0000
1000
0000
0100
0000
0000
0000
0100
0000
0000
0000
,
0001
0000
0000
0001
0000
0000
0001
0000
0100
0000
0000
0000
0100
0000
0000
0000
,
1000
0000
0000
1000
0000
0000
1000
0000
0010
0000
0000
0000
0010
0000
0000
0000
,
0001
0000
0000
0001
0000
0000
0001
0000
0010
0000
0000
0000
0010
0000
0000
0000
,
1000
0001
1000
0001
1000
0000
1000
0000
,
0010
0100
0010
0100
0010
0000
0010
0000
,
1000
0010
1000
0010
1000
0000
1000
0000
,
0001
0010
0001
0010
0001
0000
0001
0000
,
1000
0001
0100
0010
,
1000
0100
1000
0001
,
0100
0010
1000
0001
,
0100
0001
0010
0001
,
1000
0100
1000
0100
1000
0100
1000
0000
,
0001
0010
0001
0010
0001
0010
0001
0000
,
1000
0010
1000
0000
0001
0100
0001
0000
,
0220
0000
0000
0330
,
2002
0000
0000
3003
,
0220
0000
0000
0330
,
1000
0000
0000
0000
1000
0000
0010
0000
1000
0000
0000
0000
1000
0000
0000
2000
,
0000
0000
0000
0000
0000
0000
0000
0000
3001
0000
0000
0000
0001
0000
0000
0002
,
0000
0000
0000
0000
0103
0000
0010
0000
0100
0000
0000
0000
0010
0000
0000
0020
,
0000
0000
0000
0000
0000
0000
0000
0000
0130
0000
0001
0000
0100
0000
0000
0200
,
0000
0000
0000
0000
0310
0000
0010
0000
1000
0000
0000
0000
1000
0000
0000
2000
,
0000
0000
0000
0000
0000
0000
0000
0000
3001
0000
0000
0000
0001
0000
0000
0001
,
0000
0000
0000
0000
0001
0000
1000
0000
0100
0000
0000
0000
0100
0000
0000
0100
,
0000
0000
0100
0000
0000
0100
0000
0000
0100
0000
0000
0000
1001
0000
0000
0000
,
0001
0001
0001
0001
,
0001
0001
0001
0001
,
0001
0100
0001
0100
0001
0100
0001
0100
,
0001
2002
0000
3003
,
1001
0000
0001
0000
0100
0000
0010
0100
,
0010
1000
0100
0000
1000
0100
1000
0010
,
1000
0100
0010
0001
,
1000
0001
0010
0000
0001
1000
0100
0000
,
1000
0100
0010
0001
,
0001
0010
0100
1000
,
1001
0000
0100
0010
0100
0010
0100
0010
,
0100
0000
1001
0000
0100
0010
0100
0010
;

//---------------dance-single - ----------------
#NOTES:
     dance-single:
     :
     Easy:
     3:
     0.240327,0.284578,0.088542,0.210286,0.000000,152.000000,144.000000,8.000000,19.000000,0.000000,0.000000,0.240327,0.284578,0.088542,0.210286,0.000000,152.000000,144.000000,8.000000,19.000000,0.000000,0.000000:
0000
0000
0000
0000
,
0000
0000
0000
0000
,
0000
0000
0000
0000
,
0001
0001
0001
0001
,
1000
1000
1000
1000
,
0001
1000
0001
0001
,
0001
1000
0001
0001
,
1000
0001
1000
1000
,
1000
0001
1000
1000
,
2000
0000
3100
0000
,
0002
0000
0103
0000
,
2000
0000
3010
0000
,
0002
0000
0013
0000
,
1000
1000
1000
1000
,
0010
0010
0010
0010
,
0100
0100
0100
0100
,
0001
0001
0001
0001
,
1000
0001
0100
0010
,
1000
0100
1000
0001
,
0100
0001
1000
0001
,
0100
0010
1000
0001
,
1000
1000
1000
1000
,
0001
0001
0001
0001
,
1000
1000
0001
0001
,
0220
0000
0000
0330
,
2002
0000
0000
3003
,
0220
0000
0000
0330
,
1000
1000
1000
2000
,
0000
0000
3001
0002
,
0000
0103
0100
0020
,
0000
0000
0130
0200
,
0000
0310
1000
2000
,
0000
0000
3001
0002
,
0000
0103
0100
0200
,
0000
0000
0300
1001
,
0001
0001
0001
0001
,
1000
1000
1000
1000
,
0001
0001
1000
1000
,
2002
0000
0000
3003
,
1001
0001
0100
0010
,
0010
0100
1000
1000
,
1000
0100
0010
0001
,
1000
0010
0001
0100
,
1000
0100
0010
0001
,
0001
0010
0100
1000
,
1001
0100
0100
0100
,
0100
1001
0100
0100
;

//---------------dance-single - ----------------
#NOTES:
     dance-single:
     :
     Beginner:
     2:
     0.142299,0.181095,0.055339,0.110677,0.000000,90.000000,85.000000,5.000000,10.000000,0.000000,0.000000,0.142299,0.181095,0.055339,0.110677,0.000000,90.000000,85.000000,5.000000,10.000000,0.000000,0.000000:
0000
0000
0000
0000
,
0000
0000
0000
0000
,
0000
0000
0000
0000
,
0001
0001
0001
0000
,
1000
1000
1000
0000
,
0001
0000
0001
0000
,
0001
0000
0001
0000
,
1000
0000
1000
0000
,
1000
0000
1000
0000
,
2000
0000
3000
0000
,
0002
0000
0003
0000
,
2000
0000
3000
0000
,
0002
0000
0003
0000
,
1000
1000
1000
0000
,
0010
0010
0010
0000
,
0100
0100
0100
0000
,
0001
0001
0001
0000
,
1000
0000
0100
0000
,
0010
0000
0001
0000
,
0100
0000
0010
0000
,
1000
0000
0001
0000
,
1000
1000
1000
0000
,
0001
0001
0001
0000
,
1000
0000
0001
0000
,
0220
0000
0000
0330
,
0000
0000
0000
0000
,
2002
0000
0000
3003
,
1001
0000
1000
0000
,
0000
0000
0001
0000
,
0001
0000
0100
0000
,
0000
0000
0100
0000
,
0010
0000
1000
0000
,
0000
0000
0001
0000
,
0001
0000
0100
0000
,
0000
0000
0000
0000
,
0001
0001
0001
0000
,
1000
1000
1000
0000
,
0001
0000
1000
0000
,
2002
0000
0000
3003
,
1001
0000
0100
0000
,
0010
0000
1000
0000
,
1000
0000
0010
0000
,
1000
0000
0001
0000
,
1000
0000
0010
0000
,
0001
0000
0100
0000
,
0001
0000
0100
0000
,
0100
0000
0100
0100
;
