#VERSION:0.83;
#TITLE:Arcade Love;
#SUBTITLE:(feat. KNVWN);
#ARTIST:Newton;
#TITLETRANSLIT:;
#SUBTITLETRANSLIT:;
#ARTISTTRANSLIT:;
#GENRE:;
#ORIGIN:;
#CREDIT:;
#BANNER:;
#BACKGROUND:;
#PREVIEWVID:;
#JACKET:;
#CDIMAGE:;
#DISCIMAGE:;
#LYRICSPATH:;
#CDTITLE:;
#MUSIC:Arcade Love (feat. KNVWN).ogg;
#OFFSET:-0.200000;
#SAMPLESTART:46.559963;
#SAMPLELENGTH:15.599999;
#SELECTABLE:YES;
#BPMS:0.000=176.000;
#STOPS:;
#DELAYS:;
#WARPS:;
#TIMESIGNATURES:0.000=4=4;
#TICKCOUNTS:0.000=4;
#COMBOS:0.000=1;
#SPEEDS:0.000=1.000=0.000=0;
#SCROLLS:0.000=1.000;
#FAKES:;
#LABELS:0.000=Song Start;
#BGCHANGES:0.250=Arcade Love (feat. KNVWN).avi=1.000=1=0=1===CrossFade==,
99999=-nosongbg-=1.000=0=0=0 // don't automatically add -songbackground-
;
#KEYSOUNDS:;
#ATTACKS:
;

//---------------dance-single - ----------------
#NOTEDATA:;
#CHARTNAME:;
#STEPSTYPE:dance-single;
#DESCRIPTION:;
#CHARTSTYLE:;
#DIFFICULTY:Hard;
#METER:9;
#RADARVALUES:0.644163,0.647959,0.308946,0.132406,0.000000,613.000000,571.000000,42.000000,18.000000,0.000000,0.000000,0.000000,0.000000,0.000000,0.644163,0.647959,0.308946,0.132406,0.000000,613.000000,571.000000,42.000000,18.000000,0.000000,0.000000,0.000000,0.000000,0.000000;
#CREDIT:;
#NOTES:
0000
0000
0000
0000
,
0000
0000
0000
0000
,
0000
0000
0000
0000
,
0000
0000
0000
0000
,
0000
0000
0000
0000
,
1010
0101
1010
0000
,
0002
0100
0000
0100
,
0000
0100
1000
0103
,
2000
0000
0000
0000
0001
0001
0000
0100
,
0100
0000
0010
0010
0000
0001
3001
0000
,
1001
0000
0001
0100
0001
0100
0001
1000
,
0001
1000
0100
1000
0100
1000
0001
1000
,
0001
0000
1000
0001
1000
0001
0100
0001
,
0100
0001
1000
0001
0010
0001
1000
0001
,
1000
0000
0001
0100
0010
0100
0010
0100
,
0001
0100
0001
1000
0100
1000
0010
1000
,
0100
0000
1000
0010
0100
0010
1000
0010
,
1000
0100
1000
0100
1000
0100
1000
0001
,
1000
0000
1000
0001
0000
0001
0100
0010
,
0100
0001
1000
0000
0001
1000
0001
1000
,
0100
0000
1000
0100
1000
0010
0100
0001
,
0100
0001
0000
0001
1000
0001
1000
0001
,
1000
0000
1000
0100
0010
0001
1000
0100
,
0010
0001
1000
0001
0100
0010
0000
1001
,
0000
0001
0100
0001
1000
0100
1000
0001
,
0100
0001
1000
0100
1000
0001
0100
0001
,
1000
0000
0010
0000
0100
0010
1000
0010
,
0100
0010
1000
0010
0100
0010
1000
0000
,
0001
0000
0100
0000
0010
0100
0001
0100
,
0010
0100
0001
0100
0010
0100
0001
0001
,
0002
1003
2000
3100
,
0200
0310
0020
0031
,
0002
0000
2003
0000
3001
1000
0001
1000
,
0200
0000
0300
1001
,
1000
0100
0001
0100
1000
0100
0001
0100
,
1000
0010
0001
0010
1000
0010
0001
0010
,
1000
0100
0010
0100
1000
0100
0010
0100
,
1000
0010
0100
0010
1000
0010
0100
0010
,
1000
0100
0001
0100
1000
0010
0001
0010
,
1000
0100
0001
0100
1000
0010
0001
0010
,
1000
0100
0010
0001
1000
0100
0010
0001
,
1001
0110
1001
0110
,
0001
0100
1000
0100
0001
0100
1000
0100
,
0001
0010
1000
0010
0001
0010
1000
0010
,
0001
0100
0010
0100
0001
0100
0010
0100
,
0001
0010
0100
0010
0001
0010
0100
0010
,
0001
0100
1000
0100
0001
0010
1000
0010
,
0001
0100
1000
0100
0001
0010
1000
0010
,
0001
0010
0100
1000
0001
0010
0100
1000
,
1001
0110
1001
0110
,
2002
0000
0000
3000
,
0200
0000
0000
0003
,
0020
0000
0000
0300
,
2000
0000
0000
0030
,
0002
0000
0000
3000
,
0200
0000
0000
0003
,
0020
0000
0000
0300
,
2000
0000
0000
3030
,
1010
1001
0000
0110
,
0000
1001
0000
1100
,
0000
0011
0000
1001
,
0000
0101
0000
1010
,
0000
1100
0000
0011
,
0000
0101
0000
1010
,
0000
0000
1001
0000
1000
0100
0000
0001
,
0100
0000
1000
0100
0000
0001
0100
0000
,
1000
0100
0001
0100
1000
0100
0001
0100
,
1000
0010
0001
0010
1000
0010
0001
0010
,
1000
0100
0010
0100
1000
0100
0010
0100
,
1000
0010
0100
0010
1000
0010
0100
0010
,
1000
0100
0001
0100
1000
0010
0001
0010
,
1000
0100
0001
0100
1000
0010
0001
0010
,
1000
0100
0010
0001
1000
0100
0010
0001
,
1001
0110
1001
0110
,
0001
0100
1000
0100
0001
0100
1000
0100
,
0001
0010
1000
0010
0001
0010
1000
0010
,
0001
0100
0010
0100
0001
0100
0010
0100
,
0001
0010
0100
0010
0001
0010
0100
0010
,
0001
0100
1000
0100
0001
0010
1000
0010
,
0001
0100
1000
0100
0001
0010
1000
0010
,
0001
0010
0100
1000
0001
0010
0100
1000
,
1001
0110
1001
0110
,
1000
0100
0001
0100
1000
0100
0001
0100
,
1000
0010
0001
0010
1000
0010
0001
0010
,
1000
0100
0010
0100
1000
0100
0010
0100
,
1000
0010
0100
0010
1000
0010
0100
0010
,
1000
0100
0001
0100
1000
0010
0001
0010
,
1000
0100
0001
0100
1000
0010
0001
0010
,
1000
0100
0010
0001
1000
0100
0010
0001
,
1001
0110
1001
0110
,
0001
0100
1000
0100
0001
0100
1000
0100
,
0001
0010
1000
0010
0001
0010
1000
0010
,
0001
0100
0010
0100
0001
0100
0010
0100
,
0001
0010
0100
0010
0001
0010
0100
0010
,
0001
0100
1000
0100
0001
0010
1000
0010
,
0001
0100
1000
0100
0001
0010
1000
0010
,
0001
0010
0100
1000
0001
0010
0100
1000
,
0001
0100
0010
1000
0001
0100
0010
0101
;

//---------------dance-single - ----------------
#NOTEDATA:;
#CHARTNAME:;
#STEPSTYPE:dance-single;
#DESCRIPTION:;
#CHARTSTYLE:;
#DIFFICULTY:Medium;
#METER:7;
#RADARVALUES:0.494944,0.575228,0.264811,0.794433,0.000000,471.000000,435.000000,36.000000,108.000000,0.000000,0.000000,0.000000,0.000000,0.000000,0.494944,0.575228,0.264811,0.794433,0.000000,471.000000,435.000000,36.000000,108.000000,0.000000,0.000000,0.000000,0.000000,0.000000;
#CREDIT:;
#NOTES:
0000
0000
0000
0000
,
0000
0000
0000
0000
,
0000
0000
0000
0000
,
0000
0000
0000
0000
,
0000
0000
0000
0000
,
1001
0110
1001
0000
,
0002
0100
0000
0100
,
0000
0100
1000
0103
,
2000
0000
0000
0000
0001
0000
0000
0100
,
0000
0000
0010
0000
0000
0001
3000
0000
,
1001
0001
0100
0001
,
1001
0100
0100
1000
,
1001
1000
1000
0100
,
1001
0001
0010
0001
,
1001
1000
0010
0010
,
1001
0001
0100
0010
,
1001
1000
0100
1000
,
1001
0001
0001
0001
,
1000
0000
1000
0001
0000
0001
0000
0010
,
0000
0001
1000
0000
0001
1000
0001
1000
,
0100
0000
1000
0100
0000
0010
0000
0001
,
0100
0001
0000
0001
1000
0001
1000
0001
,
1000
0000
1000
0100
0010
0100
1000
0100
,
0010
0100
1000
0100
0010
0100
1000
0000
,
0001
0100
0001
1000
,
0100
1000
1000
0010
,
0100
0001
0100
0010
,
0100
0001
1000
1000
,
0001
0100
0010
0100
,
0010
1000
0010
0100
,
0002
1003
2000
3100
,
0200
0310
0020
0031
,
0002
0000
2003
0000
3001
1000
0001
1000
,
0200
0000
0300
1001
,
1000
0001
2000
0000
3001
1000
0002
0000
,
0103
0010
0200
0000
0310
0100
0020
0000
,
1030
0100
2000
0000
3001
0100
0002
0000
,
1003
0010
2000
0000
3001
0010
0002
0000
,
1003
0100
2000
0000
3001
0100
0002
0000
,
1003
0010
2000
0000
3001
0010
0002
0000
,
0103
0010
0200
0000
0310
0100
0020
0000
,
1030
0001
2000
0000
3001
1000
0002
0000
,
1003
0100
2000
0000
3001
0100
0002
0000
,
1003
0010
2000
0000
3001
0010
0002
0000
,
1003
0100
2000
0000
3001
0100
0002
0000
,
1003
0010
2000
0000
3001
0010
0002
0003
,
1000
0100
2000
0000
3001
0100
0002
0000
,
1003
0010
2000
0000
3001
0010
0002
0000
,
1003
0001
2000
0000
3001
1000
0002
0000
,
1003
0110
1001
0110
,
2002
0000
0000
3000
,
0200
0000
0000
0003
,
0020
0000
0000
0300
,
2000
0000
0000
0030
,
0002
0000
0000
3000
,
0200
0000
0000
0003
,
0020
0000
0000
0300
,
2000
0000
0000
3030
,
1010
1001
0000
0110
,
0000
1001
0000
1100
,
0000
0011
0000
1001
,
0000
0101
0000
1010
,
0000
1100
0000
0011
,
0000
0101
0000
1010
,
0000
0000
1001
0000
1000
0100
0000
0001
,
0100
0000
1000
0100
0000
0001
0100
0000
,
1000
0001
2000
0000
3001
1000
0002
0000
,
0103
0010
0200
0000
0310
0100
0020
0000
,
1030
0100
2000
0000
3001
0100
0002
0000
,
1003
0010
2000
0000
3001
0010
0002
0000
,
1003
0100
2000
0000
3001
0100
0002
0000
,
1003
0010
2000
0000
3001
0010
0002
0000
,
0103
0010
0200
0000
0310
0100
0020
0000
,
1030
0001
2000
0000
3001
1000
0002
0000
,
1003
0100
2000
0000
3001
0100
0002
0000
,
1003
0010
2000
0000
3001
0010
0002
0000
,
1003
0100
2000
0000
3001
0100
0002
0000
,
1003
0010
2000
0000
3001
0010
0002
0003
,
1000
0100
2000
0000
3001
0100
0002
0000
,
1003
0010
2000
0000
3001
0010
0002
0000
,
1003
0001
2000
0000
3001
1000
0002
0000
,
1003
0110
1001
0110
,
1000
0001
2000
0000
3001
1000
0002
0000
,
0103
0010
0200
0000
0310
0100
0020
0000
,
1030
0100
2000
0000
3001
0100
0002
0000
,
1003
0010
2000
0000
3001
0010
0002
0000
,
1003
0100
2000
0000
3001
0100
0002
0000
,
1003
0010
2000
0000
3001
0010
0002
0000
,
0103
0010
0200
0000
0310
0100
0020
0000
,
1030
0001
2000
0000
3001
1000
0002
0000
,
1003
0100
2000
0000
3001
0100
0002
0000
,
1003
0010
2000
0000
3001
0010
0002
0000
,
1003
0100
2000
0000
3001
0100
0002
0000
,
1003
0010
2000
0000
3001
0010
0002
0003
,
1000
0100
2000
0000
3001
0100
0002
0000
,
1003
0010
2000
0000
3001
0010
0002
0000
,
1003
0001
2000
0000
3001
1000
0002
0000
,
1003
0101
1010
1001
;

//---------------dance-single - ----------------
#NOTEDATA:;
#CHARTNAME:;
#STEPSTYPE:dance-single;
#DESCRIPTION:;
#CHARTSTYLE:;
#DIFFICULTY:Easy;
#METER:5;
#RADARVALUES:0.365691,0.467373,0.205964,0.823857,0.000000,348.000000,320.000000,28.000000,112.000000,0.000000,0.000000,0.000000,0.000000,0.000000,0.365691,0.467373,0.205964,0.823857,0.000000,348.000000,320.000000,28.000000,112.000000,0.000000,0.000000,0.000000,0.000000,0.000000;
#CREDIT:;
#NOTES:
0000
0000
0000
0000
,
0000
0000
0000
0000
,
0000
0000
0000
0000
,
0000
0000
0000
0000
,
0000
0000
0000
0000
,
0000
0000
0000
0000
,
0002
0100
0000
0100
,
0000
0100
0000
0103
,
2000
0010
0000
0010
,
0000
0010
0000
3010
,
1001
0001
0100
0001
,
1001
0100
0100
1000
,
1001
1000
1000
0100
,
1001
0001
0010
0001
,
1001
1000
0010
0010
,
1001
0001
0100
0010
,
1001
1000
0100
1000
,
1001
0001
0001
0001
,
1000
1000
0001
0001
,
1000
1000
0001
0001
,
0100
0100
0010
0010
,
1000
1000
1000
1000
,
0001
0001
0010
0001
,
0010
0001
0010
0001
,
0001
0100
0001
1000
,
0100
1000
1000
0010
,
0100
0001
0100
0010
,
0100
0001
1000
1000
,
0001
0100
0010
0100
,
0010
1000
0010
0100
,
0002
1003
2000
3100
,
0200
0310
0020
0031
,
0002
1003
2000
0002
,
0000
0000
0000
3003
,
1000
2000
3001
0002
,
0103
0200
0310
0020
,
1030
2000
3001
0002
,
1003
2000
3001
0002
,
1003
2000
3001
0002
,
1003
2000
3001
0002
,
0103
0200
0310
0020
,
1030
2000
3001
0002
,
1003
2000
3001
0002
,
1003
2000
3001
0002
,
1003
2000
3001
0002
,
1003
0000
2000
0000
3001
0000
0002
0003
,
1000
2000
3001
0002
,
1003
2000
3001
0002
,
1003
2000
3001
0002
,
1003
0110
1001
0110
,
2002
0000
0000
3000
,
0200
0000
0000
0003
,
0020
0000
0000
0300
,
2000
0000
0000
0030
,
0002
0000
0000
3000
,
0200
0000
0000
0003
,
0020
0000
0000
0300
,
2000
0000
0000
3030
,
1000
1001
0000
0110
,
0000
1001
0000
0100
,
0000
0011
0000
1001
,
0000
0101
0000
0010
,
0000
1100
0000
0011
,
0000
0101
0000
0010
,
0000
0000
1001
0000
2000
0000
0000
3002
,
0000
0000
2003
0000
0000
3002
0000
0000
,
1003
2000
3001
0002
,
0103
0200
0310
0020
,
1030
2000
3001
0002
,
1003
2000
3001
0002
,
1003
2000
3001
0002
,
1003
2000
3001
0002
,
0103
0200
0310
0020
,
1030
2000
3001
0002
,
1003
2000
3001
0002
,
1003
2000
3001
0002
,
1003
2000
3001
0002
,
1003
0000
2000
0000
3001
0000
0002
0003
,
1000
2000
3001
0002
,
1003
2000
3001
0002
,
1003
2000
3001
0002
,
1003
0110
1001
0110
,
1000
2000
3001
0002
,
0103
0200
0310
0020
,
1030
2000
3001
0002
,
1003
2000
3001
0002
,
1003
2000
3001
0002
,
1003
2000
3001
0002
,
0103
0200
0310
0020
,
1030
2000
3001
0002
,
1003
2000
3001
0002
,
1003
2000
3001
0002
,
1003
2000
3001
0002
,
1003
0000
2000
0000
3001
0000
0002
0003
,
1000
2000
3001
0002
,
1003
2000
3001
0002
,
1003
2000
3001
0002
,
1003
0101
1010
1001
;

//---------------dance-single - ----------------
#NOTEDATA:;
#CHARTNAME:;
#STEPSTYPE:dance-single;
#DESCRIPTION:;
#CHARTSTYLE:;
#DIFFICULTY:Beginner;
#METER:3;
#RADARVALUES:0.178642,0.179299,0.000000,0.036779,0.000000,170.000000,170.000000,0.000000,5.000000,0.000000,0.000000,0.000000,0.000000,0.000000,0.178642,0.179299,0.000000,0.036779,0.000000,170.000000,170.000000,0.000000,5.000000,0.000000,0.000000,0.000000,0.000000,0.000000;
#CREDIT:;
#NOTES:
// measure 0
0000
0000
0000
0000
,  // measure 1
0000
0000
0000
0000
,  // measure 2
0000
0000
0000
0000
,  // measure 3
0000
0000
0000
0000
,  // measure 4
0000
0000
0000
0000
,  // measure 5
0000
0000
0000
0000
,  // measure 6
0000
0100
0000
0100
,  // measure 7
0000
0100
0000
0100
,  // measure 8
0000
0010
0000
0010
,  // measure 9
0000
0010
0000
0010
,  // measure 10
0010
0000
0100
0000
,  // measure 11
1000
0000
0100
0000
,  // measure 12
0001
0000
1000
0000
,  // measure 13
0001
0000
0010
0000
,  // measure 14
1000
0000
0010
0000
,  // measure 15
0001
0000
0100
0000
,  // measure 16
1000
0000
0100
0000
,  // measure 17
0001
0001
0000
0000
,  // measure 18
1000
1000
0000
0000
,  // measure 19
1000
1000
0000
0000
,  // measure 20
0100
0100
0000
0000
,  // measure 21
0001
0001
0000
0000
,  // measure 22
0001
0001
0000
0000
,  // measure 23
0010
0000
0010
0000
,  // measure 24
0100
0000
0100
0000
,  // measure 25
0100
0000
1000
0000
,  // measure 26
0100
0000
0100
0000
,  // measure 27
0100
0000
1000
0000
,  // measure 28
0001
0000
0010
0000
,  // measure 29
0010
0000
0010
0000
,  // measure 30
0001
0000
1000
0000
,  // measure 31
0100
0000
0010
0000
,  // measure 32
0001
0000
1000
0000
,  // measure 33
0001
0000
0000
0000
,  // measure 34
1000
1000
0000
0000
,  // measure 35
0100
0100
0000
0000
,  // measure 36
0001
0001
0000
0000
,  // measure 37
0010
0010
0000
0000
,  // measure 38
1000
1000
0000
0000
,  // measure 39
1000
1000
0000
0000
,  // measure 40
0001
0001
0000
0000
,  // measure 41
0001
0001
0000
0000
,  // measure 42
1000
1000
0000
0000
,  // measure 43
0001
0001
0000
0000
,  // measure 44
0100
0100
0000
0000
,  // measure 45
0010
0010
0000
0000
,  // measure 46
1000
1000
0000
0000
,  // measure 47
0001
0001
0000
0000
,  // measure 48
1000
1000
0000
0000
,  // measure 49
0001
0001
0000
0000
,  // measure 50
0002
0000
0000
0000
,  // measure 51
0000
0000
0000
0003
,  // measure 52
0020
0000
0000
0000
,  // measure 53
0000
0000
0000
0030
,  // measure 54
0200
0000
0000
0000
,  // measure 55
0000
0000
0000
0300
,  // measure 56
2000
0000
0000
0000
,  // measure 57
0000
0000
0000
3000
,  // measure 58
0000
1000
0000
0010
,  // measure 59
0000
0001
0000
0100
,  // measure 60
0000
0001
0000
0001
,  // measure 61
0000
0100
0000
0010
,  // measure 62
0000
1000
0000
0010
,  // measure 63
0000
0100
0000
0010
,  // measure 64
0000
1000
2000
0000
,  // measure 65
0000
0000
0000
0000
0000
3000
0000
0000
,  // measure 66
1000
1000
0000
0000
,  // measure 67
0100
0100
0000
0000
,  // measure 68
0010
0010
0000
0000
,  // measure 69
0001
0001
0000
0000
,  // measure 70
1000
1000
0000
0000
,  // measure 71
0001
0001
0000
0000
,  // measure 72
0100
0100
0000
0000
,  // measure 73
0010
0010
0000
0000
,  // measure 74
1000
1000
0000
0000
,  // measure 75
0001
0001
0000
0000
,  // measure 76
0100
0100
0000
0000
,  // measure 77
0010
0010
0000
0000
,  // measure 78
1000
1000
0000
0000
,  // measure 79
0001
0001
0000
0000
,  // measure 80
0100
0100
0000
0000
,  // measure 81
0010
0010
0000
0000
,  // measure 82
1000
1000
0000
0000
,  // measure 83
0001
0001
0000
0000
,  // measure 84
1000
1000
0000
0000
,  // measure 85
0001
0001
0000
0000
,  // measure 86
0100
0100
0000
0000
,  // measure 87
0010
0010
0000
0000
,  // measure 88
0100
0100
0000
0000
,  // measure 89
0010
0010
0000
0000
,  // measure 90
1000
1000
0000
0000
,  // measure 91
0100
0100
0000
0000
,  // measure 92
0010
0010
0000
0000
,  // measure 93
0001
0001
0000
0000
,  // measure 94
1000
1000
0000
0000
,  // measure 95
0001
0001
0000
0000
,  // measure 96
0100
0100
0000
0000
,  // measure 97
0010
0010
0010
0000
;
