#TITLE:Alone Tonight;
#SUBTITLE:(Above & Beyond Club Mix);
#ARTIST:Above & Beyond;
#TITLETRANSLIT:;
#SUBTITLETRANSLIT:;
#ARTISTTRANSLIT:;
#GENRE:;
#CREDIT:;
#BANNER:;
#BACKGROUND:;
#LYRICSPATH:;
#CDTITLE:;
#MUSIC:Alone Tonight (Club Mix).ogg;
#OFFSET:0.640000;
#SAMPLESTART:28.919992;
#SAMPLELENGTH:15.620000;
#SELECTABLE:YES;
#BPMS:0.000000=138.000168
;
#STOPS:
;
#BGCHANGES:;
#KEYSOUNDS:;
#ATTACKS:;

//---------------dance-single - ----------------
#NOTES:
     dance-single:
     :
     Hard:
     7:
     0.458116,0.493906,0.133617,0.038176,0.209970,336.000000,322.000000,14.000000,4.000000,0.000000,0.000000,0.458116,0.493906,0.133617,0.038176,0.209970,336.000000,322.000000,14.000000,4.000000,0.000000,0.000000:
0000
0000
0000
0000
,
0000
0000
0000
0000
,
0000
0000
0000
0000
,
0000
0000
0000
0000
,
0000
0000
0000
0000
,
1000
0000
0000
1000
0000
0000
1000
0000
0000
1000
0000
0000
1000
0000
0000
0000
,
0001
0000
0000
0001
0000
0000
0001
0000
0000
0001
0000
0000
0001
0000
0000
0000
,
0100
0000
0000
0100
0000
0000
0100
0000
0000
0100
0000
0000
0100
0000
0000
0000
,
0010
0000
0000
0010
0000
0000
0010
0000
0000
0010
0000
0000
0010
0000
0000
0000
,
1000
0010
0100
0001
1000
0010
0100
0001
,
1000
0100
0010
0001
1000
0100
0010
0001
,
0100
0001
0100
0001
1000
0010
1000
0010
,
1000
0100
1000
0100
0010
0001
0010
0001
,
0001
0100
0001
0001
1000
0100
1000
1000
,
0001
0010
0001
0001
1000
0010
1000
1000
,
0001
0100
0010
1000
1000
0001
0100
0010
,
1000
0100
0010
0001
0001
0010
0100
1000
,
1000
0000
0000
1000
0010
0000
0000
0000
0010
0000
0000
0010
0100
0000
0000
0000
,
0100
0000
0000
0100
0001
0000
0000
0000
0001
0000
0000
0001
1000
0000
0000
0000
,
1000
0000
0000
1000
0100
0000
0000
0000
0100
0000
0000
0100
0010
0000
0000
0000
,
0010
0000
0000
0010
0001
0000
0000
0000
0001
0000
0000
0001
0100
0000
0000
0000
,
0010
0000
0000
0010
1000
0000
0000
0000
0001
0000
0000
0001
1000
0000
0000
0000
,
1000
0000
0000
1000
0010
0000
0000
0000
0100
0000
0000
0100
0001
0000
0000
0000
,
0001
0000
0000
0001
0100
0000
0000
0000
0010
0000
0000
0010
1000
0000
0000
0000
,
1000
0000
0000
1000
0010
0000
0000
0000
0100
0000
0000
0100
0001
0000
0000
0000
,
1000
0001
1000
0001
1000
0001
1000
0001
,
0100
0010
0100
0010
0100
0010
0100
0010
,
1000
0100
1000
0100
1000
0100
1000
0100
,
0010
0001
0010
0001
0010
0001
0010
0001
,
1000
0010
0100
0010
1000
0010
0100
0010
,
0010
0100
0010
0001
0010
0100
0010
0001
,
0010
1000
0100
0010
0001
1000
0100
0010
,
2002
0000
0000
3003
,
1001
0000
0000
1000
0001
0000
0000
0000
0100
0000
0001
0000
0100
0000
0000
0000
,
1001
0000
0000
0001
1000
0000
0000
0000
0010
0000
0100
0000
0010
0000
0000
0000
,
1010
0000
0000
1000
0010
0000
0000
0000
0010
0000
0100
0000
0010
0000
0000
0000
,
0101
0000
0000
0100
0001
0000
0000
0000
0001
0000
0100
0000
0001
0000
0000
0000
,
1000
0100
0010
0001
,
1000
0100
0010
0001
,
1000
0100
0010
0001
1000
0100
0010
0001
,
1000
0001
0100
0001
1000
0100
1000
0001
,
0100
0000
0000
0100
0000
0000
0100
0000
0000
0100
0000
0000
0100
0000
0000
0000
,
0010
0000
0000
0010
0000
0000
0010
0000
0000
0010
0000
0000
0010
0000
0000
0000
,
1000
0000
0000
1000
0000
0000
1000
0000
0000
1000
0000
0000
1000
0000
0000
0000
,
0001
0000
0000
0001
0000
0000
0001
0000
0000
0001
0000
0000
0001
0000
0000
0000
,
1000
0000
0000
1000
0000
0000
1000
0000
0000
1000
0000
0000
1000
0000
0000
0000
,
0100
0000
0000
0100
0000
0000
0100
0000
0000
0100
0000
0000
0100
0000
0000
0000
,
0010
0000
0000
0010
0000
0000
0010
0000
0000
0010
0000
0000
0010
0000
0000
0000
,
0001
0000
0000
0001
0000
0000
0001
0000
0000
0001
0000
0000
0001
0000
0000
0000
,
1001
0100
0001
0100
,
1001
0100
1000
0100
,
1001
0100
0001
0100
,
1001
0100
1000
0100
,
1001
1000
0100
1000
0100
1000
0100
0000
,
1001
0001
0100
0001
0100
0001
0100
0000
,
1001
1000
0010
1000
0010
1000
0010
0000
,
1001
0001
0010
0001
0010
0001
0010
0000
,
2002
0000
3003
0000
;

//---------------dance-single - ----------------
#NOTES:
     dance-single:
     :
     Medium:
     5:
     0.317681,0.466467,0.133617,0.343587,0.000000,233.000000,219.000000,14.000000,36.000000,0.000000,0.000000,0.317681,0.466467,0.133617,0.343587,0.000000,233.000000,219.000000,14.000000,36.000000,0.000000,0.000000:
0000
0000
0000
0000
,
0000
0000
0000
0000
,
0000
0000
0000
0000
,
0000
0000
0000
0000
,
0000
0000
0000
0000
,
2000
0000
0000
3000
,
0002
0000
0000
0003
,
0200
0000
0000
0300
,
0020
0000
0000
0030
,
1000
0010
0100
0001
1000
0000
0000
0000
,
0001
0100
0010
0100
0001
0000
0000
0000
,
0100
0001
0100
0001
1000
0000
0000
0000
,
0001
0100
0001
0100
0010
0000
0000
0000
,
1000
0100
1000
0100
1000
0000
0000
0000
,
0001
0010
0001
0010
0001
0000
0000
0000
,
1000
0100
0010
0100
1000
0000
0000
0000
,
0001
0010
0100
0010
0001
0000
0000
0000
,
2000
3010
0020
0130
,
0200
0301
0002
1003
,
2000
3100
0200
0310
,
0020
0031
0002
0103
,
0020
1030
0002
1003
,
2000
3010
0200
0301
,
0002
0103
0020
1030
,
2000
3010
0200
0301
,
1000
0001
1000
0001
1000
0001
1000
0000
,
0100
0010
0100
0010
0100
0010
0100
0000
,
1000
0100
1000
0100
1000
0100
1000
0000
,
0010
0001
0010
0001
0010
0001
0010
0000
,
1000
0010
0100
0010
1000
0010
0100
0000
,
0010
0100
0010
0001
0010
0100
0010
0000
,
0010
1000
0100
0010
0001
1000
0100
0000
,
2002
0000
0000
3003
,
2001
0000
3001
0000
0100
0001
0100
0000
,
1002
0000
1003
0000
0010
0100
0010
0000
,
2010
0000
3010
0000
0010
0100
0010
0000
,
0201
0000
0301
0000
0001
0100
0001
0000
,
1000
0100
0010
0001
,
1000
0100
0010
0001
,
1000
0100
0010
0001
1000
0100
0010
0001
,
1000
0001
0100
0001
1000
0100
1000
0001
,
0200
0000
0000
0300
,
0020
0000
0000
0030
,
2000
0000
0000
3000
,
0002
0000
0000
0003
,
2000
0000
0000
3000
,
0200
0000
0000
0300
,
0020
0000
0000
0030
,
0002
0000
0000
0003
,
1001
0100
0001
0100
,
1001
0100
1000
0100
,
1001
0100
0001
0100
,
1001
0100
1000
0100
,
1001
0000
0100
1000
0100
1000
0100
0000
,
1001
0000
0100
0001
0100
0001
0100
0000
,
1001
0000
0010
1000
0010
1000
0010
0000
,
1001
0000
0010
0001
0010
0001
0010
0000
,
2002
0000
3003
0000
;

//---------------dance-single - ----------------
#NOTES:
     dance-single:
     :
     Easy:
     3:
     0.239965,0.329271,0.133617,0.343587,0.000000,176.000000,162.000000,14.000000,36.000000,0.000000,0.000000,0.239965,0.329271,0.133617,0.343587,0.000000,176.000000,162.000000,14.000000,36.000000,0.000000,0.000000:
0000
0000
0000
0000
,
0000
0000
0000
0000
,
0000
0000
0000
0000
,
0000
0000
0000
0000
,
0000
0000
0000
0000
,
2000
0000
0000
3000
,
0002
0000
0000
0003
,
0200
0000
0000
0300
,
0020
0000
0000
0030
,
1000
0100
1000
0000
,
0001
0010
0001
0000
,
0100
0100
1000
0000
,
0001
0001
0010
0000
,
1000
1000
1000
0000
,
0001
0001
0001
0000
,
1000
0010
1000
0000
,
0001
0100
0001
0000
,
2000
3010
0020
0130
,
0200
0301
0002
1003
,
2000
3100
0200
0310
,
0020
0031
0002
0103
,
0020
1030
0002
1003
,
2000
3010
0200
0301
,
0002
0103
0020
1030
,
2000
3010
0200
0301
,
1000
1000
1000
1000
,
0100
0100
0100
0100
,
0010
0010
0010
0010
,
0001
0001
0001
0001
,
1000
0100
1000
0100
,
0010
0001
0010
0001
,
1000
0100
0010
0001
,
2002
0000
0000
3003
,
2001
3001
0100
0100
,
1002
1003
1000
1000
,
0210
0310
0010
0010
,
0102
0103
0001
0001
,
1000
0100
0010
0001
,
1000
0100
0010
0001
,
1000
0010
0100
0001
,
1000
0100
0010
0001
,
0200
0000
0000
0300
,
0020
0000
0000
0030
,
2000
0000
0000
3000
,
0002
0000
0000
0003
,
2000
0000
0000
3000
,
0200
0000
0000
0300
,
0020
0000
0000
0030
,
0002
0000
0000
0003
,
1001
0100
0001
0100
,
1001
0100
1000
0100
,
1001
0100
0001
0100
,
1001
0100
1000
0100
,
1001
0100
0100
0100
,
1001
0100
0100
0100
,
1001
0010
0010
0010
,
1001
0010
0010
0010
,
2002
0000
3003
0000
;

//---------------dance-single - ----------------
#NOTES:
     dance-single:
     :
     Beginner:
     2:
     0.132254,0.192075,0.047720,0.143161,0.000000,97.000000,92.000000,5.000000,15.000000,0.000000,0.000000,0.132254,0.192075,0.047720,0.143161,0.000000,97.000000,92.000000,5.000000,15.000000,0.000000,0.000000:
// measure 0
0000
0000
0000
0000
,  // measure 1
0000
0000
0000
0000
,  // measure 2
0000
0000
0000
0000
,  // measure 3
0000
0000
0000
0000
,  // measure 4
0000
0000
0000
0000
,  // measure 5
2000
0000
3000
0000
,  // measure 6
0002
0000
0003
0000
,  // measure 7
0200
0000
0300
0000
,  // measure 8
0020
0000
0030
0000
,  // measure 9
1000
0000
1000
0000
,  // measure 10
0001
0000
0001
0000
,  // measure 11
0100
0000
1000
0000
,  // measure 12
0001
0000
0010
0000
,  // measure 13
1000
0000
1000
0000
,  // measure 14
0001
0000
0001
0000
,  // measure 15
1000
0000
1000
0000
,  // measure 16
0001
0000
0001
0000
,  // measure 17
1000
0000
0010
0000
,  // measure 18
0100
0000
0001
0000
,  // measure 19
1000
0000
0100
0000
,  // measure 20
0010
0000
0001
0000
,  // measure 21
0010
0000
0001
0000
,  // measure 22
1000
0000
0100
0000
,  // measure 23
0001
0000
0010
0000
,  // measure 24
1000
0000
0100
0000
,  // measure 25
1000
1000
1000
0000
,  // measure 26
0100
0100
0100
0000
,  // measure 27
0010
0010
0010
0000
,  // measure 28
0001
0001
0001
0000
,  // measure 29
1000
0000
1000
0000
,  // measure 30
0010
0000
0010
0000
,  // measure 31
0100
0000
0100
0000
,  // measure 32
0002
0000
0003
0000
,  // measure 33
0001
0001
0000
0000
,  // measure 34
1000
1000
0000
0000
,  // measure 35
0010
0010
0000
0000
,  // measure 36
0100
0100
0000
0000
,  // measure 37
1000
0000
0010
0000
,  // measure 38
0100
0000
0001
0000
,  // measure 39
1000
0000
0100
0000
,  // measure 40
0010
0000
0001
0000
,  // measure 41
0200
0000
0000
0300
,  // measure 42
0020
0000
0000
0030
,  // measure 43
2000
0000
0000
3000
,  // measure 44
0002
0000
0000
0003
,  // measure 45
2000
0000
0000
3000
,  // measure 46
0200
0000
0000
0300
,  // measure 47
0020
0000
0000
0030
,  // measure 48
0002
0000
0000
0003
,  // measure 49
0001
0000
0001
0000
,  // measure 50
1000
0000
1000
0000
,  // measure 51
0001
0000
0001
0000
,  // measure 52
1000
0000
1000
0000
,  // measure 53
1001
0000
0000
0000
,  // measure 54
1001
0000
0000
0000
,  // measure 55
0110
0000
0000
0000
,  // measure 56
0110
0000
0000
0000
,  // measure 57
2002
0000
3003
0000
;
